osu file format v14

[General]
AudioFilename: audio.mp3
AudioLeadIn: 0
PreviewTime: 62225
Countdown: 0
SampleSet: Soft
StackLeniency: 0.7
Mode: 0
LetterboxInBreaks: 0
WidescreenStoryboard: 1

[Editor]
DistanceSpacing: 1.4
BeatDivisor: 4
GridSize: 4
TimelineZoom: 1.4

[Metadata]
Title:Friend Shitai
TitleUnicode:ふ・れ・ん・ど・し・た・い
Artist:Wakasa Yuuri (CV: M.A.O)
ArtistUnicode:若狭悠里 (CV: M・A・O)
Creator:zan
Version:Hard
Source:がっこうぐらし!
Tags:ayucchi creamy candy fleuress xiqingwa zan1to gakkou gurashi school live tv size cut rii rii-san version anime school-live opening living club takeya yuki 丈槍由紀 minase inori 水瀬いのり ebisuzawa kurumi 恵飛須沢胡桃 ozawa ari 小澤亜李 ichimichi mao M·A·O 市道真央 naoki miki 直樹美紀 takahashi rie 高橋李依
BeatmapID:2225118
BeatmapSetID:1041232

[Difficulty]
HPDrainRate:5
CircleSize:3.6
OverallDifficulty:6
ApproachRate:7
SliderMultiplier:1.42
SliderTickRate:1

[Events]
//Background and Video events
0,0,"bg.jpg",0,0
Video,-148,"video.avi"
//Break Periods
//Storyboard Layer 0 (Background)
//Storyboard Layer 1 (Fail)
//Storyboard Layer 2 (Pass)
//Storyboard Layer 3 (Foreground)
//Storyboard Layer 4 (Overlay)
//Storyboard Sound Samples

[TimingPoints]
706,405.405405405405,4,2,1,50,1,0
706,-133.333333333333,4,2,1,50,0,0
3949,-133.333333333333,4,2,1,40,0,0
4760,-133.333333333333,4,2,1,50,0,0
5570,-133.333333333333,4,2,1,60,0,0
6381,-133.333333333333,4,2,1,70,0,0
8408,-133.333333333333,4,2,3,70,0,0
8814,-100,4,2,1,70,0,1
20976,-100,4,2,3,70,0,0
21787,-100,4,2,1,70,0,0
34760,-100,4,2,2,60,0,0
41651,-100,4,2,3,60,0,0
41854,-100,4,2,2,60,0,0
47124,-133.333333333333,4,2,2,60,0,0
47733,-133.333333333333,4,2,1,40,0,0
48949,-133.333333333333,4,2,3,40,0,0
49151,-133.333333333333,4,2,1,40,0,0
52192,-133.333333333333,4,2,3,40,0,0
52395,-133.333333333333,4,2,1,40,0,0
54219,-100,4,2,1,50,0,0
57462,-100,4,2,1,40,0,0
58273,-100,4,2,1,50,0,0
59084,-100,4,2,1,60,0,0
59895,-100,4,2,1,70,0,0
61922,-100,4,2,3,70,0,0
62226,-100,4,2,3,5,0,0
62327,-100,4,2,1,70,0,1
87462,-100,4,2,3,70,0,0

[Colours]
Combo1 : 0,128,64
Combo2 : 255,128,0
Combo3 : 255,0,128
Combo4 : 128,0,255
Combo5 : 0,255,255

[HitObjects]
36,132,706,6,0,P|96:116|140:132,1,106.500004062653,0|8,1:2|0:2,0:0:0:0:
225,278,1516,2,0,L|224:166,1,106.500004062653,0|8,1:2|0:2,0:0:0:0:
351,7,2327,2,0,L|351:113,1,106.500004062653,0|8,1:2|0:2,0:0:0:0:
475,229,3138,2,0,P|425:212|374:226,1,106.500004062653,0|8,1:2|0:2,0:0:0:0:
272,323,3949,6,0,L|272:365,4,26.6250010156632,6|2|2|2|10,1:2|0:2|0:2|0:2|0:2,0:0:0:0:
201,185,4760,2,0,L|201:143,4,26.6250010156632,6|2|2|2|10,1:2|0:2|0:2|0:2|0:2,0:0:0:0:
98,350,5570,2,0,L|98:392,4,26.6250010156632,6|2|2|2|10,1:2|0:2|0:2|0:2|0:2,0:0:0:0:
8,156,6381,2,0,L|8:114,4,26.6250010156632,6|2|2|2|10,1:2|0:2|0:2|0:2|0:2,0:0:0:0:
399,60,8408,5,14,0:2:0:0:
399,60,8814,6,0,P|397:112|410:158,1,71,6|2,1:2|0:2,0:0:0:0:
477,247,9219,1,10,0:2:0:0:
477,247,9422,2,0,P|421:225|338:259,1,142,2|2,0:2|0:2,0:0:0:0:
267,311,10030,1,10,0:2:0:0:
207,222,10233,1,2,0:2:0:0:
137,309,10435,6,0,L|135:387,2,71,2|2|10,1:2|0:2|0:2,0:0:0:0:
79,213,11043,1,2,0:2:0:0:
152,143,11246,2,0,P|226:129|290:172,1,142,2|8,1:2|0:2,0:0:0:0:
357,230,11854,1,2,0:2:0:0:
411,140,12057,6,0,L|411:43,1,71,2|2,1:2|0:2,0:0:0:0:
287,0,12462,1,10,0:2:0:0:
287,0,12665,2,0,L|291:164,1,142,2|2,0:2|0:2,0:0:0:0:
332,255,13273,1,10,0:2:0:0:
434,202,13476,1,2,1:2:0:0:
487,318,13678,6,0,P|442:307|395:320,1,71,6|2,1:2|1:2,0:0:0:0:
318,360,14084,1,10,0:2:0:0:
262,267,14287,2,0,L|271:117,1,142,2|8,1:2|0:3,0:0:0:0:
270,125,14793,1,8,0:3:0:0:
270,125,14895,1,8,0:3:0:0:
178,71,15097,1,8,0:3:0:0:
178,71,15199,1,8,0:3:0:0:
178,71,15300,6,0,L|181:147,1,71,2|2,1:2|0:2,0:0:0:0:
69,210,15705,1,14,0:2:0:0:
69,210,15908,2,0,B|153:195|146:237|233:214,1,142,2|2,0:2|0:2,0:0:0:0:
269,112,16516,1,10,0:2:0:0:
336,204,16719,1,2,0:2:0:0:
406,106,16922,6,0,L|406:22,2,71,2|2|10,1:2|0:2|0:2,0:0:0:0:
475,195,17530,1,2,0:2:0:0:
403,277,17733,2,0,P|329:297|267:269,1,142,2|8,1:2|0:2,0:0:0:0:
184,223,18341,5,2,0:2:0:0:
184,223,18442,1,0,0:0:0:0:
184,223,18543,2,0,L|184:302,1,71,6|2,1:2|0:2,0:0:0:0:
107,357,18949,1,10,0:2:0:0:
107,357,19151,2,0,B|79:381|36:368|36:368|23:317|51:285,1,142,2|2,1:2|1:2,0:0:0:0:
29,203,19760,5,10,0:2:0:0:
29,203,19962,2,0,P|97:235|167:204,1,142,6|2,1:2|1:2,0:0:0:0:
244,166,20570,2,0,L|252:266,1,71,2|2,1:2|1:2,0:0:0:0:
324,302,20976,5,14,0:2:0:0:
484,183,21787,6,0,P|440:171|407:182,1,71,6|2,1:2|0:2,0:0:0:0:
334,234,22192,1,10,0:2:0:0:
334,234,22395,2,0,B|344:160|344:160|334:86,1,142,2|2,0:2|0:2,0:0:0:0:
261,14,23003,1,10,0:2:0:0:
191,84,23205,1,2,0:2:0:0:
113,21,23408,6,0,B|84:53|84:53|80:166,2,142,2|10|2,1:2|0:2|1:2,0:0:0:0:
191,84,24422,1,0,0:0:0:0:
191,84,24624,2,0,L|189:167,1,71,8|2,0:2|0:2,0:0:0:0:
125,232,25030,6,0,P|170:230|204:240,1,71,2|2,1:2|0:2,0:0:0:0:
269,302,25435,1,10,0:2:0:0:
269,302,25638,2,0,B|348:282|348:328|414:304,1,142,2|2,0:2|0:2,0:0:0:0:
463,223,26246,1,10,0:2:0:0:
374,177,26449,1,2,0:2:0:0:
453,117,26651,6,0,P|371:81|298:110,1,142,6|8,1:2|0:2,0:0:0:0:
225,113,27260,1,2,0:2:0:0:
225,113,27462,2,0,L|228:21,1,71,6|2,1:2|1:2,0:0:0:0:
136,0,27868,1,2,1:2:0:0:
68,72,28070,5,2,1:2:0:0:
68,72,28172,1,2,1:2:0:0:
68,72,28273,2,0,P|76:114|73:166,1,71,6|2,1:2|0:2,0:0:0:0:
30,233,28678,1,10,0:2:0:0:
30,233,28881,2,0,B|71:253|120:235|120:235|156:287,1,142,2|2,0:2|0:2,0:0:0:0:
221,342,29489,1,10,0:2:0:0:
284,265,29692,1,2,0:2:0:0:
364,324,29895,6,0,B|385:290|385:290|384:183,2,142,2|10|2,1:2|0:2|1:2,0:0:0:0:
284,265,30908,1,0,0:0:0:0:
284,265,31111,2,0,P|238:259|196:275,1,71,8|2,0:2|0:2,0:0:0:0:
120,297,31516,6,0,L|120:221,1,71,6|2,1:2|0:2,0:0:0:0:
106,126,31922,1,10,0:2:0:0:
106,126,32124,2,0,B|163:149|205:111|205:111|239:136,1,142,2|2,1:2|1:2,0:0:0:0:
311,195,32733,1,10,0:2:0:0:
358,107,32935,1,2,1:2:0:0:
275,51,33138,6,0,P|205:24|134:52,1,142,6|6,1:2|1:2,0:0:0:0:
10,191,33949,2,0,P|72:221|215:180,1,213,6|0,1:2|0:0,0:0:0:0:
290,125,34760,6,0,P|288:165|294:213,1,71,4|2,1:2|0:2,0:0:0:0:
378,241,35165,1,10,0:2:0:0:
303,305,35368,1,2,0:2:0:0:
386,358,35570,2,0,L|467:349,1,71,2|2,1:2|0:2,0:0:0:0:
488,366,35874,1,2,0:0:0:0:
488,366,35976,1,8,0:2:0:0:
502,268,36178,1,2,0:2:0:0:
403,254,36381,6,0,P|362:248|323:262,1,71,2|2,1:2|0:2,0:0:0:0:
250,311,36787,1,10,0:2:0:0:
208,221,36989,1,2,0:2:0:0:
129,282,37192,2,0,P|126:332|131:361,1,71,2|2,1:2|0:2,0:0:0:0:
156,375,37496,1,2,0:0:0:0:
156,375,37597,1,8,0:2:0:0:
222,300,37800,1,2,0:2:0:0:
298,363,38003,6,0,P|343:369|380:360,1,71,0|2,1:2|0:2,0:0:0:0:
424,282,38408,2,0,L|421:184,1,71,10|2,0:2|0:2,0:0:0:0:
363,123,38814,1,2,1:2:0:0:
363,123,39016,1,2,0:2:0:0:
295,196,39219,1,10,0:2:0:0:
295,196,39422,1,2,0:2:0:0:
213,140,39624,6,0,P|212:97|221:64,1,71,2|2,1:2|1:2,0:0:0:0:
295,5,40030,1,2,1:2:0:0:
341,101,40233,1,10,0:3:0:0:
410,30,40435,6,0,P|434:65|440:107,1,71,2|10,1:2|0:3,0:0:0:0:
403,185,40841,1,10,0:3:0:0:
341,101,41043,1,10,0:3:0:0:
282,181,41246,6,0,P|246:187|192:174,1,71,4|2,1:2|0:2,0:0:0:0:
126,131,41651,1,14,0:2:0:0:
87,222,41854,1,2,0:2:0:0:
167,281,42057,2,0,P|211:277|248:291,1,71,2|2,1:2|0:2,0:0:0:0:
262,309,42361,1,2,0:0:0:0:
262,309,42462,1,8,0:2:0:0:
331,237,42665,1,2,0:2:0:0:
401,306,42868,6,0,L|485:305,1,71,2|2,1:2|0:2,0:0:0:0:
500,209,43273,1,10,0:2:0:0:
433,134,43476,1,2,0:2:0:0:
363,205,43678,2,0,P|324:209|289:203,1,71,2|2,1:2|0:2,0:0:0:0:
263,183,43983,1,2,0:0:0:0:
263,183,44084,1,8,0:2:0:0:
323,54,44287,5,8,0:3:0:0:
323,54,44388,1,8,0:3:0:0:
323,54,44489,2,0,L|326:140,1,71,12|2,1:3|0:2,0:0:0:0:
408,180,44895,1,10,0:2:0:0:
348,258,45097,1,2,0:2:0:0:
278,187,45300,2,0,P|245:178|195:191,1,71,2|2,1:2|0:2,0:0:0:0:
155,267,45705,1,10,0:2:0:0:
100,183,45908,1,2,0:2:0:0:
49,268,46111,6,0,L|49:353,2,71,2|2|2,1:2|1:2|1:2,0:0:0:0:
0,181,46719,1,2,1:2:0:0:
420,342,47733,6,0,B|361:325|370:366|315:349,1,106.500004062653,6|0,1:2|0:0,0:0:0:0:
235,299,48341,1,2,1:2:0:0:
235,299,48543,2,0,B|242:245|242:245|237:187,1,106.500004062653,2|14,1:2|0:2,0:0:0:0:
163,130,49151,1,2,0:2:0:0:
217,49,49354,6,0,P|276:34|330:58,1,106.500004062653,2|2,1:2|0:2,0:0:0:0:
378,123,49962,1,2,1:2:0:0:
378,123,50165,2,0,L|379:196,2,53.2500020313264,2|0|8,1:2|0:0|0:2,0:0:0:0:
502,269,50976,6,0,B|444:237|384:274,1,106.500004062653,2|0,1:2|0:0,0:0:0:0:
315,220,51584,1,2,1:2:0:0:
315,220,51787,2,0,L|312:164,1,53.2500020313264,2|2,1:2|0:2,0:0:0:0:
238,105,52192,2,0,L|236:158,1,53.2500020313264,14|2,0:2|0:2,0:0:0:0:
185,239,52597,6,0,P|136:255|81:240,1,106.500004062653,2|2,1:2|0:2,0:0:0:0:
29,162,53205,1,2,1:2:0:0:
80,81,53408,2,0,P|130:64|185:79,1,106.500004062653,2|8,1:2|0:2,0:0:0:0:
283,314,54219,6,0,L|280:385,2,71,6|2|2,1:2|0:2|0:2,0:0:0:0:
230,220,54827,1,2,0:2:0:0:
331,187,55030,1,10,0:2:0:0:
331,187,55435,6,0,L|345:269,2,71,6|2|2,1:2|0:2|0:2,0:0:0:0:
389,98,56043,1,2,0:2:0:0:
454,181,56246,2,0,P|449:228|443:257,1,71,10|2,0:2|0:2,0:0:0:0:
472,354,56651,2,0,P|378:325|323:351,1,142,6|2,1:2|0:2,0:0:0:0:
256,378,57260,1,2,0:2:0:0:
173,280,57462,6,0,L|181:221,4,35.5,6|2|2|2|2,1:2|0:2|0:2|0:2|0:2,0:0:0:0:
28,177,58273,2,0,L|20:118,4,35.5,6|2|2|2|2,1:2|0:2|0:2|0:2|0:2,0:0:0:0:
210,100,59084,2,0,L|218:41,4,35.5,6|2|2|2|2,1:2|0:2|0:2|0:2|0:2,0:0:0:0:
18,35,59895,2,0,L|10:-24,4,35.5,6|2|2|2|2,1:2|0:2|0:2|0:2|0:2,0:0:0:0:
432,264,61922,6,0,P|411:306|373:274,1,106.5,14|0,0:2|0:0,0:0:0:0:
374,279,62327,6,0,L|374:187,1,71,6|2,1:2|0:2,0:0:0:0:
444,144,62733,1,10,0:2:0:0:
444,144,62935,2,0,P|374:115|303:144,1,142,2|2,0:2|0:2,0:0:0:0:
237,199,63543,1,10,0:2:0:0:
160,134,63746,1,2,0:2:0:0:
95,209,63949,6,0,L|94:279,2,71,2|2|10,1:2|0:2|0:2,0:0:0:0:
30,133,64557,1,2,0:2:0:0:
98,61,64760,2,0,P|172:38|234:75,1,142,2|8,1:2|0:2,0:0:0:0:
288,143,65368,1,2,0:2:0:0:
357,72,65570,6,0,L|353:-5,1,71,2|2,1:2|0:2,0:0:0:0:
497,10,65976,1,10,0:2:0:0:
497,10,66178,2,0,L|489:167,1,142,2|2,0:2|0:2,0:0:0:0:
474,265,66787,1,10,0:2:0:0:
387,192,66989,5,2,1:2:0:0:
387,192,67091,1,0,1:2:0:0:
387,192,67192,2,0,P|328:185|298:202,1,71,6|2,1:2|1:2,0:0:0:0:
237,262,67597,1,10,0:2:0:0:
237,262,67800,2,0,B|156:248|170:297|96:287,1,142,2|8,1:2|0:3,0:0:0:0:
100,287,68307,1,8,0:3:0:0:
100,287,68408,1,8,0:3:0:0:
109,143,68611,1,8,0:3:0:0:
109,143,68712,1,8,0:3:0:0:
109,143,68814,6,0,L|117:221,1,71,2|2,1:2|0:2,0:0:0:0:
185,277,69219,1,14,0:2:0:0:
239,193,69422,2,0,P|309:172|372:200,1,142,2|2,0:2|0:2,0:0:0:0:
437,271,70030,1,10,0:2:0:0:
504,197,70233,1,2,0:2:0:0:
421,141,70435,6,0,L|421:61,2,71,2|2|10,1:2|0:2|0:2,0:0:0:0:
354,215,71043,1,2,0:2:0:0:
286,141,71246,2,0,P|218:113|153:144,1,142,2|8,1:2|0:2,0:0:0:0:
109,225,71854,1,2,0:2:0:0:
184,290,72057,6,0,P|221:303|263:285,1,71,2|2,1:2|0:2,0:0:0:0:
316,220,72462,1,10,0:2:0:0:
316,220,72665,2,0,B|346:243|357:281|357:281|345:322|358:365,1,142,2|2,1:2|1:2,0:0:0:0:
449,320,73273,1,10,0:2:0:0:
475,224,73476,1,6,1:2:0:0:
361,78,73881,5,8,0:3:0:0:
361,78,73983,1,8,0:3:0:0:
361,78,74084,2,0,L|370:157,1,71,8|8,0:3|1:3,0:0:0:0:
338,250,74489,1,2,1:2:0:0:
235,279,74692,1,2,1:2:0:0:
155,207,74895,1,2,1:2:0:0:
239,111,75097,5,2,0:2:0:0:
239,111,75199,1,2,0:2:0:0:
239,111,75300,2,0,L|240:194,1,71,6|2,1:2|0:2,0:0:0:0:
294,264,75705,1,10,0:2:0:0:
294,264,75908,2,0,P|221:241|160:264,1,142,2|2,0:2|0:2,0:0:0:0:
86,327,76516,1,10,0:2:0:0:
14,257,76719,1,2,0:2:0:0:
82,184,76922,6,0,L|83:103,2,71,2|2|10,1:2|0:2|0:2,0:0:0:0:
153,253,77530,1,2,0:2:0:0:
219,178,77733,2,0,P|289:160|361:197,1,142,2|8,1:2|0:2,0:0:0:0:
426,251,78341,1,2,0:2:0:0:
426,251,78543,6,0,L|419:332,1,71,2|2,1:2|0:2,0:0:0:0:
510,364,78949,1,10,0:2:0:0:
510,364,79151,2,0,B|433:336|444:402|346:363,1,142,2|2,0:2|0:2,0:0:0:0:
309,293,79760,1,10,0:2:0:0:
226,347,79962,6,0,L|226:406,2,35.5,2|0|6,1:2|1:2|1:2,0:0:0:0:
167,266,80368,1,2,1:2:0:0:
231,190,80570,1,10,0:2:0:0:
152,129,80773,2,0,P|82:111|14:154,1,142,2|8,1:2|0:3,0:0:0:0:
23,142,81280,1,8,0:3:0:0:
23,142,81381,1,8,0:3:0:0:
94,262,81584,1,8,0:3:0:0:
94,262,81685,1,8,0:3:0:0:
94,262,81787,6,0,L|93:186,1,71,2|2,1:2|0:2,0:0:0:0:
159,120,82192,1,14,0:2:0:0:
219,198,82395,2,0,P|288:225|363:195,1,142,2|2,0:2|0:2,0:0:0:0:
414,129,83003,1,10,0:2:0:0:
481,201,83205,1,2,0:2:0:0:
420,279,83408,6,0,L|420:371,2,71,2|2|10,1:2|0:2|0:2,0:0:0:0:
348,207,84016,1,2,0:2:0:0:
280,279,84219,2,0,P|215:301|149:270,1,142,2|8,1:2|0:2,0:0:0:0:
117,178,84827,1,2,0:2:0:0:
220,149,85030,6,0,L|221:243,1,71,6|2,1:2|0:2,0:0:0:0:
326,311,85435,1,10,0:2:0:0:
326,311,85638,2,0,L|329:167,1,142,2|2,1:2|1:2,0:0:0:0:
407,107,86246,1,10,0:2:0:0:
407,107,86449,6,0,P|334:124|267:89,1,142,6|2,1:2|1:2,0:0:0:0:
200,29,87057,2,0,L|197:111,1,71,2|2,1:2|1:2,0:0:0:0:
241,206,87462,5,14,0:2:0:0:
