osu file format v14

[General]
AudioFilename: audio.mp3
AudioLeadIn: 0
PreviewTime: 62225
Countdown: 0
SampleSet: Soft
StackLeniency: 0.8
Mode: 0
LetterboxInBreaks: 0
WidescreenStoryboard: 1

[Editor]
DistanceSpacing: 1.8
BeatDivisor: 4
GridSize: 16
TimelineZoom: 1.4

[Metadata]
Title:Friend Shitai
TitleUnicode:ふ・れ・ん・ど・し・た・い
Artist:Wakasa Yuuri (CV: M.A.O)
ArtistUnicode:若狭悠里 (CV: M・A・O)
Creator:zan
Version:Ayucchi's Delusions
Source:がっこうぐらし!
Tags:ayucchi creamy candy fleuress xiqingwa zan1to gakkou gurashi school live tv size cut rii rii-san version anime school-live opening living club takeya yuki 丈槍由紀 minase inori 水瀬いのり ebisuzawa kurumi 恵飛須沢胡桃 ozawa ari 小澤亜李 ichimichi mao M·A·O 市道真央 naoki miki 直樹美紀 takahashi rie 高橋李依
BeatmapID:2183501
BeatmapSetID:1041232

[Difficulty]
HPDrainRate:5
CircleSize:3.8
OverallDifficulty:8
ApproachRate:8.5
SliderMultiplier:1.6
SliderTickRate:1

[Events]
//Background and Video events
0,0,"bg.jpg",0,0
Video,-148,"video.avi"
//Break Periods
//Storyboard Layer 0 (Background)
//Storyboard Layer 1 (Fail)
//Storyboard Layer 2 (Pass)
//Storyboard Layer 3 (Foreground)
//Storyboard Layer 4 (Overlay)
//Storyboard Sound Samples

[TimingPoints]
706,405.405405405405,4,2,1,50,1,0
706,-181.818181818182,4,2,1,50,0,0
1516,-142.857142857143,4,2,1,50,0,0
2327,-117.647058823529,4,2,1,50,0,0
3138,-100,4,2,1,50,0,0
3949,-100,4,2,1,40,0,0
4760,-100,4,2,1,50,0,0
5570,-100,4,2,1,60,0,0
6381,-100,4,2,1,70,0,0
8408,-100,4,2,3,70,0,0
8712,-100,4,2,3,5,0,0
8814,-100,4,2,1,70,0,1
20976,-100,4,2,3,70,0,0
21381,-133.333333333333,4,2,3,70,0,0
21685,-133.333333333333,4,2,3,5,0,0
21787,-100,4,2,1,70,0,0
33847,-100,4,2,1,5,0,0
33949,-166.666666666667,4,2,1,70,0,0
34760,-133.333333333333,4,2,2,60,0,0
41246,-100,4,2,2,60,0,0
41651,-100,4,2,3,60,0,0
41854,-100,4,2,2,60,0,0
47733,-166.666666666667,4,2,1,40,0,0
48949,-166.666666666667,4,2,3,40,0,0
49151,-166.666666666667,4,2,1,40,0,0
52192,-166.666666666667,4,2,3,40,0,0
52395,-166.666666666667,4,2,1,40,0,0
54219,-166.666666666667,4,2,1,50,0,0
57462,-100,4,2,1,40,0,0
58273,-100,4,2,1,50,0,0
59084,-100,4,2,1,60,0,0
59895,-100,4,2,1,70,0,0
61922,-100,4,2,3,70,0,0
62226,-100,4,2,3,5,0,0
62327,-83.3333333333333,4,2,1,70,0,1
75199,-83.3333333333333,4,2,1,5,0,1
75300,-83.3333333333333,4,2,1,70,0,1
87462,-83.3333333333333,4,2,3,70,0,0

[Colours]
Combo1 : 0,128,64
Combo2 : 255,128,0
Combo3 : 255,0,128
Combo4 : 128,0,255
Combo5 : 0,255,255

[HitObjects]
176,95,706,6,0,L|281:112,1,88.000002685547,0|8,1:2|0:2,0:0:0:0:
262,109,1516,6,0,L|151:128,1,111.999996582031,0|8,1:2|0:2,0:0:0:0:
151,128,2327,6,0,L|291:152,1,136.000002593994,0|8,1:2|0:2,0:0:0:0:
284,151,3138,6,0,L|126:178,1,160,0|8,1:2|0:2,0:0:0:0:
126,178,3949,6,0,L|129:217,4,40,6|2|2|2|10,1:2|0:2|0:2|0:2|0:2,0:0:0:0:
284,151,4760,6,0,L|287:111,4,40,6|2|2|2|10,1:2|0:2|0:2|0:2|0:2,0:0:0:0:
234,292,5570,6,0,L|237:331,4,40,6|2|2|2|10,1:2|0:2|0:2|0:2|0:2,0:0:0:0:
392,265,6381,6,0,L|395:225,4,40,6|2|2|2|10,1:2|0:2|0:2|0:2|0:2,0:0:0:0:
392,265,8408,6,0,P|391:202|443:133,1,120,14|0,0:2|0:0,0:0:0:0:
462,135,8814,6,0,L|368:124,1,80,6|2,1:2|0:2,0:0:0:0:
259,149,9219,1,10,0:2:0:0:
324,43,9422,2,0,L|146:73,1,160,2|2,0:2|0:2,0:0:0:0:
69,190,10030,2,0,L|173:169,1,80,10|2,0:2|0:2,0:0:0:0:
263,153,10435,5,2,1:2:0:0:
177,321,10638,1,2,0:2:0:0:
263,153,10841,1,10,0:2:0:0:
177,321,11044,1,2,0:2:0:0:
347,218,11246,2,0,P|394:203|448:220,1,80,2|0,1:2|0:2,0:0:0:0:
295,359,11651,1,8,0:2:0:0:
401,290,11854,1,2,0:2:0:0:
401,290,11955,1,2,0:2:0:0:
401,290,12057,6,0,L|406:377,1,80,2|2,1:2|0:2,0:0:0:0:
295,359,12462,1,10,0:2:0:0:
161,280,12665,2,0,B|212:251|252:271|240:274|289:290|351:251,1,160,2|2,0:2|0:2,0:0:0:0:
103,215,13273,2,0,P|75:261|80:313,1,80,10|2,0:2|1:2,0:0:0:0:
213,347,13678,5,6,1:2:0:0:
273,195,13881,1,2,1:2:0:0:
121,356,14084,1,10,0:2:0:0:
111,135,14287,2,0,B|157:163|157:163|186:266,1,160,2|8,1:2|0:3,0:0:0:0:
185,265,14793,1,8,0:3:0:0:
185,265,14895,1,8,0:3:0:0:
241,102,15097,1,8,0:3:0:0:
241,102,15199,1,8,0:3:0:0:
241,102,15300,6,0,P|280:92|340:129,1,80,2|2,1:2|0:2,0:0:0:0:
372,190,15705,1,14,0:2:0:0:
403,52,15908,2,0,P|418:130|361:196,1,160,2|2,0:2|0:2,0:0:0:0:
252,281,16516,2,0,P|295:271|346:294,1,80,10|2,0:2|0:2,0:0:0:0:
378,355,16922,5,2,1:2:0:0:
278,174,17124,1,2,0:2:0:0:
378,355,17327,1,10,0:2:0:0:
278,174,17530,1,2,0:2:0:0:
218,357,17733,2,0,P|175:367|124:344,1,80,2|0,1:2|0:2,0:0:0:0:
123,215,18138,1,8,0:2:0:0:
181,285,18341,1,2,0:2:0:0:
370,210,18543,6,0,B|261:181|261:181|193:213,1,160,6|10,1:2|0:2,0:0:0:0:
442,260,19151,2,0,B|470:210|453:172|439:185|429:133|464:82,1,160,2|2,1:2|1:2,0:0:0:0:
370,210,19760,1,10,0:2:0:0:
462,27,19962,6,0,B|421:19|395:50|395:50|350:65|287:32,1,160,6|2,1:2|1:2,0:0:0:0:
296,149,20570,1,2,1:2:0:0:
241,0,20773,1,2,1:2:0:0:
155,223,20976,5,14,0:2:0:0:
155,223,21381,2,0,P|122:242|159:248,1,90.0000034332277,0|0,0:0|0:0,0:0:0:0:
155,223,21787,6,0,P|113:215|60:227,1,80,6|2,1:2|0:2,0:0:0:0:
14,288,22192,1,10,0:2:0:0:
24,152,22395,2,0,P|-11:196|34:301,1,160,2|2,0:2|0:2,0:0:0:0:
155,223,23003,1,10,0:2:0:0:
117,138,23205,1,2,0:2:0:0:
181,0,23408,6,0,L|188:106,1,80,2|0,1:2|0:0,0:0:0:0:
6,99,23814,2,0,L|-1:-7,1,80,10|0,0:2|0:0,0:0:0:0:
263,124,24219,2,0,B|231:161|231:161|109:178,1,160,2|8,1:2|0:2,0:0:0:0:
291,43,24827,1,2,0:2:0:0:
291,43,24928,1,2,0:2:0:0:
291,43,25030,6,0,P|326:64|344:121,1,80,2|2,1:2|0:2,0:0:0:0:
323,185,25435,1,10,0:2:0:0:
398,11,25638,2,0,P|430:83|419:162,1,160,2|2,0:2|0:2,0:0:0:0:
308,277,26246,1,10,0:2:0:0:
479,328,26449,1,2,0:2:0:0:
479,328,26550,1,2,0:2:0:0:
479,328,26651,6,0,B|494:298|483:256|483:256|447:241|391:254,1,160,6|8,1:2|0:2,0:0:0:0:
373,348,27260,1,2,0:2:0:0:
323,185,27462,1,6,1:2:0:0:
202,276,27665,1,2,1:2:0:0:
202,276,27766,1,2,1:2:0:0:
202,276,27868,1,2,1:2:0:0:
194,124,28070,1,2,1:2:0:0:
194,124,28171,1,2,1:2:0:0:
194,124,28273,6,0,P|143:134|103:163,1,80,6|2,1:2|0:2,0:0:0:0:
108,234,28678,1,10,0:2:0:0:
40,33,28881,2,0,P|10:88|32:178,1,160,2|2,0:2|0:2,0:0:0:0:
124,315,29489,1,10,0:2:0:0:
9,354,29692,1,2,0:2:0:0:
108,234,29895,6,0,P|156:238|197:274,1,80,2|0,1:2|0:0,0:0:0:0:
313,319,30300,2,0,P|274:348|220:348,1,80,10|0,0:2|0:0,0:0:0:0:
373,219,30705,2,0,P|419:273|413:376,1,160,2|8,1:2|0:2,0:0:0:0:
288,178,31314,1,2,0:2:0:0:
288,178,31415,1,2,0:2:0:0:
288,178,31516,6,0,P|317:144|379:135,1,80,6|2,1:2|0:2,0:0:0:0:
373,219,31922,1,10,0:2:0:0:
440,111,32124,2,0,P|416:69|291:61,1,160,2|2,1:2|1:2,0:0:0:0:
288,178,32733,1,10,0:2:0:0:
233,100,32935,1,2,1:2:0:0:
171,244,33138,5,6,1:2:0:0:
43,61,33543,6,0,P|75:108|32:144,1,120,6|0,1:2|0:0,0:0:0:0:
35,143,33949,6,0,B|81:122|111:139|93:145|135:163|174:147,1,143.999995605469,6|0,1:2|0:0,0:0:0:0:
280,91,34760,6,0,P|272:121|280:158,1,60.0000022888184,4|2,1:2|0:2,0:0:0:0:
362,184,35165,1,10,0:2:0:0:
325,11,35368,1,2,0:2:0:0:
325,11,35469,1,0,0:0:0:0:
325,11,35570,2,0,L|245:17,1,60.0000022888184,2|2,1:2|0:2,0:0:0:0:
121,66,35976,2,0,L|201:72,1,60.0000022888184,8|2,0:2|0:2,0:0:0:0:
229,210,36381,6,0,P|221:180|229:143,1,60.0000022888184,2|2,1:2|0:2,0:0:0:0:
311,117,36786,1,10,0:2:0:0:
274,290,36989,1,2,0:2:0:0:
274,290,37090,1,0,0:0:0:0:
274,290,37192,2,0,L|194:284,1,60.0000022888184,2|2,1:2|0:2,0:0:0:0:
86,355,37597,2,0,L|166:349,1,60.0000022888184,8|2,0:2|0:2,0:0:0:0:
274,290,38003,6,0,P|310:278|348:283,1,60.0000022888184,0|2,1:2|0:2,0:0:0:0:
396,352,38408,1,10,0:2:0:0:
455,219,38611,1,2,0:2:0:0:
455,219,38712,1,0,0:0:0:0:
455,219,38814,2,0,L|462:298,1,60.0000022888184,2|2,1:2|0:2,0:0:0:0:
356,187,39219,2,0,L|361:127,1,60.0000022888184,10|2,0:2|0:2,0:0:0:0:
454,75,39624,5,2,1:2:0:0:
266,154,39827,1,2,1:2:0:0:
455,219,40030,1,2,1:2:0:0:
267,298,40233,1,10,0:3:0:0:
356,187,40435,5,2,1:2:0:0:
349,361,40638,1,10,0:3:0:0:
174,355,40841,1,10,0:3:0:0:
180,180,41043,1,10,0:3:0:0:
267,298,41246,6,0,P|219:277|171:283,1,80,4|2,1:2|0:2,0:0:0:0:
92,330,41651,2,0,L|92:373,1,40,14|0,0:2|0:0,0:0:0:0:
102,235,41854,1,2,0:2:0:0:
102,235,41955,1,0,0:0:0:0:
102,235,42057,2,0,P|129:198|188:185,1,80,2|2,1:2|0:2,0:0:0:0:
316,235,42462,1,8,0:2:0:0:
192,277,42665,1,2,0:2:0:0:
244,104,42868,6,0,P|244:148|249:209,1,80,2|2,1:2|0:2,0:0:0:0:
316,235,43273,1,10,0:2:0:0:
334,112,43476,1,2,0:2:0:0:
334,112,43577,1,0,0:0:0:0:
334,112,43678,2,0,P|371:126|432:108,1,80,2|2,1:2|0:2,0:0:0:0:
499,15,44084,1,8,0:2:0:0:
507,160,44287,1,8,0:3:0:0:
507,160,44388,1,8,0:3:0:0:
507,160,44489,6,0,L|515:254,1,80,12|2,1:3|0:2,0:0:0:0:
375,133,44895,2,0,L|383:39,1,80,10|2,0:2|0:2,0:0:0:0:
417,209,45300,2,0,P|373:219|319:197,1,80,2|2,1:2|0:2,0:0:0:0:
207,72,45705,2,0,P|251:62|305:84,1,80,10|2,0:2|0:2,0:0:0:0:
291,264,46111,5,2,1:2:0:0:
196,166,46314,1,2,1:2:0:0:
323,135,46516,1,2,1:2:0:0:
43,30,46719,1,2,1:2:0:0:
43,30,47733,6,0,P|90:42|130:80,1,95.9999970703126,6|0,1:2|0:0,0:0:0:0:
120,153,48341,1,2,1:2:0:0:
43,184,48543,2,0,L|31:289,1,95.9999970703126,2|14,1:2|0:2,0:0:0:0:
49,361,49151,1,2,0:2:0:0:
114,308,49354,6,0,P|174:294|223:309,2,95.9999970703126,2|2|2,1:2|0:2|1:2,0:0:0:0:
164,376,50368,1,0,0:0:0:0:
275,346,50570,1,8,0:2:0:0:
275,346,50976,6,0,L|382:356,1,95.9999970703126,2|0,1:2|0:0,0:0:0:0:
455,383,51584,1,2,1:2:0:0:
500,310,51787,2,0,P|503:279|499:248,1,47.9999985351563,2|2,1:2|0:2,0:0:0:0:
417,216,52192,2,0,P|414:247|418:278,1,47.9999985351563,14|2,0:2|0:2,0:0:0:0:
498,179,52597,6,0,P|507:126|494:71,1,95.9999970703126,2|2,1:2|0:2,0:0:0:0:
426,37,53205,1,2,1:2:0:0:
374,122,53408,2,0,P|407:127|431:125,1,47.9999985351563,2|0,1:2|0:0,0:0:0:0:
295,79,53814,5,8,0:2:0:0:
295,79,54219,5,6,1:2:0:0:
287,255,54422,1,2,0:2:0:0:
185,115,54624,1,2,0:2:0:0:
362,172,54827,1,2,0:2:0:0:
94,165,55030,1,10,0:2:0:0:
94,165,55435,5,6,1:2:0:0:
276,295,55638,1,2,0:2:0:0:
110,249,55841,1,2,0:2:0:0:
288,190,56043,1,2,0:2:0:0:
367,360,56246,1,10,0:2:0:0:
378,255,56449,1,2,0:2:0:0:
174,335,56651,6,0,P|221:348|274:349,1,95.9999970703126,6|2,1:2|0:2,0:0:0:0:
134,257,57260,1,2,0:2:0:0:
51,345,57462,6,0,L|0:350,3,40,6|2|2|2,1:2|0:2|0:2|0:2,0:0:0:0:
0,326,57868,2,0,P|-5:272|8:232,1,80,2|0,0:2|0:0,0:0:0:0:
93,146,58273,6,0,P|98:171|101:203,3,40,6|2|2|2,1:2|0:2|0:2|0:2,0:0:0:0:
96,207,58678,2,0,P|141:188|179:195,1,80,2|0,0:2|0:0,0:0:0:0:
290,75,59084,6,0,L|250:70,3,40,6|2|2|2,1:2|0:2|0:2|0:2,0:0:0:0:
217,111,59489,2,0,P|210:62|193:35,1,80,2|0,0:2|0:0,0:0:0:0:
76,67,59895,6,0,P|58:69|35:64,3,40,6|2|2|2,1:2|0:2|0:2|0:2,0:0:0:0:
3,27,60300,2,0,P|-3:77|7:137,1,80,2|0,0:2|0:0,0:0:0:0:
126,265,61922,6,0,P|167:239|117:227,1,120,14|0,0:2|0:0,0:0:0:0:
126,265,62327,6,0,P|180:270|240:262,1,95.9999970703126,6|2,1:2|0:2,0:0:0:0:
284,154,62733,1,10,0:2:0:0:
325,365,62935,2,0,P|324:310|409:176,1,191.999994140625,2|2,0:2|0:2,0:0:0:0:
501,357,63543,2,0,P|453:330|404:333,1,95.9999970703126,10|2,0:2|0:2,0:0:0:0:
237,352,63949,5,2,1:2:0:0:
445,251,64151,1,2,0:2:0:0:
267,228,64354,1,10,0:2:0:0:
325,365,64557,1,2,0:2:0:0:
323,166,64760,2,0,P|277:144|210:168,1,95.9999970703126,2|0,1:2|0:2,0:0:0:0:
320,287,65165,1,8,0:2:0:0:
178,239,65368,1,2,0:2:0:0:
178,239,65469,1,0,0:0:0:0:
178,239,65570,6,0,P|177:294|140:352,1,95.9999970703126,2|2,1:2|0:2,0:0:0:0:
44,358,65976,1,10,0:2:0:0:
27,151,66178,2,0,B|75:124|75:124|208:160,1,191.999994140625,2|2,0:2|0:2,0:0:0:0:
335,61,66787,2,0,L|224:75,1,95.9999970703126,10|2,0:2|1:2,0:0:0:0:
87,220,67192,5,6,1:2:0:0:
165,36,67395,1,2,1:2:0:0:
27,151,67597,1,10,0:2:0:0:
228,230,67800,2,0,P|275:178|214:61,1,191.999994140625,2|8,1:2|0:3,0:0:0:0:
239,72,68307,1,8,0:3:0:0:
239,72,68408,1,8,0:3:0:0:
93,140,68611,1,8,0:3:0:0:
93,140,68712,1,8,0:3:0:0:
93,140,68814,6,0,L|213:149,1,95.9999970703126,2|2,1:2|0:2,0:0:0:0:
98,228,69219,1,14,0:2:0:0:
13,9,69422,2,0,B|37:41|27:84|27:84|-15:136|24:196,1,191.999994140625,2|2,0:2|0:2,0:0:0:0:
8,333,70030,2,0,P|53:305|128:322,1,95.9999970703126,10|2,0:2|0:2,0:0:0:0:
200,240,70435,5,2,1:2:0:0:
19,189,70638,1,2,0:2:0:0:
71,382,70841,1,10,0:2:0:0:
120,179,71043,1,2,0:2:0:0:
246,336,71246,2,0,P|300:351|353:332,1,95.9999970703126,2|0,1:2|0:0,0:0:0:0:
376,133,71651,1,8,0:2:0:0:
295,270,71854,1,2,0:2:0:0:
295,270,71955,1,2,0:2:0:0:
295,270,72057,6,0,P|291:212|322:159,1,95.9999970703126,2|2,1:2|0:2,0:0:0:0:
422,303,72462,1,10,0:2:0:0:
445,114,72665,2,0,B|399:138|349:110|366:106|324:76|256:105,1,191.999994140625,2|2,1:2|1:2,0:0:0:0:
404,40,73273,1,10,0:2:0:0:
193,50,73476,6,0,B|162:97|189:150|189:150|185:197|123:239,1,191.999994140625,6|8,1:2|0:3,0:0:0:0:
145,222,73983,1,8,0:3:0:0:
145,222,74084,1,8,0:3:0:0:
88,138,74287,1,8,1:3:0:0:
260,103,74489,6,0,L|316:108,1,47.9999985351563,2|0,1:2|0:0,0:0:0:0:
157,234,74692,2,0,L|79:230,1,47.9999985351563,2|0,1:2|0:0,0:0:0:0:
333,202,74895,2,0,P|357:263|310:341,1,143.999995605469,2|2,1:2|0:2,0:0:0:0:
237,208,75300,6,0,L|344:201,1,95.9999970703126,6|2,1:2|0:2,0:0:0:0:
376,133,75705,1,10,0:2:0:0:
458,346,75908,2,0,P|435:249|475:151,1,191.999994140625,2|2,0:2|0:2,0:0:0:0:
359,302,76516,2,0,P|317:287|252:295,1,95.9999970703126,10|2,0:2|0:2,0:0:0:0:
162,195,76922,5,2,1:2:0:0:
301,366,77124,1,2,0:2:0:0:
360,210,77327,1,10,0:2:0:0:
183,327,77530,1,2,0:2:0:0:
43,113,77733,2,0,L|153:123,1,95.9999970703126,2|0,1:2|0:0,0:0:0:0:
1,35,78138,1,8,0:2:0:0:
219,79,78341,1,2,0:2:0:0:
219,79,78442,1,0,0:0:0:0:
219,79,78543,6,0,P|229:133|187:197,1,95.9999970703126,2|2,1:2|0:2,0:0:0:0:
98,206,78949,1,10,0:2:0:0:
145,32,79151,2,0,B|190:-3|190:-3|346:7,1,191.999994140625,2|2,0:2|0:2,0:0:0:0:
447,109,79760,2,0,L|336:104,1,95.9999970703126,10|2,0:2|1:2,0:0:0:0:
503,21,80165,5,6,1:2:0:0:
400,205,80368,1,2,1:2:0:0:
324,5,80570,1,10,0:2:0:0:
478,156,80773,2,0,B|509:211|482:259|477:239|456:283|496:353,1,191.999994140625,2|8,1:2|0:3,0:0:0:0:
489,340,81280,1,8,0:3:0:0:
489,340,81381,1,8,0:3:0:0:
399,206,81584,1,8,0:3:0:0:
399,206,81685,1,8,0:3:0:0:
399,206,81787,6,0,P|341:214|299:201,1,95.9999970703126,2|2,1:2|0:2,0:0:0:0:
259,65,82192,1,14,0:2:0:0:
183,318,82395,2,0,P|217:243|194:118,1,191.999994140625,2|2,0:2|0:2,0:0:0:0:
23,265,83003,2,0,P|79:254|131:266,1,95.9999970703126,10|2,0:2|0:2,0:0:0:0:
3,356,83408,5,2,1:2:0:0:
135,180,83611,1,2,0:2:0:0:
183,318,83814,1,10,0:2:0:0:
6,133,84016,1,2,0:2:0:0:
210,130,84219,2,0,P|225:179|205:240,1,95.9999970703126,2|0,1:2|0:2,0:0:0:0:
253,54,84624,1,8,0:2:0:0:
135,180,84827,1,2,0:2:0:0:
283,260,85030,6,0,B|222:232|176:255|194:263|139:285|86:253,1,191.999994140625,6|10,1:2|0:2,0:0:0:0:
347,322,85638,2,0,B|382:277|358:218|358:218|359:163|421:130,1,191.999994140625,2|2,1:2|1:2,0:0:0:0:
424,354,86246,1,10,0:2:0:0:
97,258,86449,6,0,B|155:229|155:229|285:260,1,191.999994140625,6|2,1:2|1:2,0:0:0:0:
82,350,87057,1,2,1:2:0:0:
136,141,87260,1,2,1:2:0:0:
347,322,87462,5,14,0:2:0:0:
