osu file format v14

[General]
AudioFilename: audio.mp3
AudioLeadIn: 0
PreviewTime: 65300
Countdown: 0
SampleSet: Soft
StackLeniency: 0.7
Mode: 0
LetterboxInBreaks: 0
WidescreenStoryboard: 1

[Editor]
DistanceSpacing: 1
BeatDivisor: 4
GridSize: 4
TimelineZoom: 1

[Metadata]
Title:Koigokoro Tsunagi
TitleUnicode:恋心つなぎっ♪
Artist:Wakamiya Hina (CV: Mikami Shiori), Segawa Ayame (CV: Takamori Natsumi)
ArtistUnicode:若宮陽奈 (CV: 三上枝織), 瀬川彩愛 (CV: 高森奈津美)
Creator:Shirahane Suou
Version:Insane
Source:りりくる Rainbow Stage!!!
Tags:lilycle rs lily lyric cycle vocal collection ed ending solfa 橋咲透 hashizaki toru ふみや fumiya particle japanese visual novel 百合 yuri seto kousuke video game
BeatmapID:2154208
BeatmapSetID:1030225

[Difficulty]
HPDrainRate:5
CircleSize:4
OverallDifficulty:8
ApproachRate:9
SliderMultiplier:1.9
SliderTickRate:1

[Events]
//Background and Video events
0,0,"978870_20190801154137_1.jpg",0,0
//Break Periods
2,175225,186151
//Storyboard Layer 0 (Background)
//Storyboard Layer 1 (Fail)
//Storyboard Layer 2 (Pass)
//Storyboard Layer 3 (Foreground)
//Storyboard Layer 4 (Overlay)
//Storyboard Sound Samples

[TimingPoints]
-216,387.096774193548,4,2,1,30,1,0
-216,-200,4,2,1,30,0,0
13719,-111.111111111111,4,2,1,50,0,0
26106,-133.333333333333,4,2,1,40,0,0
38493,-125,4,2,1,50,0,0
50880,-111.111111111111,4,2,1,50,0,0
66364,-100,4,2,1,55,0,1
91138,-200,4,2,1,40,0,0
94235,-111.111111111111,4,2,1,50,0,0
106622,-142.857142857143,4,2,1,40,0,0
119009,-125,4,2,1,50,0,0
131396,-111.111111111111,4,2,1,50,0,0
146880,-100,4,2,1,55,0,1
171654,-200,4,2,1,40,0,0
187138,-111.111111111111,4,2,1,50,0,0
199525,-200,4,2,1,30,0,0
204945,-133.333333333333,4,2,1,40,0,0
205719,-99.9999999999999,4,2,1,55,0,1
230493,-200,4,2,1,40,0,0
233590,-111.111111111111,4,2,1,50,0,0

[Colours]
Combo1 : 247,173,107
Combo2 : 59,179,255
Combo3 : 241,163,171
Combo4 : 169,223,40

[HitObjects]
323,241,364,5,2,0:2:0:0:
323,241,558,2,0,P|323:217|329:194,1,47.5,2|0,0:2|0:0,0:0:0:0:
190,98,945,2,0,P|196:120|196:144,1,47.5,2|0,0:2|0:0,0:0:0:0:
461,110,1332,6,0,B|424:132|374:110|374:110|322:86|278:111,1,190,2|2,0:2|0:2,0:0:0:0:
265,253,2300,2,0,P|308:235|329:194,1,95,2|2,0:2|0:2,0:0:0:0:
487,192,2880,2,0,P|458:155|460:109,1,95,2|2,0:2|0:2,0:0:0:0:
352,2,3461,2,0,P|361:47|368:97,1,95,2|2,0:2|0:2,0:0:0:0:
329,194,4042,1,2,0:2:0:0:
329,194,4429,6,0,P|282:185|234:183,1,95,2|2,0:2|0:2,0:0:0:0:
80,56,5203,1,2,0:2:0:0:
80,56,5396,2,0,P|125:57|161:94,1,95,2|2,0:2|0:2,0:0:0:0:
98,241,5977,2,0,L|88:136,2,95,2|2|2,0:2|0:2|0:2,0:0:0:0:
240,359,7138,2,0,L|247:309,1,47.5,2|0,0:2|0:0,0:0:0:0:
225,197,7525,6,0,P|253:227|307:219,1,95,2|2,0:2|0:2,0:0:0:0:
462,177,8106,2,0,P|434:147|380:155,1,95,2|2,0:2|0:2,0:0:0:0:
404,354,8880,1,2,0:2:0:0:
404,354,9074,2,0,P|415:314|382:271,1,95,2|2,0:2|0:2,0:0:0:0:
252,189,9654,2,0,L|264:299,1,95,2|2,0:2|0:2,0:0:0:0:
183,376,10235,1,2,0:2:0:0:
183,376,10622,6,0,L|240:382,1,47.5,2|0,0:2|0:0,0:0:0:0:
125,279,11009,2,0,L|77:283,1,47.5,2|0,0:2|0:0,0:0:0:0:
193,179,11396,1,2,0:2:0:0:
193,179,11590,2,0,P|200:152|170:90,1,95,2|2,0:2|0:2,0:0:0:0:
173,93,12751,5,0,3:0:0:0:
223,278,12945,1,10,0:2:0:0:
100,167,13138,1,2,3:2:0:0:
151,352,13332,1,8,0:2:0:0:
208,177,13525,1,2,3:2:0:0:
28,274,13719,6,0,B|72:291|112:271|112:271|152:252|193:272,1,170.999994781494,4|10,3:2|0:2,0:0:0:0:
322,367,14300,1,0,3:0:0:0:
322,367,14396,1,0,3:2:0:0:
322,367,14493,2,0,P|304:328|299:285,1,85.4999973907472,0|0,3:0|3:0,0:0:0:0:
340,124,14880,1,8,0:2:0:0:
476,253,15074,6,0,P|472:158|460:60,1,170.999994781494,4|0,3:2|3:0,0:0:0:0:
341,0,15654,1,8,0:2:0:0:
244,170,15848,2,0,P|286:171|324:152,1,85.4999973907472,0|0,3:0|0:0,0:0:0:0:
340,124,16138,1,0,3:2:0:0:
340,124,16235,1,0,3:0:0:0:
216,2,16429,2,0,P|227:42|257:73,1,85.4999973907472,8|0,0:2|0:0,0:0:0:0:
127,248,16816,6,0,P|140:197|258:179,1,170.999994781494,0|8,3:0|0:2,0:0:0:0:
188,339,17396,1,0,3:0:0:0:
188,339,17493,1,0,3:2:0:0:
188,339,17590,2,0,P|145:342|103:351,1,85.4999973907472,0|0,3:0|3:0,0:0:0:0:
0,229,17977,1,8,0:2:0:0:
161,131,18171,6,0,P|181:88|104:-2,1,170.999994781494,4|0,3:2|3:2,0:0:0:0:
74,153,18751,1,8,0:2:0:0:
212,247,18945,2,0,P|253:238|296:235,1,85.4999973907472,0|0,3:0|0:0,0:0:0:0:
328,242,19235,1,0,3:2:0:0:
328,242,19332,1,0,3:0:0:0:
427,105,19525,1,8,0:2:0:0:
502,325,19719,1,0,3:2:0:0:
502,325,19816,1,0,3:2:0:0:
502,325,19913,6,0,P|454:309|454:194,1,170.999994781494,4|8,3:2|0:2,0:0:0:0:
342,91,20493,1,0,3:0:0:0:
342,91,20590,1,0,3:2:0:0:
342,91,20687,2,0,P|383:99|426:104,1,85.4999973907472,0|0,3:0|3:0,0:0:0:0:
306,201,21074,1,8,0:2:0:0:
168,66,21267,6,0,P|181:150|191:235,1,170.999994781494,4|0,3:2|3:0,0:0:0:0:
87,358,21848,1,8,0:2:0:0:
0,232,22042,2,0,P|42:236|84:245,1,85.4999973907472,0|0,3:0|0:0,0:0:0:0:
109,266,22332,1,0,3:2:0:0:
109,266,22429,1,0,3:0:0:0:
228,140,22622,2,0,P|186:149|143:153,1,85.4999973907472,8|0,0:2|0:0,0:0:0:0:
262,331,23009,6,0,P|288:279|401:291,1,170.999994781494,4|8,3:2|0:2,0:0:0:0:
512,384,23590,1,0,3:0:0:0:
512,384,23687,1,0,3:2:0:0:
512,384,23783,2,0,P|504:341|501:299,1,85.4999973907472,0|0,3:0|3:0,0:0:0:0:
512,141,24171,1,8,0:2:0:0:
322,172,24364,6,0,P|373:168|400:48,1,170.999994781494,4|0,3:2|3:0,0:0:0:0:
250,96,24945,1,8,0:2:0:0:
267,272,25138,2,0,P|309:274|351:283,1,85.4999973907472,4|0,3:2|0:0,0:0:0:0:
208,194,25526,1,8,0:2:0:0:
181,185,25622,1,8,0:2:0:0:
152,185,25719,1,8,0:2:0:0:
125,194,25816,1,8,0:2:0:0:
98,203,25913,1,10,0:2:0:0:
70,204,26010,1,8,0:2:0:0:
49,189,26106,6,0,P|67:151|3:69,1,142.500005435944,6|10,3:2|0:2,0:0:0:0:
139,35,26687,1,0,3:0:0:0:
139,35,26783,1,0,3:2:0:0:
139,35,26880,2,0,L|209:43,1,71.2500027179719,2|2,3:2|3:2,0:0:0:0:
329,60,27267,1,10,0:2:0:0:
229,175,27461,6,0,L|381:157,1,142.500005435944,2|0,3:2|3:0,0:0:0:0:
506,60,28042,2,0,P|472:72|451:100,1,71.2500027179719,8|0,0:2|0:0,0:0:0:0:
506,207,28429,2,0,L|512:171,2,35.625001358986,0|0|0,3:0|3:2|3:0,0:0:0:0:
343,96,28816,2,0,P|365:123|370:157,1,71.2500027179719,8|2,0:2|0:2,0:0:0:0:
236,262,29203,6,0,P|222:215|287:159,1,142.500005435944,2|10,3:2|0:2,0:0:0:0:
369,268,29783,1,0,3:0:0:0:
369,268,29880,1,0,3:2:0:0:
369,268,29977,2,0,L|362:341,1,71.2500027179719,2|2,3:2|3:2,0:0:0:0:
448,241,30364,1,10,0:2:0:0:
284,159,30558,6,0,L|127:143,1,142.500005435944,2|2,3:2|3:2,0:0:0:0:
51,47,31138,2,0,P|86:45|118:58,1,71.2500027179719,8|2,0:2|0:2,0:0:0:0:
62,177,31525,2,0,L|54:125,2,35.625001358986,0|0|2,3:0|3:2|3:2,0:0:0:0:
149,307,31913,2,0,L|162:220,1,71.2500027179719,8|0,0:2|0:0,0:0:0:0:
89,360,32300,6,0,L|239:336,1,142.500005435944,6|8,3:2|0:2,0:0:0:0:
329,251,32880,1,0,3:0:0:0:
329,251,32977,1,0,3:2:0:0:
329,251,33074,2,0,L|253:238,1,71.2500027179719,0|2,3:0|3:2,0:0:0:0:
369,355,33461,1,10,0:2:0:0:
482,229,33654,6,0,P|458:172|369:173,1,142.500005435944,2|0,3:2|3:0,0:0:0:0:
282,72,34235,2,0,L|291:155,1,71.2500027179719,8|0,0:2|0:0,0:0:0:0:
384,56,34622,2,0,L|387:20,2,35.625001358986,0|0|0,3:0|3:2|3:0,0:0:0:0:
189,77,35009,2,0,L|197:7,1,71.2500027179719,8|2,0:2|0:2,0:0:0:0:
212,207,35396,6,0,P|174:170|71:195,1,142.500005435944,6|10,3:2|0:2,0:0:0:0:
200,316,35977,2,0,L|348:300,1,142.500005435944,6|0,3:2|3:0,0:0:0:0:
482,223,36558,1,8,0:2:0:0:
360,203,36751,1,0,3:0:0:0:
431,352,36945,6,0,L|435:309,2,35.625001358986,0|0|0,3:0|3:2|3:0,0:0:0:0:
275,314,37332,2,0,P|310:316|340:300,1,71.2500027179719,8|0,0:2|3:0,0:0:0:0:
235,224,37719,1,8,0:2:0:0:
191,367,37913,1,0,3:0:0:0:
122,191,38106,1,0,3:0:0:0:
78,334,38300,1,2,3:2:0:0:
259,205,38493,6,0,P|275:165|214:78,1,152,6|10,3:2|0:2,0:0:0:0:
123,0,39074,1,0,3:0:0:0:
123,0,39171,1,0,3:2:0:0:
123,0,39267,2,0,L|131:81,1,76,2|2,3:2|3:2,0:0:0:0:
154,202,39654,1,10,0:2:0:0:
0,252,39848,6,0,P|4:180|72:155,1,152,2|0,3:2|3:0,0:0:0:0:
186,289,40429,2,0,L|110:281,1,76,8|0,0:2|0:0,0:0:0:0:
260,214,40816,1,0,3:0:0:0:
260,214,40913,1,0,3:2:0:0:
260,214,41009,1,0,3:0:0:0:
340,324,41203,2,0,L|426:316,1,76,8|2,0:2|0:2,0:0:0:0:
322,148,41590,6,0,P|252:122|186:155,1,152,2|10,3:2|0:2,0:0:0:0:
76,262,42171,1,0,3:0:0:0:
76,262,42267,1,0,3:2:0:0:
76,262,42364,2,0,P|90:225|85:178,1,76,2|2,3:2|3:2,0:0:0:0:
26,77,42751,1,10,0:2:0:0:
209,5,42945,6,0,P|194:81|186:161,1,152,2|2,3:2|3:2,0:0:0:0:
311,271,43525,2,0,P|303:233|287:199,1,76,8|2,0:2|0:2,0:0:0:0:
350,83,43913,1,0,3:0:0:0:
350,83,44009,1,0,3:2:0:0:
350,83,44106,1,2,3:2:0:0:
497,142,44300,2,0,P|481:176|473:213,1,76,8|0,0:2|0:0,0:0:0:0:
386,384,44687,6,0,P|399:312|343:266,1,152,6|8,3:2|0:2,0:0:0:0:
227,309,45267,1,0,3:0:0:0:
227,309,45364,1,0,3:2:0:0:
227,309,45461,2,0,P|231:348|233:396,1,76,0|2,3:0|3:2,0:0:0:0:
127,280,45848,1,10,0:2:0:0:
287,192,46042,6,0,P|315:155|281:53,1,152,2|0,3:2|3:0,0:0:0:0:
158,120,46622,2,0,P|196:119|234:123,1,76,8|0,0:2|0:0,0:0:0:0:
389,191,47009,1,0,3:0:0:0:
389,191,47106,1,0,3:2:0:0:
389,191,47203,1,0,3:0:0:0:
266,293,47396,2,0,P|303:289|341:289,1,76,8|2,0:2|0:2,0:0:0:0:
175,378,47783,6,0,P|153:338|51:335,1,152,6|10,3:2|0:2,0:0:0:0:
0,168,48364,2,0,P|81:174|169:176,1,152,6|0,3:2|3:0,0:0:0:0:
314,111,48945,1,8,0:2:0:0:
182,71,49138,1,0,3:0:0:0:
309,215,49332,5,8,0:2:0:0:
272,15,49525,1,0,3:0:0:0:
272,15,49719,1,0,3:0:0:0:
416,154,49913,5,8,0:2:0:0:
228,147,50106,1,2,3:2:0:0:
228,147,50300,1,0,3:0:0:0:
397,47,50493,5,10,0:2:0:0:
441,249,50687,1,0,3:0:0:0:
314,111,50880,6,0,P|307:196|305:281,1,170.999994781494,6|10,3:2|0:2,0:0:0:0:
193,379,51461,1,0,3:0:0:0:
193,379,51558,1,0,3:2:0:0:
193,379,51654,2,0,P|210:340|208:298,1,85.4999973907472,2|2,3:2|3:2,0:0:0:0:
122,163,52042,1,8,0:2:0:0:
239,212,52235,1,2,0:2:0:0:
62,296,52429,6,0,P|57:213|121:162,1,170.999994781494,2|10,3:2|0:2,0:0:0:0:
268,80,53009,1,2,3:2:0:0:
138,70,53203,1,0,3:0:0:0:
138,70,53396,1,2,3:2:0:0:
238,211,53590,2,0,P|247:253|244:296,1,85.4999973907472,8|0,0:2|0:0,0:0:0:0:
342,153,53977,6,0,P|376:182|493:162,1,170.999994781494,2|10,3:2|0:2,0:0:0:0:
438,20,54558,1,0,3:0:0:0:
438,20,54654,1,0,3:2:0:0:
437,20,54751,2,0,P|427:61|423:104,1,85.4999973907472,2|0,3:2|3:0,0:0:0:0:
240,121,55138,1,10,0:2:0:0:
314,28,55332,1,2,0:2:0:0:
322,225,55525,6,0,B|253:218|253:218|227:237|227:237|157:231,1,170.999994781494,2|10,3:2|0:2,0:0:0:0:
56,109,56106,1,2,3:2:0:0:
56,109,56203,1,0,3:2:0:0:
56,109,56300,2,0,P|67:68|73:26,1,85.4999973907472,0|2,3:0|2:0,0:0:0:0:
240,121,56687,1,8,0:2:0:0:
186,0,56880,1,0,0:0:0:0:
143,147,57074,6,0,P|153:188|157:231,1,85.4999973907472,4|0,3:2|0:0,0:0:0:0:
346,199,57461,2,0,P|335:240|331:283,1,85.4999973907472,8|0,0:2|3:0,0:0:0:0:
334,315,57751,1,0,3:2:0:0:
334,315,57848,1,2,3:2:0:0:
251,208,58042,1,2,3:2:0:0:
416,257,58235,2,0,P|463:246|493:214,1,85.4999973907472,8|2,0:2|0:2,0:0:0:0:
330,88,58622,6,0,P|244:94|145:112,1,170.999994781494,2|10,3:2|0:2,0:0:0:0:
15,42,59203,2,0,L|6:-12,2,42.7499986953736,0|0|2,3:0|3:2|3:2,0:0:0:0:
28,189,59590,1,8,0:2:0:0:
28,189,59686,1,8,0:2:0:0:
28,189,59783,1,2,3:2:0:0:
53,177,59880,1,0,3:0:0:0:
81,177,59977,1,0,3:0:0:0:
106,191,60073,1,0,3:0:0:0:
122,215,60171,6,0,P|108:299|104:384,1,170.999994781494,6|8,3:2|0:2,0:0:0:0:
14,285,60751,1,2,3:2:0:0:
14,285,60848,1,0,3:2:0:0:
14,285,60945,2,0,P|12:242|5:200,1,85.4999973907472,2|0,3:2|3:0,0:0:0:0:
96,38,61332,2,0,P|88:80|87:122,1,85.4999973907472,8|0,0:2|0:0,0:0:0:0:
280,178,61719,6,0,P|277:117|172:100,1,170.999994781494,2|8,3:2|0:2,0:0:0:0:
222,270,62300,1,2,3:2:0:0:
222,270,62396,1,0,3:2:0:0:
221,270,62493,2,0,P|263:272|304:284,1,85.4999973907472,2|0,3:2|3:0,0:0:0:0:
470,190,62880,2,0,P|429:202|386:204,1,85.4999973907472,8|2,0:2|0:2,0:0:0:0:
262,50,63267,5,10,0:2:0:0:
426,109,63461,1,0,3:0:0:0:
426,109,63654,1,0,3:0:0:0:
245,175,63848,5,10,0:2:0:0:
374,29,64042,1,2,3:2:0:0:
374,29,64235,1,0,3:0:0:0:
377,232,64429,5,8,0:2:0:0:
262,50,64622,1,8,0:2:0:0:
269,34,65396,5,2,0:2:0:0:
312,169,65590,1,2,3:2:0:0:
135,113,65784,1,10,0:2:0:0:
124,138,65880,1,8,0:2:0:0:
122,167,65977,1,10,0:2:0:0:
131,193,66074,1,8,0:2:0:0:
140,219,66171,1,10,0:2:0:0:
139,248,66268,1,8,0:2:0:0:
129,273,66364,6,0,P|82:272|36:282,1,95,6|0,3:2|0:0,0:0:0:0:
218,160,66751,2,0,P|264:169|311:169,1,95,8|0,0:2|3:0,0:0:0:0:
346,163,67042,1,0,3:2:0:0:
346,163,67138,1,2,3:2:0:0:
512,254,67332,1,2,3:2:0:0:
461,74,67525,1,8,0:2:0:0:
368,274,67719,6,0,P|273:280|179:294,1,190,6|0,3:2|3:0,0:0:0:0:
343,376,68300,1,10,0:2:0:0:
264,197,68493,2,0,P|256:150|270:105,1,95,2|0,3:2|0:0,0:0:0:0:
285,82,68783,1,0,3:2:0:0:
285,82,68880,1,2,3:2:0:0:
430,198,69074,2,0,P|383:191|345:162,1,95,8|0,0:2|0:0,0:0:0:0:
251,320,69461,6,0,P|288:291|335:284,1,95,2|0,3:2|0:0,0:0:0:0:
135,258,69848,2,0,P|140:304|123:348,1,95,10|0,0:2|3:0,0:0:0:0:
100,366,70138,1,0,3:2:0:0:
100,366,70235,1,2,3:2:0:0:
223,203,70429,1,2,3:2:0:0:
31,243,70622,1,8,0:2:0:0:
127,68,70816,6,0,L|135:265,1,190,6|0,3:2|3:0,0:0:0:0:
280,378,71396,1,8,0:2:0:0:
344,202,71590,2,0,P|300:183|253:185,1,95,0|0,3:0|0:0,0:0:0:0:
223,203,71880,1,0,3:2:0:0:
223,203,71977,1,0,3:0:0:0:
376,313,72171,1,10,0:2:0:0:
441,121,72364,1,0,3:2:0:0:
441,121,72461,1,0,3:2:0:0:
441,121,72558,6,0,P|435:74|409:34,1,95,6|0,3:2|0:0,0:0:0:0:
224,1,72945,1,10,0:2:0:0:
253,185,73138,1,2,3:2:0:0:
253,185,73235,1,0,3:2:0:0:
253,185,73332,2,0,P|290:156|311:114,1,95,0|2,3:0|3:2,0:0:0:0:
125,107,73719,1,8,0:2:0:0:
180,295,73913,6,0,P|156:242|24:234,1,190,6|0,3:2|3:0,0:0:0:0:
127,384,74493,1,10,0:2:0:0:
288,277,74687,2,0,B|308:235|289:185|289:185|266:135|297:83,1,190,2|2,3:2|3:2,0:0:0:0:
454,0,75267,2,0,P|442:46|440:93,1,95,8|0,0:2|0:0,0:0:0:0:
378,309,75654,5,6,3:2:0:0:
512,176,75848,1,2,0:2:0:0:
477,362,76042,1,10,0:2:0:0:
393,192,76235,1,2,3:2:0:0:
393,192,76332,1,0,3:2:0:0:
393,192,76429,1,2,3:2:0:0:
296,352,76622,1,2,3:2:0:0:
466,265,76816,1,8,0:2:0:0:
258,191,77009,6,0,L|66:206,1,190,6|0,3:2|3:0,0:0:0:0:
35,210,77493,1,0,3:0:0:0:
35,210,77590,1,8,0:2:0:0:
200,107,77783,1,6,3:2:0:0:
326,254,77977,1,2,3:2:0:0:
354,261,78073,1,8,0:2:0:0:
383,257,78170,1,10,0:2:0:0:
409,242,78267,1,8,0:2:0:0:
427,219,78364,1,10,0:2:0:0:
436,191,78460,1,8,0:2:0:0:
433,161,78557,1,10,0:2:0:0:
419,135,78654,1,8,0:2:0:0:
397,116,78751,6,0,P|349:121|305:137,1,95,6|0,3:2|0:0,0:0:0:0:
149,8,79138,2,0,P|168:51|176:97,1,95,8|0,0:2|3:0,0:0:0:0:
175,132,79429,1,0,3:2:0:0:
175,132,79525,1,2,3:2:0:0:
326,254,79719,1,2,3:2:0:0:
293,35,79913,1,8,0:2:0:0:
452,202,80106,6,0,P|421:146|303:137,1,190,6|0,3:2|3:0,0:0:0:0:
183,282,80687,1,10,0:2:0:0:
48,153,80880,2,0,P|91:135|138:127,1,95,2|0,3:2|0:0,0:0:0:0:
175,132,81171,1,0,3:2:0:0:
175,132,81267,1,2,3:2:0:0:
335,231,81461,2,0,P|291:212|244:204,1,95,8|0,0:2|0:0,0:0:0:0:
115,347,81848,6,0,P|152:318|183:281,1,95,2|0,3:2|0:0,0:0:0:0:
10,201,82235,2,0,P|44:232|90:234,1,95,10|0,0:2|3:0,0:0:0:0:
120,214,82525,1,0,3:2:0:0:
120,214,82622,1,2,3:2:0:0:
0,311,82816,1,2,3:2:0:0:
56,124,83009,1,8,0:2:0:0:
215,277,83203,6,0,P|262:284|354:185,1,190,6|0,3:2|3:2,0:2:0:0:
297,4,83783,1,8,0:2:0:0:
154,126,83977,2,0,P|197:118|255:114,1,95,2|0,3:2|0:0,0:0:0:0:
288,121,84267,1,0,3:2:0:0:
288,121,84364,1,0,3:0:0:0:
465,181,84558,1,8,0:2:0:0:
404,0,84751,1,0,3:2:0:0:
404,0,84848,1,0,3:2:0:0:
404,0,84945,6,0,P|384:44|376:89,1,95,4|0,3:2|0:0,0:0:0:0:
399,285,85332,1,10,0:2:0:0:
248,114,85525,1,2,3:2:0:0:
248,114,85622,1,0,3:2:0:0:
248,114,85719,2,0,P|268:158|275:203,1,95,2|2,3:2|3:2,0:0:0:0:
193,384,86106,1,10,0:2:0:0:
399,285,86300,6,0,B|331:276|331:276|295:301|295:301|218:288,1,190,6|0,3:2|3:0,0:0:0:0:
54,381,86880,1,10,0:2:0:0:
49,187,87074,2,0,P|90:218|112:265,1,95,2|0,3:2|0:0,0:0:0:0:
117,284,87364,1,0,3:2:0:0:
117,284,87461,1,2,3:2:0:0:
258,112,87654,2,0,P|233:152|228:199,1,95,8|0,0:2|0:0,0:0:0:0:
391,362,88042,5,6,3:2:0:0:
327,184,88235,1,2,0:2:0:0:
258,352,88429,1,10,0:2:0:0:
411,249,88622,1,2,3:2:0:0:
411,249,88719,1,0,3:2:0:0:
411,249,88816,1,2,3:2:0:0:
235,367,89009,1,2,3:2:0:0:
210,170,89203,1,8,0:2:0:0:
72,314,89396,6,0,P|110:286|155:274,1,95,6|0,3:2|0:0,0:0:0:0:
192,275,89687,1,0,3:2:0:0:
192,275,89783,1,0,3:0:0:0:
130,96,89977,1,8,0:2:0:0:
308,171,90171,1,4,3:2:0:0:
218,8,90364,1,10,0:2:0:0:
102,186,90558,1,0,3:0:0:0:
102,186,90654,1,0,3:0:0:0:
102,186,90751,1,10,0:2:0:0:
37,2,90945,1,0,3:0:0:0:
225,94,91138,6,0,P|249:94|273:89,2,47.5,2|2|2,0:2|0:2|0:2,0:0:0:0:
391,218,91719,1,2,0:2:0:0:
391,218,92106,2,0,P|391:194|396:170,2,47.5,2|2|2,0:2|0:2|0:2,0:0:0:0:
272,327,92880,2,0,P|272:303|267:279,2,47.5,2|2|2,0:2|0:2|3:2,0:0:0:0:
349,384,93461,1,0,3:0:0:0:
349,384,93558,1,0,3:0:0:0:
349,384,93654,1,0,3:0:0:0:
184,320,93848,5,8,0:2:0:0:
361,291,94042,1,0,3:0:0:0:
288,122,94235,6,0,P|245:197|263:276,1,170.999994781494,4|8,3:2|0:2,0:0:0:0:
81,352,94816,1,0,3:0:0:0:
81,352,94913,1,0,3:2:0:0:
81,351,95009,2,0,P|91:309|94:266,1,85.4999973907472,0|0,3:0|3:0,0:0:0:0:
45,114,95396,1,8,0:2:0:0:
224,57,95590,6,0,P|180:70|145:190,1,170.999994781494,4|0,3:2|3:0,0:0:0:0:
246,300,96171,1,8,0:2:0:0:
343,157,96364,2,0,P|301:148|258:145,1,85.4999973907472,0|0,3:0|0:0,0:0:0:0:
228,148,96654,1,0,3:2:0:0:
228,148,96751,1,0,3:0:0:0:
384,26,96945,2,0,P|342:34|299:37,1,85.4999973907472,8|0,0:2|0:0,0:0:0:0:
360,243,97332,6,0,P|422:190|413:105,1,170.999994781494,0|8,3:0|0:2,0:0:0:0:
265,229,97913,1,0,3:0:0:0:
265,229,98009,1,0,3:2:0:0:
265,229,98106,2,0,P|274:270|278:313,1,85.4999973907472,0|0,3:0|3:0,0:0:0:0:
343,157,98493,1,8,0:2:0:0:
485,289,98687,6,0,P|488:203|503:120,1,170.999994781494,4|0,3:2|3:0,0:0:0:0:
384,7,99267,1,8,0:2:0:0:
258,145,99461,2,0,P|299:154|342:156,1,85.4999973907472,0|0,3:0|0:0,0:0:0:0:
372,147,99751,1,0,3:2:0:0:
372,147,99848,1,0,3:0:0:0:
490,12,100042,1,8,0:2:0:0:
511,210,100235,1,0,3:2:0:0:
511,210,100332,1,0,3:2:0:0:
511,209,100429,6,0,P|514:129|442:93,1,170.999994781494,4|8,3:2|0:2,0:0:0:0:
296,0,101009,1,0,3:0:0:0:
296,0,101106,1,0,3:2:0:0:
296,0,101203,2,0,P|306:41|310:83,1,85.4999973907472,0|0,3:0|3:0,0:0:0:0:
281,257,101590,1,8,0:2:0:0:
170,134,101783,6,0,B|238:144|238:144|264:168|264:168|331:176,1,170.999994781494,4|0,3:2|3:0,0:0:0:0:
178,229,102364,1,8,0:2:0:0:
98,65,102558,2,0,P|134:43|176:32,1,85.4999973907472,0|0,3:0|0:0,0:0:0:0:
207,33,102848,1,0,3:2:0:0:
207,33,102945,1,0,3:0:0:0:
87,158,103138,2,0,P|45:148|8:126,1,85.4999973907472,8|0,0:2|0:0,0:0:0:0:
121,312,103525,6,0,P|185:262|262:290,1,170.999994781494,4|8,3:2|0:2,0:0:0:0:
424,366,104106,1,0,3:0:0:0:
424,366,104203,1,0,3:2:0:0:
424,366,104300,2,0,P|386:343|366:306,1,85.4999973907472,0|0,3:0|3:0,0:0:0:0:
329,158,104687,1,8,0:2:0:0:
512,207,104880,6,0,P|518:157|416:109,1,170.999994781494,4|0,3:2|3:0,0:0:0:0:
237,178,105461,1,8,0:2:0:0:
325,44,105654,1,4,3:2:0:0:
365,241,105848,1,0,3:0:0:0:
360,270,105944,1,8,0:2:0:0:
346,299,106041,1,8,0:2:0:0:
322,320,106138,1,8,0:2:0:0:
292,330,106235,1,8,0:2:0:0:
260,330,106331,1,8,0:2:0:0:
231,318,106428,1,10,0:2:0:0:
208,294,106525,1,8,0:2:0:0:
197,265,106622,6,0,L|228:194,1,66.4999979705811,2|0,3:2|3:0,0:0:0:0:
313,43,107009,1,10,0:2:0:0:
300,58,107396,2,0,P|269:69|236:69,2,66.4999979705811,2|2|2,0:2|0:2|0:2,0:0:0:0:
440,182,107977,1,2,3:2:0:0:
440,182,108074,1,0,3:0:0:0:
440,182,108171,6,0,P|409:170|376:170,1,66.4999979705811,0|0,3:0|3:0,0:0:0:0:
254,313,108558,1,8,0:2:0:0:
280,328,109525,1,2,0:2:0:0:
280,328,109719,6,0,P|277:292|259:251,1,66.4999979705811,2|0,3:2|3:0,0:0:0:0:
128,136,110106,1,10,0:2:0:0:
139,158,110493,2,0,P|171:173|216:178,2,66.4999979705811,2|2|2,0:2|0:2|0:2,0:0:0:0:
37,290,111074,1,2,3:2:0:0:
37,290,111171,1,0,3:0:0:0:
37,290,111267,6,0,P|69:274|114:269,1,66.4999979705811,0|2,3:0|3:2,0:0:0:0:
264,365,111654,1,8,0:2:0:0:
171,383,111848,2,0,P|172:342|235:275,1,132.999995941162,2|2,0:2|0:2,0:0:0:0:
249,272,112816,6,0,L|255:196,1,66.4999979705811,2|0,3:2|3:0,0:0:0:0:
271,20,113203,1,8,0:2:0:0:
261,44,113783,2,0,P|230:61|196:66,1,66.4999979705811,2|2,0:2|0:2,0:0:0:0:
85,178,114171,1,2,3:2:0:0:
85,178,114267,1,0,3:0:0:0:
85,178,114364,6,0,P|85:142|98:110,1,66.4999979705811,0|0,3:0|3:0,0:0:0:0:
254,205,114751,1,8,0:2:0:0:
254,205,115913,6,0,L|186:231,1,66.4999979705811,2|0,3:2|3:0,0:0:0:0:
13,295,116300,1,8,0:2:0:0:
13,295,117267,1,0,3:0:0:0:
13,295,117364,1,0,3:0:0:0:
13,295,117461,6,0,L|85:302,1,66.4999979705811,0|0,3:0|3:0,0:0:0:0:
269,319,117848,1,8,0:2:0:0:
256,339,118429,1,8,0:2:0:0:
309,158,118622,1,0,3:0:0:0:
424,285,118816,1,2,3:2:0:0:
424,285,118913,1,0,3:0:0:0:
424,285,119009,6,0,B|363:279|363:279|346:252|346:252|273:244,1,152,6|10,3:2|0:2,0:0:0:0:
155,328,119590,1,0,3:0:0:0:
155,328,119687,1,0,3:2:0:0:
155,327,119783,2,0,P|191:315|228:315,1,76,2|2,3:2|3:2,0:0:0:0:
129,227,120171,1,10,0:2:0:0:
38,368,120364,6,0,P|49:332|6:224,1,152,2|0,3:2|3:0,0:0:0:0:
0,81,120945,2,0,P|41:97|89:84,1,76,8|0,0:2|0:0,0:0:0:0:
186,26,121332,1,0,3:0:0:0:
186,26,121429,1,0,3:2:0:0:
186,26,121525,1,0,3:0:0:0:
190,186,121719,2,0,P|183:142|148:107,1,76,8|2,0:2|0:2,0:0:0:0:
341,8,122106,6,0,P|293:66|288:141,1,152,2|10,3:2|0:2,0:0:0:0:
436,172,122687,1,0,3:0:0:0:
436,172,122783,1,0,3:2:0:0:
436,172,122880,2,0,P|431:134|408:104,1,76,2|2,3:2|3:2,0:0:0:0:
325,254,123267,1,10,0:2:0:0:
459,324,123461,6,0,P|428:257|356:245,1,152,2|2,3:2|3:2,0:0:0:0:
221,194,124042,2,0,P|233:231|236:269,1,76,8|2,0:2|0:2,0:0:0:0:
316,136,124429,1,0,3:0:0:0:
316,136,124525,1,0,3:2:0:0:
316,136,124622,1,2,3:2:0:0:
192,77,124816,2,0,P|154:80|118:92,1,76,8|0,0:2|0:0,0:0:0:0:
0,225,125203,6,0,P|39:210|105:295,1,152,6|8,3:2|0:2,0:0:0:0:
226,384,125783,1,0,3:0:0:0:
226,384,125880,1,0,3:2:0:0:
226,384,125977,2,0,P|188:375|151:372,1,76,0|2,3:0|3:2,0:0:0:0:
273,274,126364,1,10,0:2:0:0:
432,359,126558,6,0,P|500:330|504:250,1,152,2|0,3:2|3:0,0:0:0:0:
349,309,127138,2,0,L|341:385,1,76,8|0,0:2|0:0,0:0:0:0:
418,245,127525,1,0,3:0:0:0:
418,245,127622,1,0,3:2:0:0:
418,245,127719,1,0,3:0:0:0:
246,287,127913,2,0,P|208:288|173:274,1,76,8|2,0:2|0:2,0:0:0:0:
170,93,128300,6,0,P|235:123|233:195,1,152,6|10,3:2|0:2,0:0:0:0:
89,327,128880,2,0,L|79:161,1,152,6|0,3:2|3:0,0:0:0:0:
65,0,129461,1,8,0:2:0:0:
0,109,129654,1,0,3:0:0:0:
176,58,129848,5,8,0:2:0:0:
237,239,130042,1,0,3:0:0:0:
237,239,130235,1,0,3:0:0:0:
79,175,130429,5,8,0:2:0:0:
270,140,130622,1,2,3:2:0:0:
270,140,130816,1,0,3:0:0:0:
139,285,131009,5,10,0:2:0:0:
330,320,131202,1,0,3:0:0:0:
270,140,131396,6,0,P|218:203|247:280,1,170.999994781494,6|10,3:2|0:2,0:0:0:0:
369,189,131977,1,0,3:0:0:0:
369,189,132074,1,0,3:2:0:0:
369,189,132171,2,0,P|360:147|362:104,1,85.4999973907472,2|2,3:2|3:2,0:0:0:0:
512,0,132558,1,8,0:2:0:0:
454,139,132751,1,2,0:2:0:0:
281,50,132945,6,0,P|354:12|431:42,1,170.999994781494,2|10,3:2|0:2,0:0:0:0:
507,213,133525,1,2,3:2:0:0:
361,104,133719,1,0,3:0:0:0:
361,104,133913,1,2,3:2:0:0:
406,283,134106,2,0,L|413:197,1,85.4999973907472,8|0,0:2|0:0,0:0:0:0:
282,329,134493,6,0,L|266:158,1,170.999994781494,2|10,3:2|0:2,0:0:0:0:
168,46,135074,1,0,3:0:0:0:
168,46,135171,1,0,3:2:0:0:
168,46,135267,2,0,P|210:43|250:58,1,85.4999973907472,2|0,3:2|3:0,0:0:0:0:
241,251,135654,1,10,0:2:0:0:
185,133,135848,1,2,0:2:0:0:
4,269,136042,6,0,P|65:213|148:223,1,170.999994781494,6|10,3:2|0:2,0:0:0:0:
253,346,136622,1,2,3:2:0:0:
279,171,136816,1,0,3:0:0:0:
279,171,137009,1,2,3:2:0:0:
430,252,137203,2,0,P|390:266|348:263,1,85.4999973907472,8|0,0:2|0:0,0:0:0:0:
316,80,137590,6,0,P|348:106|366:145,1,85.4999973907472,4|0,3:2|0:0,0:0:0:0:
505,12,137977,2,0,P|490:51|493:93,1,85.4999973907472,8|0,0:2|3:0,0:0:0:0:
506,122,138267,1,0,3:2:0:0:
506,122,138364,1,2,3:2:0:0:
392,10,138558,1,2,3:2:0:0:
279,171,138751,2,0,P|237:163|203:138,1,85.4999973907472,8|2,0:2|0:2,0:0:0:0:
115,331,139138,6,0,P|134:273|44:200,1,170.999994781494,2|10,3:2|0:2,0:0:0:0:
23,342,139719,2,0,L|28:395,2,42.7499986953736,0|0|2,3:0|3:2|3:2,0:0:0:0:
187,274,140106,1,8,0:2:0:0:
187,274,140202,1,8,0:2:0:0:
187,274,140299,1,2,3:2:0:0:
215,269,140396,1,0,3:0:0:0:
243,273,140493,1,0,3:0:0:0:
267,287,140589,1,0,3:0:0:0:
281,310,140687,6,0,P|239:240|271:164,1,170.999994781494,6|8,3:2|0:2,0:0:0:0:
153,39,141267,1,2,3:2:0:0:
153,39,141364,1,0,3:2:0:0:
153,39,141461,2,0,P|194:52|237:56,1,85.4999973907472,2|0,3:2|3:0,0:0:0:0:
422,72,141848,2,0,P|379:75|338:88,1,85.4999973907472,8|2,0:2|0:2,0:0:0:0:
426,296,142235,6,0,P|455:250|374:170,1,170.999994781494,2|8,3:2|0:2,0:0:0:0:
231,246,142816,1,2,3:2:0:0:
231,246,142913,1,0,3:2:0:0:
231,246,143009,2,0,L|323:261,1,85.4999973907472,2|0,3:2|3:0,0:0:0:0:
172,148,143396,2,0,L|264:133,1,85.4999973907472,8|2,0:2|0:2,0:0:0:0:
135,237,143783,5,10,0:2:0:0:
78,66,143977,1,0,3:0:0:0:
78,66,144171,1,0,3:0:0:0:
29,266,144364,5,10,0:2:0:0:
158,134,144558,1,2,3:2:0:0:
158,134,144751,1,0,3:0:0:0:
142,352,144945,5,8,0:2:0:0:
45,160,145138,1,8,0:2:0:0:
40,172,145913,5,2,0:2:0:0:
149,82,146106,1,2,3:2:0:0:
168,253,146300,1,10,0:2:0:0:
163,225,146396,1,8,0:2:0:0:
171,197,146493,1,10,0:2:0:0:
189,176,146590,1,8,0:2:0:0:
214,163,146687,1,10,0:2:0:0:
243,163,146783,1,8,0:2:0:0:
268,173,146880,6,0,P|288:215|296:262,1,95,6|0,3:2|0:0,0:0:0:0:
431,130,147267,2,0,P|439:83|459:40,1,95,8|0,0:2|3:0,0:0:0:0:
486,20,147558,1,0,3:2:0:0:
486,20,147654,1,2,3:2:0:0:
316,88,147848,1,2,3:2:0:0:
463,224,148042,1,8,0:2:0:0:
311,362,148235,6,0,B|239:351|239:351|218:316|218:316|142:304,1,190,6|0,3:2|3:0,0:0:0:0:
2,157,148816,1,10,0:2:0:0:
167,76,149009,2,0,P|152:122|148:169,1,95,2|0,3:2|0:0,0:0:0:0:
151,203,149300,1,0,3:2:0:0:
151,203,149396,1,2,3:2:0:0:
17,287,149590,2,0,P|31:332|36:380,1,95,8|0,0:2|0:0,0:0:0:0:
233,372,149977,6,0,P|237:324|251:279,1,95,2|0,3:2|0:0,0:0:0:0:
388,143,150364,2,0,P|345:162|298:172,1,95,10|0,0:2|3:0,0:0:0:0:
270,164,150654,1,0,3:2:0:0:
270,164,150751,1,2,3:2:0:0:
162,1,150945,1,2,3:2:0:0:
347,40,151138,1,8,0:2:0:0:
193,216,151332,6,0,P|180:125|249:66,1,190,6|0,3:2|3:0,0:0:0:0:
420,144,151913,1,8,0:2:0:0:
301,286,152106,2,0,P|301:238|306:191,1,95,0|0,3:0|0:0,0:0:0:0:
319,158,152396,1,0,3:2:0:0:
319,158,152493,1,0,3:0:0:0:
417,325,152687,1,10,0:2:0:0:
209,384,152880,1,0,3:2:0:0:
209,384,152977,1,0,3:2:0:0:
209,384,153074,6,0,P|208:336|203:289,1,95,6|0,3:2|0:0,0:0:0:0:
134,111,153461,1,10,0:2:0:0:
49,279,153654,1,2,3:2:0:0:
49,279,153751,1,0,3:2:0:0:
49,279,153848,2,0,P|96:266|123:217,1,95,0|2,3:0|3:2,0:0:0:0:
56,45,154235,1,8,0:2:0:0:
276,68,154429,6,0,P|219:137|133:110,1,190,6|0,3:2|3:0,0:0:0:0:
310,202,155009,1,10,0:2:0:0:
177,345,155203,2,0,B|209:308|269:310|269:310|286:356|328:372,1,190,2|2,3:2|3:2,0:0:0:0:
455,243,155783,2,0,P|405:244|372:274,1,95,8|0,0:2|0:0,0:0:0:0:
221,115,156171,5,6,3:2:0:0:
408,137,156364,1,2,0:2:0:0:
265,17,156558,1,10,0:2:0:0:
310,202,156751,1,2,3:2:0:0:
310,202,156848,1,0,3:2:0:0:
310,202,156945,1,2,3:2:0:0:
365,32,157138,1,2,3:2:0:0:
198,129,157332,1,8,0:2:0:0:
436,150,157525,6,0,P|487:180|479:304,1,190,6|0,3:2|3:0,0:0:0:0:
455,319,158009,1,0,3:0:0:0:
455,319,158106,1,8,0:2:0:0:
310,202,158300,1,6,3:2:0:0:
219,364,158493,1,2,3:2:0:0:
237,338,158589,1,8,0:2:0:0:
246,308,158686,1,10,0:2:0:0:
242,277,158783,1,8,0:2:0:0:
227,249,158880,1,10,0:2:0:0:
212,221,158977,1,8,0:2:0:0:
209,190,159074,1,10,0:2:0:0:
217,160,159171,1,8,0:2:0:0:
235,135,159267,6,0,P|280:119|327:113,1,95,6|0,3:2|0:0,0:0:0:0:
149,56,159654,2,0,P|101:50|57:34,1,95,8|0,0:2|3:0,0:0:0:0:
29,15,159945,1,0,3:2:0:0:
29,15,160042,1,2,3:2:0:0:
102,194,160235,1,2,3:2:0:0:
248,31,160429,1,8,0:2:0:0:
354,218,160622,6,0,B|378:292|339:348|339:348|325:323|329:289,1,190,6|0,3:2|3:0,0:0:0:0:
359,95,161203,1,10,0:2:0:0:
222,233,161396,2,0,P|174:232|129:217,1,95,2|0,3:2|0:0,0:0:0:0:
102,194,161687,1,0,3:2:0:0:
102,194,161783,1,2,3:2:0:0:
243,50,161977,2,0,P|227:94|199:132,1,95,8|0,0:2|0:0,0:0:0:0:
12,177,162364,6,0,P|29:133|68:107,1,95,2|0,3:2|0:0,0:0:0:0:
222,233,162751,2,0,P|204:276|165:302,1,95,10|0,0:2|3:0,0:0:0:0:
132,300,163042,1,0,3:2:0:0:
132,300,163138,1,2,3:2:0:0:
199,132,163332,1,2,3:2:0:0:
321,290,163525,1,8,0:2:0:0:
512,139,163719,6,0,P|423:151|314:171,1,190,6|0,3:2|3:0,0:0:0:0:
165,302,164300,1,8,0:2:0:0:
374,384,164493,2,0,P|372:337|347:297,1,95,2|0,3:2|0:0,0:0:0:0:
321,290,164783,1,0,3:2:0:0:
321,290,164880,1,0,3:0:0:0:
161,166,165074,1,8,0:2:0:0:
334,74,165267,1,0,3:2:0:0:
334,74,165364,1,0,3:2:0:0:
334,74,165461,6,0,L|323:176,1,95,4|0,3:2|0:0,0:0:0:0:
419,11,165848,1,10,0:2:0:0:
222,15,166041,1,2,3:2:0:0:
222,15,166138,1,0,3:2:0:0:
222,15,166235,2,0,L|233:117,1,95,2|2,3:2|3:2,0:0:0:0:
255,298,166622,1,10,0:2:0:0:
455,241,166816,6,0,P|412:161|323:168,1,190,6|0,3:2|3:0,0:0:0:0:
164,260,167396,1,10,0:2:0:0:
348,384,167590,2,0,L|337:289,1,95,2|0,3:2|0:0,0:0:0:0:
332,259,167880,1,0,3:2:0:0:
332,259,167977,1,2,3:2:0:0:
157,147,168171,2,0,P|193:176|239:182,1,95,8|0,0:2|0:0,0:0:0:0:
416,35,168558,5,6,3:2:0:0:
235,92,168751,1,2,0:2:0:0:
423,207,168945,1,10,0:2:0:0:
247,301,169138,1,2,3:2:0:0:
247,301,169235,1,0,3:2:0:0:
247,301,169332,1,2,3:2:0:0:
339,136,169525,1,2,3:2:0:0:
407,324,169719,1,8,0:2:0:0:
239,182,169913,6,0,P|193:170|146:176,1,95,6|0,3:2|0:0,0:0:0:0:
121,188,170203,1,0,3:2:0:0:
121,188,170300,1,0,3:0:0:0:
0,366,170493,1,8,0:2:0:0:
169,268,170687,1,4,3:2:0:0:
23,143,170880,1,10,0:2:0:0:
88,323,171074,1,0,3:0:0:0:
88,323,171171,1,0,3:0:0:0:
88,323,171267,1,10,0:2:0:0:
127,99,171461,1,0,3:0:0:0:
266,199,171654,6,0,L|273:245,2,47.5,2|2|2,0:2|0:2|0:2,0:0:0:0:
392,120,172235,1,2,0:2:0:0:
392,120,172622,2,0,L|384:166,2,47.5,2|2|2,0:2|0:2|0:2,0:0:0:0:
254,46,173396,2,0,L|246:0,2,47.5,2|2|2,0:2|0:2|0:2,0:0:0:0:
274,167,173977,5,2,0:2:0:0:
118,80,174171,1,2,0:2:0:0:
294,137,186751,5,0,3:2:0:0:
276,120,186847,1,0,3:2:0:0:
255,111,186944,1,0,3:0:0:0:
231,108,187041,1,0,3:0:0:0:
208,112,187138,6,0,P|199:154|198:197,1,85.4999973907472,6|2,3:2|0:2,0:0:0:0:
63,85,187525,2,0,P|71:126|72:169,1,85.4999973907472,2|2,3:2|0:2,0:0:0:0:
14,347,187913,2,0,P|55:276|136:279,1,170.999994781494,10|2,0:2|0:2,0:0:0:0:
268,359,188493,1,10,0:2:0:0:
268,359,188590,1,8,0:2:0:0:
268,359,188687,6,0,P|257:318|255:276,1,85.4999973907472,0|8,3:0|0:2,0:0:0:0:
365,161,189074,2,0,P|362:203|351:244,1,85.4999973907472,0|0,3:0|0:0,0:0:0:0:
208,112,189461,1,10,0:2:0:0:
198,123,189848,2,0,P|240:116|282:114,1,85.4999973907472,2|0,3:2|0:0,0:0:0:0:
476,77,190235,6,0,P|428:71|365:167,1,170.999994781494,2|2,3:2|3:2,0:0:0:0:
475,270,190816,2,0,P|477:227|455:191,1,85.4999973907472,2|8,0:2|0:2,0:0:0:0:
307,231,191203,2,0,P|342:253|384:252,1,85.4999973907472,2|0,0:2|0:0,0:0:0:0:
266,143,191590,1,10,0:2:0:0:
190,323,191783,6,0,L|300:336,1,85.4999973907472,2|8,3:2|0:2,0:0:0:0:
114,238,192171,2,0,L|198:227,1,85.4999973907472,0|2,3:0|0:2,0:0:0:0:
372,153,192558,1,10,0:2:0:0:
240,56,192751,1,8,0:2:0:0:
284,238,192945,2,0,P|284:195|290:153,1,85.4999973907472,0|0,3:0|0:0,0:0:0:0:
146,24,193332,6,0,P|152:66|152:108,1,85.4999973907472,4|0,3:2|0:0,0:0:0:0:
29,231,193719,2,0,P|71:231|113:237,1,85.4999973907472,0|2,3:0|0:2,0:0:0:0:
282,319,194106,2,0,P|212:278|215:197,1,170.999994781494,10|2,0:2|0:2,0:0:0:0:
374,292,194687,1,8,0:2:0:0:
374,292,194783,1,8,0:2:0:0:
374,292,194880,6,0,L|363:379,1,85.4999973907472,2|8,3:2|0:2,0:0:0:0:
185,376,195267,2,0,L|174:291,1,85.4999973907472,2|0,3:2|0:0,0:0:0:0:
91,131,195654,1,10,0:2:0:0:
89,147,196042,2,0,P|131:144|170:127,1,85.4999973907472,2|0,3:2|0:0,0:0:0:0:
387,194,196429,6,0,P|349:167|244:220,1,170.999994781494,14|0,0:2|3:0,0:0:0:0:
387,300,197009,1,2,3:2:0:0:
472,152,197203,2,0,P|448:116|415:90,1,85.4999973907472,14|0,0:2|0:0,0:0:0:0:
230,60,197590,1,0,3:0:0:0:
324,184,197783,1,0,3:0:0:0:
330,0,197977,6,0,L|322:85,1,85.4999973907472,8|8,0:2|0:2,0:0:0:0:
134,143,198364,2,0,L|126:57,1,85.4999973907472,8|10,0:2|0:2,0:0:0:0:
216,192,198751,1,10,0:2:0:0:
32,144,198945,1,10,0:2:0:0:
160,320,199138,1,10,0:2:0:0:
224,92,199332,1,10,0:2:0:0:
132,231,199525,5,2,0:2:0:0:
392,270,200300,1,2,0:2:0:0:
392,270,200493,2,0,P|398:246|367:174,1,95,2|2,0:2|0:2,0:0:0:0:
430,72,201074,2,0,L|314:85,1,95,2|2,0:2|0:2,0:0:0:0:
249,0,201654,2,0,L|236:116,1,95,2|2,0:2|0:2,0:0:0:0:
230,186,202235,1,2,0:2:0:0:
229,186,202622,6,0,P|275:176|313:203,1,95,2|2,0:2|0:2,0:2:0:0:
219,285,203397,1,2,0:2:0:0:
219,285,203590,2,0,L|121:276,1,95,2|2,0:2|0:2,0:0:0:0:
0,312,204171,2,0,P|33:278|38:232,1,95,2|2,0:2|0:2,0:0:0:0:
31,29,204945,5,8,0:2:0:0:
157,164,205138,1,8,0:2:0:0:
146,172,205332,2,0,P|127:124|145:75,1,106.875004076958,2|0,0:2|0:0,0:0:0:0:
167,49,205719,6,0,P|215:51|262:60,1,95,6|0,3:2|0:0,0:0:0:0:
442,134,206106,1,10,0:2:0:0:
307,266,206300,1,2,3:2:0:0:
307,266,206396,1,0,3:2:0:0:
307,266,206493,2,0,P|300:219|319:176,1,95,0|2,3:0|3:2,0:0:0:0:
395,354,206880,1,8,0:2:0:0:
191,259,207074,6,0,P|137:242|30:330,1,190,6|0,3:2|3:0,0:0:0:0:
221,354,207654,1,10,0:2:0:0:
196,150,207848,2,0,P|204:96|332:57,1,190,2|2,3:2|3:2,0:0:0:0:
487,153,208429,2,0,P|439:146|392:142,1,95,8|0,0:2|0:0,0:0:0:0:
225,258,208816,5,6,3:2:0:0:
421,287,209009,1,2,0:2:0:0:
292,161,209203,1,10,0:2:0:0:
328,344,209396,1,2,3:2:0:0:
328,344,209493,1,0,3:2:0:0:
328,344,209590,1,2,3:2:0:0:
288,129,209783,1,2,3:2:0:0:
128,228,209977,1,8,0:2:0:0:
70,14,210171,6,0,P|158:15|178:101,1,190,6|0,3:2|3:0,0:0:0:0:
165,127,210654,1,0,3:0:0:0:
165,127,210751,1,8,0:2:0:0:
234,303,210945,1,6,3:2:0:0:
72,210,211139,1,2,3:2:0:0:
96,230,211235,1,8,0:2:0:0:
126,239,211332,1,10,0:2:0:0:
158,236,211429,1,8,0:2:0:0:
186,221,211525,1,10,0:2:0:0:
213,208,211622,1,8,0:2:0:0:
244,204,211719,1,10,0:2:0:0:
275,213,211816,1,8,0:2:0:0:
299,231,211913,6,0,P|311:276|316:323,1,95,6|0,3:2|0:0,0:0:0:0:
489,201,212300,2,0,P|461:239|440:282,1,95,8|0,0:2|3:0,0:0:0:0:
428,312,212590,1,0,3:2:0:0:
428,312,212687,1,2,3:2:0:0:
359,130,212880,1,2,3:2:0:0:
234,303,213074,1,8,0:2:0:0:
131,111,213267,6,0,P|185:101|233:222,1,190,6|0,3:2|3:0,0:0:0:0:
151,370,213848,1,10,0:2:0:0:
21,220,214042,2,0,P|71:213|116:224,1,95,2|0,3:2|0:0,0:0:0:0:
138,247,214332,1,0,3:2:0:0:
138,247,214429,1,2,3:2:0:0:
56,55,214622,2,0,P|87:89|130:110,1,95,8|0,0:2|0:0,0:0:0:0:
323,4,215009,6,0,P|278:13|238:40,1,95,2|0,3:2|0:0,0:0:0:0:
233,260,215396,2,0,P|246:216|243:168,1,95,10|0,0:2|3:0,0:0:0:0:
220,138,215687,1,0,3:2:0:0:
220,138,215783,1,2,3:2:0:0:
175,358,215977,1,2,3:2:0:0:
336,218,216171,1,8,0:2:0:0:
447,375,216364,6,4,P|499:301|460:219,1,190,6|0,3:2|3:0,0:0:0:0:
492,12,216945,1,8,0:2:0:0:
313,84,217138,2,0,P|352:109|399:110,1,95,2|0,3:2|0:0,0:0:0:0:
434,97,217429,1,0,3:2:0:0:
434,97,217525,1,0,3:0:0:0:
274,0,217719,1,8,0:2:0:0:
292,222,217913,1,0,3:2:0:0:
292,222,218009,1,0,3:2:0:0:
292,222,218106,6,0,P|252:196|205:195,1,95,4|0,3:2|0:0,0:0:0:0:
28,301,218493,1,10,0:2:0:0:
228,384,218687,1,2,3:2:0:0:
228,384,218783,1,0,3:2:0:0:
228,384,218880,2,0,P|240:338|226:293,1,95,2|2,3:2|3:2,0:0:0:0:
85,155,219267,1,10,0:2:0:0:
106,335,219461,6,0,B|108:267|108:267|81:235|81:235|85:155,1,190,6|0,3:2|3:0,0:0:0:0:
221,30,220042,1,10,0:2:0:0:
286,201,220235,2,0,P|255:164|215:138,1,95,2|0,3:2|0:0,0:0:0:0:
182,122,220525,1,0,3:2:0:0:
182,122,220622,1,2,3:2:0:0:
214,315,220816,2,0,L|330:300,1,95,8|0,0:2|0:0,0:0:0:0:
488,193,221203,5,6,3:2:0:0:
402,355,221396,1,2,0:2:0:0:
384,155,221590,1,10,0:2:0:0:
496,308,221783,1,2,3:2:0:0:
496,308,221880,1,0,3:2:0:0:
496,308,221977,1,2,3:2:0:0:
300,216,222171,1,2,3:2:0:0:
466,95,222364,1,8,0:2:0:0:
275,0,222558,6,0,L|291:93,1,95,6|0,3:2|0:0,0:0:0:0:
299,126,222848,1,0,3:2:0:0:
299,126,222945,1,0,3:0:0:0:
162,251,223138,1,8,0:2:0:0:
190,95,223332,1,4,3:2:0:0:
294,246,223525,1,10,0:2:0:0:
108,159,223719,1,0,3:0:0:0:
108,159,223816,1,0,3:0:0:0:
108,159,223913,2,0,P|61:154|20:177,1,95,10|0,0:2|0:0,0:0:0:0:
0,0,224300,6,0,P|41:22|87:18,1,95,6|2,3:2|0:2,0:0:0:0:
280,113,224687,2,0,P|279:66|251:28,1,95,10|2,0:2|3:2,0:0:0:0:
196,212,225074,1,2,3:2:0:0:
379,170,225267,1,2,3:2:0:0:
306,339,225461,1,10,0:2:0:0:
512,252,225654,6,0,B|436:242|436:242|405:266|405:266|331:254,1,190,6|0,3:2|3:0,0:0:0:0:
177,369,226235,1,8,0:2:0:0:
195,177,226429,1,0,3:0:0:0:
314,347,226622,1,2,0:2:0:0:
314,347,226719,1,0,3:2:0:0:
314,347,226816,1,0,3:0:0:0:
122,301,227009,2,0,P|165:284|212:289,1,95,10|0,0:2|3:0,0:0:0:0:
313,126,227396,5,14,0:2:0:0:
107,181,227590,1,2,3:2:0:0:
248,40,227783,5,10,0:2:0:0:
308,243,227977,1,2,3:2:0:0:
469,108,228171,5,10,0:2:0:0:
412,300,228365,1,2,3:2:0:0:
412,300,228461,1,0,3:0:0:0:
412,300,228558,1,8,0:2:0:0:
313,126,228751,6,0,P|266:119|219:125,1,95,6|0,3:2|0:0,0:0:0:0:
187,138,229042,1,0,3:2:0:0:
187,138,229138,1,0,3:0:0:0:
75,290,229332,5,8,0:2:0:0:
277,228,229525,1,0,3:0:0:0:
69,132,229719,5,10,0:2:0:0:
196,315,229913,1,0,3:0:0:0:
196,315,230009,1,0,3:0:0:0:
196,315,230106,1,10,0:2:0:0:
327,111,230300,1,0,3:0:0:0:
450,248,230493,6,0,L|510:238,2,47.5,2|2|2,0:2|0:2|0:2,0:0:0:0:
354,367,231074,1,2,0:2:0:0:
354,367,231461,2,0,L|414:377,2,47.5,2|2|2,0:2|0:2|0:2,0:0:0:0:
258,232,232235,2,0,L|304:193,2,47.5,2|2|2,0:2|0:2|0:2,0:0:0:0:
258,232,233590,6,0,P|335:260|401:211,1,170.999994781494,4|8,3:2|0:2,0:0:0:0:
311,87,234171,1,0,3:0:0:0:
311,87,234267,1,0,3:2:0:0:
311,87,234364,2,0,L|325:176,1,85.4999973907472,0|0,3:0|3:0,0:0:0:0:
393,52,234751,1,8,0:2:0:0:
233,134,234945,6,0,P|185:139|136:37,1,170.999994781494,4|0,3:2|3:0,0:0:0:0:
311,87,235525,1,8,0:2:0:0:
247,230,235719,2,0,P|205:230|163:238,1,85.4999973907472,0|0,3:0|0:0,0:0:0:0:
133,251,236009,1,0,3:2:0:0:
133,251,236106,1,0,3:0:0:0:
0,154,236300,2,0,P|42:161|84:162,1,85.4999973907472,8|0,0:2|0:0,0:0:0:0:
52,362,236687,6,0,P|57:281|133:251,1,170.999994781494,0|8,3:0|0:2,0:0:0:0:
260,361,237267,1,0,3:0:0:0:
260,361,237364,1,0,3:2:0:0:
260,361,237461,2,0,L|271:264,1,85.4999973907472,0|0,3:0|3:0,0:0:0:0:
282,121,237848,1,8,0:2:0:0:
463,251,238042,6,0,P|383:263|346:192,1,170.999994781494,4|0,3:2|3:0,0:0:0:0:
343,31,238622,1,8,0:2:0:0:
512,107,238816,2,0,P|473:125|431:131,1,85.4999973907472,0|0,3:0|0:0,0:0:0:0:
398,128,239106,1,0,3:2:0:0:
398,128,239203,1,0,3:0:0:0:
345,341,239396,1,8,0:2:0:0:
511,259,239590,1,0,3:2:0:0:
511,259,239687,1,0,3:2:0:0:
511,259,239783,6,0,P|433:228|351:247,1,170.999994781494,4|8,3:2|0:2,0:0:0:0:
225,347,240364,1,0,3:0:0:0:
225,347,240461,1,0,3:2:0:0:
225,347,240558,2,0,P|233:305|236:262,1,85.4999973907472,0|0,3:0|3:0,0:0:0:0:
203,117,240945,1,8,0:2:0:0:
97,276,241138,6,0,P|86:191|80:105,1,170.999994781494,4|0,3:2|3:0,0:0:0:0:
189,0,241719,1,8,0:2:0:0:
317,145,241913,2,0,P|275:144|233:134,1,85.4999973907472,0|0,3:0|0:0,0:0:0:0:
203,117,242203,1,0,3:2:0:0:
203,117,242300,1,0,3:0:0:0:
362,25,242493,2,0,P|403:15|446:14,1,85.4999973907472,8|0,0:2|0:0,0:0:0:0:
449,229,242880,6,0,P|410:201|464:109,1,170.999994781494,4|8,3:2|0:2,0:0:0:0:
509,299,243461,1,0,3:0:0:0:
509,299,243558,1,0,3:2:0:0:
509,299,243654,2,0,P|471:320|429:323,1,85.4999973907472,0|0,3:0|3:0,0:0:0:0:
276,226,244042,1,8,0:2:0:0:
347,384,244235,6,0,L|358:206,1,170.999994781494,4|8,3:2|0:2,0:0:0:0:
365,50,244816,1,12,0:2:0:0:
188,109,245009,1,8,0:2:0:0:
188,109,245105,1,8,0:2:0:0:
188,109,245203,1,8,0:2:0:0:
198,127,245299,1,8,0:2:0:0:
202,148,245396,1,8,0:2:0:0:
202,169,245493,1,8,0:2:0:0:
195,190,245590,1,8,0:2:0:0:
188,210,245687,1,8,0:2:0:0:
187,231,245784,1,8,0:2:0:0:
192,252,245881,1,8,0:2:0:0:
202,271,245977,5,4,3:2:0:0:
256,192,246171,12,0,252171,0:0:0:0:
