osu file format v14

[General]
AudioFilename: Hatsune Miku - Yozora ni Saita Hana [Full].mp3
AudioLeadIn: 0
PreviewTime: 66650
Countdown: 0
SampleSet: Soft
StackLeniency: 0.7
Mode: 0
LetterboxInBreaks: 0
WidescreenStoryboard: 0

[Editor]
Bookmarks: 13317,23650,34983,66650,93650,103983,114817,146983,180317,181650,192483,213650,234733,237650,256900
DistanceSpacing: 0.5
BeatDivisor: 4
GridSize: 4
TimelineZoom: 1.5

[Metadata]
Title:Yozora ni Saita Hana
TitleUnicode:夜空に咲いた花
Artist:WakaG
ArtistUnicode:若G
Creator:TheBlaiZe
Version:Beauty under the Moon
Source:天響ノ和樂2
Tags:Hatsune, Miku, Vocaloid, Yozora, Ni, Saita, Hana, Tenkyou no Wagaku 2
BeatmapID:957137
BeatmapSetID:445567

[Difficulty]
HPDrainRate:6
CircleSize:4
OverallDifficulty:8
ApproachRate:9.3
SliderMultiplier:1.4
SliderTickRate:1

[Events]
//Background and Video events
0,0,"Hatsune.Miku.full.689511.jpg",0,0
//Break Periods
//Storyboard Layer 0 (Background)
//Storyboard Layer 1 (Fail)
//Storyboard Layer 2 (Pass)
//Storyboard Layer 3 (Foreground)
//Storyboard Sound Samples

[TimingPoints]
2984,333.333333333333,4,2,0,60,1,0
2984,-125,4,2,0,60,0,0
10584,-200,4,2,0,60,0,0
10817,-200,4,2,0,50,0,0
11482,-200,4,2,0,35,0,0
12317,-200,4,2,0,20,0,0
13317,-66.6666666666667,4,3,0,70,0,0
16150,-133.333333333333,4,3,0,60,0,0
23650,-66.6666666666667,4,2,0,60,0,0
29170,-133.333333333333,4,2,0,60,0,0
34983,-133.333333333333,4,3,0,60,0,0
42317,-66.6666666666667,4,3,0,60,0,0
43817,-133.333333333333,4,3,0,60,0,0
54317,-66.6666666666667,4,3,0,60,0,0
54983,-100,4,3,0,60,0,0
56067,-66.6666666666667,4,3,0,60,0,0
61150,-80,4,3,0,60,0,0
65650,-100,4,3,0,60,0,0
66067,-66.6666666666667,4,3,0,60,0,0
66567,-66.6666666666667,4,3,0,60,0,0
66983,-66.6666666666667,4,2,0,45,0,1
67233,-66.6666666666667,4,2,0,60,0,1
70817,-66.6666666666667,4,2,0,60,0,1
75233,-66.6666666666667,4,2,0,60,0,1
77150,-100,4,2,0,60,0,1
77900,-50,4,2,0,60,0,1
78233,-66.6666666666667,4,2,0,60,0,1
78817,-100,4,2,0,60,0,1
81983,-100,4,2,0,60,0,1
87317,-100,4,2,0,60,0,0
93650,-66.6666666666667,4,3,0,60,0,0
103983,-66.6666666666667,4,2,0,60,0,0
106400,-66.6666666666667,4,2,0,60,0,0
109192,-133.333333333333,4,2,0,60,0,0
114150,-100,4,2,0,60,0,0
114817,-100,4,3,0,60,0,0
120650,-100,4,3,0,60,0,0
121317,-100,4,3,0,60,0,0
122317,-100,4,3,0,60,0,0
123400,-66.6666666666667,4,3,0,60,0,0
125483,-133.333333333333,4,3,0,60,0,0
125650,-133.333333333333,4,3,0,60,0,0
128817,-133.333333333333,4,3,0,60,0,0
133817,-133.333333333333,4,3,0,60,0,0
134317,-66.6666666666667,4,3,0,60,0,0
142900,-66.6666666666667,4,3,0,60,0,0
144251,-66.6666666666667,4,3,0,60,0,0
146483,-66.6666666666667,4,3,0,60,0,0
146983,-66.6666666666667,4,2,0,45,0,1
146983,-66.6666666666667,4,2,0,45,0,1
147150,-66.6666666666667,4,2,0,60,0,1
150817,-66.6666666666667,4,2,0,60,0,1
157317,-100,4,2,0,60,0,1
157567,-50,4,2,0,60,0,1
157900,-100,4,2,0,60,0,1
161317,-100,4,2,0,60,0,1
162317,-100,4,2,0,60,0,1
168317,-100,4,2,0,60,0,0
172036,-100,4,1,0,25,0,0
178567,-100,4,3,0,15,0,0
179650,-133.333333333333,4,2,0,60,0,0
180317,-133.333333333333,4,3,0,60,0,0
180650,-100,4,3,0,60,0,0
181483,-133.333333333333,4,3,0,60,0,0
181650,-133.333333333333,4,2,0,60,0,0
189483,-133.333333333333,4,3,0,60,0,0
192483,-133.333333333333,4,2,0,30,0,0
201400,-133.333333333333,4,2,0,40,0,0
201817,-133.333333333333,4,2,0,50,0,0
202150,-133.333333333333,4,2,0,55,0,0
202483,-133.333333333333,4,2,0,50,0,0
202900,-66.6666666666667,4,3,0,45,0,0
208150,-66.6666666666667,4,3,0,60,0,0
208233,-66.6666666666667,4,3,0,45,0,0
208900,-66.6666666666667,4,3,0,55,0,0
209567,-66.6666666666667,4,3,0,65,0,0
210233,-66.6666666666667,4,3,0,80,0,0
212817,-66.6666666666667,4,3,0,25,0,0
213150,-66.6666666666667,4,3,0,60,0,0
213317,-66.6666666666667,4,3,0,60,0,0
213650,-66.6666666666667,4,2,0,45,0,1
213900,-66.6666666666667,4,2,0,60,0,1
224150,-100,4,2,0,60,0,1
224567,-50,4,2,0,60,0,1
224900,-66.6666666666667,4,2,0,60,0,1
226900,-100,4,2,0,60,0,1
234650,-100,4,2,0,60,0,0
234733,-100,4,3,0,60,0,0
236150,-66.6666666666667,4,3,0,40,0,0
236483,-66.6666666666667,4,3,0,45,0,0
236817,-66.6666666666667,4,3,0,50,0,0
237150,-66.6666666666667,4,3,0,55,0,0
237483,-66.6666666666667,4,3,0,60,0,0
237650,-66.6666666666667,4,2,0,60,0,1
242900,-66.6666666666667,4,2,0,60,0,1
248317,-66.6666666666667,4,2,0,60,0,1
249567,-66.6666666666667,4,2,0,60,0,1
250567,-66.6666666666667,4,2,0,60,0,1
256233,-66.6666666666667,4,2,0,60,0,1
258817,-100,4,2,0,60,0,0
263567,-100,4,3,0,40,0,0
264483,-66.6666666666667,4,3,0,60,0,0
273817,-66.6666666666667,4,2,0,40,0,0
274817,-166.666666666667,4,2,0,40,0,0
277817,-166.666666666667,4,2,0,35,0,0
278150,-166.666666666667,4,2,0,30,0,0
278483,-166.666666666667,4,2,0,25,0,0
280150,-166.666666666667,4,2,0,40,0,0
289329,454.545454545455,4,2,0,40,1,0
291143,400,4,2,0,40,1,0
291343,-133.333333333333,4,2,0,40,0,0
292743,428.571428571429,4,2,0,40,1,0
294508,-100,4,2,0,40,0,0
295150,-166.666666666667,4,2,0,5,0,0
300737,-166.666666666667,4,2,0,5,0,0

[Colours]
Combo1 : 255,255,255
Combo2 : 0,255,168
Combo3 : 10,120,255

[HitObjects]
72,64,2983,5,2,0:0:0:0:
56,176,3317,1,2,0:0:0:0:
162,143,3650,1,2,0:0:0:0:
144,256,3983,1,2,0:0:0:0:
256,224,4317,1,2,0:0:0:0:
256,336,4650,2,0,B|256:296|256:296|304:288|320:268|336:236|352:200|304:156|268:152|268:152,1,224
200,96,5650,5,2,0:0:0:0:
152,196,5983,1,2,0:0:0:0:
256,224,6317,1,2,0:0:0:0:
308,124,6650,1,2,0:0:0:0:
200,96,6983,1,2,0:0:0:0:
152,196,7317,2,0,B|212:208|144:324|312:320|320:248,1,224
372,164,8317,5,2,0:0:0:0:
332,60,8650,1,2,0:0:0:0:
248,136,8983,1,2,0:0:0:0:
200,36,9317,1,2,0:0:0:0:
132,124,9650,1,2,0:0:0:0:
24,92,9983,2,0,B|61:110|61:110|55:166|90:197|131:216|196:175,1,224
280,184,10983,6,0,L|335:246,1,70
289,350,11650,2,0,L|251:274,1,70
84,168,12317,2,4,B|128:208|128:208|176:160|212:208|212:208,1,140,0|8,0:0|0:0,0:0:0:0:
232,168,13650,6,0,B|236:148|236:148|252:132|252:132|264:100|264:100|276:132,1,105.000004005432,0|2,0:0|0:0,0:0:0:0:
280,216,13983,2,0,B|276:236|276:236|260:252|260:252|248:284|248:284|238:257,1,105.000004005432,0|2,0:0|0:0,0:0:0:0:
256,158,14317,6,0,B|272:146|272:146|295:146|295:146|326:132|326:132|312:163,1,105.000004005432,0|2,0:0|0:0,0:0:0:0:
256,225,14650,2,0,B|239:237|239:237|216:237|216:237|185:251|185:251|196:226,1,105.000004005432,0|2,0:0|0:0,0:0:0:0:
280,168,14983,6,0,B|300:171|300:171|316:188|316:188|348:200|348:200|316:212,1,105.000004005432,0|2,0:0|0:0,0:0:0:0:
232,216,15317,2,0,B|212:211|212:211|196:196|196:196|163:183|163:183|190:174,1,105.000004005432,8|2,0:0|0:0,0:0:0:0:
289,192,15650,6,0,B|301:208|301:208|301:231|301:231|315:262|315:262|284:248,1,105.000004005432,8|2,0:0|0:0,0:0:0:0:
222,192,15983,2,0,B|210:175|210:175|210:152|210:152|196:121|196:121|221:132,1,105.000004005432,8|2,0:0|0:0,0:0:0:0:
327,136,16317,6,2,L|360:208,1,52.5000020027161,0|0,0:0|0:0,0:0:0:0:
185,248,16650,2,0,L|163:200,1,52.5000020027161,0|2,0:0|0:0,0:0:0:0:
341,163,16983,2,0,L|348:242,1,52.5000020027161,0|2,0:0|0:0,0:0:0:0:
170,220,17316,2,0,L|165:168,1,52.5000020027161,0|2,0:0|0:0,0:0:0:0:
346,194,17650,6,0,L|325:271,1,52.5000020027161,0|2,0:0|0:0,0:0:0:0:
165,189,17983,2,0,L|179:138,1,52.5000020027161,8|2,0:0|0:0,0:0:0:0:
339,225,18316,2,0,L|294:290,1,52.5000020027161,8|2,0:0|0:0,0:0:0:0:
172,158,18649,2,0,L|202:115,1,52.5000020027161,8|2,0:0|0:0,0:0:0:0:
408,175,18983,6,0,L|397:276,1,52.5000020027161,0|2,0:0|0:0,0:0:0:0:
397,310,19316,1,8,0:0:0:0:
103,208,19650,2,0,L|114:107,1,52.5000020027161
114,73,19983,1,8,0:0:0:0:
335,323,20317,6,0,L|238:356,1,52.5000020027161
208,370,20650,1,8,0:0:0:0:
176,60,20983,2,0,L|273:27,1,52.5000020027161
303,13,21316,1,8,0:0:0:0:
344,160,21650,6,0,L|301:202,1,52.5000020027161,2|0,0:3|0:3,0:3:0:0:
224,104,21983,2,0,L|266:146,1,52.5000020027161,2|0,0:3|0:3,0:3:0:0:
168,224,22317,2,0,L|210:181,1,52.5000020027161,2|0,0:3|0:3,0:3:0:0:
287,280,22650,2,0,L|245:237,1,52.5000020027161,2|0,0:3|0:3,0:3:0:0:
295,107,22983,5,2,0:0:0:0:
171,152,23150,1,2,0:0:0:0:
216,276,23317,1,2,0:0:0:0:
340,231,23483,1,2,0:0:0:0:
384,172,24150,1,0,0:0:0:0:
76,188,24317,6,0,L|180:180,1,105.000004005432,2|0,0:0|0:0,0:0:0:0:
288,180,24650,2,0,L|232:276,1,105.000004005432,0|2,0:0|0:0,0:0:0:0:
340,264,24983,1,0,0:0:0:0:
384,172,25150,1,2,0:0:0:0:
180,179,25316,1,0,0:0:0:0:
384,172,25483,6,0,L|328:60,1,105.000004005432,2|2,0:0|0:0,0:0:0:0:
236,92,25817,1,0,0:0:0:0:
180,179,25984,1,2,0:0:0:0:
116,96,26150,2,0,B|132:132|84:152|76:224|144:284|224:248,1,210.000008010865,2|0,0:0|0:0,0:0:0:0:
292,212,26650,2,0,P|351:203|390:163,1,105.000004005432,2|0,0:0|0:0,0:0:0:0:
440,88,26983,5,2,0:0:0:0:
196,172,27150,1,0,0:0:0:0:
292,212,27317,2,0,P|308:269|278:326,1,105.000004005432,2|2,0:0|0:0,0:0:0:0:
204,256,27650,1,0,0:0:0:0:
292,212,27817,1,2,0:0:0:0:
164,124,27983,2,0,P|200:76|264:68,1,105.000004005432
423,89,28317,6,0,L|388:188,2,105.000004005432,2|0|2,0:0|0:0|0:0,0:0:0:0:
300,132,28817,2,0,L|260:240,1,105.000004005432,2|0,0:0|0:0,0:0:0:0:
176,172,29150,2,0,L|136:280,1,105.000004005432,2|0,0:0|0:0,0:0:0:0:
96,139,29483,6,0,B|100:132|76:186,2,52.5000020027161,2|2|2,0:0|0:0|0:0,0:0:0:0:
128,68,29983,1,2,0:0:0:0:
208,68,30150,2,0,L|268:68,1,52.5000020027161,2|0,0:0|0:0,0:0:0:0:
356,96,30484,1,2,0:0:0:0:
396,192,30650,1,0,0:0:0:0:
340,280,30817,1,2,0:0:0:0:
236,304,30983,6,0,L|176:304,1,52.5000020027161,2|0,0:0|0:0,0:0:0:0:
80,284,31317,1,2,0:0:0:0:
32,192,31483,1,2,0:0:0:0:
88,100,31650,2,0,L|136:140,1,52.5000020027161,0|2,0:0|0:0,0:0:0:0:
232,112,31983,2,0,L|184:72,1,52.5000020027161,0|2,0:0|0:0,0:0:0:0:
88,40,32317,5,2,0:0:0:0:
112,88,32650,1,2,0:0:0:0:
136,136,32983,1,0,0:0:0:0:
160,184,33317,1,0,0:0:0:0:
184,232,33650,1,2,0:0:0:0:
208,280,33983,1,0,0:0:0:0:
136,136,34317,1,2,0:0:0:0:
252,76,34483,1,2,0:0:0:0:
236,208,34650,1,2,0:0:0:0:
352,148,34817,1,0,0:0:0:0:
436,196,34983,6,0,P|448:228|424:240,1,52.5000020027161,12|0,0:0|0:0,0:0:0:0:
352,148,35317,1,0,0:0:0:0:
380,264,35483,1,0,0:0:0:0:
300,104,35650,1,0,0:0:0:0:
340,320,35817,1,0,0:0:0:0:
212,152,35983,1,0,0:0:0:0:
212,256,36150,1,0,0:0:0:0:
172,128,36317,5,8,0:0:0:0:
256,272,36484,1,0,0:0:0:0:
172,80,36650,1,0,0:0:0:0:
292,304,36817,2,0,P|341:289|376:251,1,105.000004005432,8|0,0:0|0:0,0:0:0:0:
328,136,37317,1,0,0:0:0:0:
400,276,37483,1,0,0:0:0:0:
252,272,37650,5,8,0:0:0:0:
328,136,37817,1,0,0:0:0:0:
328,292,37983,1,0,0:0:0:0:
192,232,38150,1,0,0:0:0:0:
328,136,38317,1,0,0:0:0:0:
252,272,38483,1,0,0:0:0:0:
84,84,38650,1,0,0:0:0:0:
220,164,38817,1,0,0:0:0:0:
76,232,38984,5,8,0:0:0:0:
84,84,39150,2,0,B|121:50|165:49|200:76,2,105.000004005432,0|0|0,2:0|0:0|0:0,0:0:0:0:
112,240,39983,1,0,0:0:0:0:
268,264,40150,6,8,P|312:292|364:300,1,105.000004005432,0|0,0:0|0:0,0:0:0:0:
468,296,40650,1,0,0:0:0:0:
448,192,40817,1,0,0:0:0:0:
344,212,40983,1,0,2:0:0:0:
468,76,41150,2,0,L|400:76,1,52.5000020027161
316,112,41483,1,0,0:0:0:0:
220,152,41650,5,8,0:0:0:0:
116,304,41817,2,0,L|72:268,2,52.5000020027161,0|0|8,0:0|0:0|0:0,0:0:0:0:
224,80,42483,1,0,0:0:0:0:
305,156,42650,1,0,0:0:0:0:
229,238,42817,1,0,0:0:0:0:
96,76,42983,1,8,0:0:0:0:
456,88,43317,2,8,L|312:64,1,105.000004005432
484,236,43817,1,8,0:0:0:0:
276,200,44150,1,8,0:0:0:0:
456,88,44483,6,0,L|424:144,1,52.5000020027161,0|8,0:0|0:0,0:0:0:0:
364,120,44817,2,0,L|332:176,1,52.5000020027161,0|8,0:0|0:0,0:0:0:0:
272,172,45150,2,0,L|240:228,1,52.5000020027161,0|8,0:0|0:0,0:0:0:0:
180,200,45483,1,0,0:0:0:0:
164,228,45567,1,0,0:0:0:0:
148,260,45650,1,14,0:0:0:0:
304,168,45983,5,0,0:0:0:0:
296,272,46317,1,0,0:0:0:0:
200,88,46650,1,0,0:0:0:0:
376,208,46983,1,0,0:0:0:0:
176,280,47317,1,0,0:0:0:0:
440,176,47650,2,0,B|416:136|368:120|328:152|328:152,1,105.000004005432
232,128,48150,1,0,0:0:0:0:
216,152,48233,1,0,0:0:0:0:
200,176,48316,1,12,0:0:0:0:
120,300,48650,5,0,0:0:0:0:
264,276,48983,1,0,0:0:0:0:
136,204,49317,2,0,L|192:192,1,52.5000020027161,2|0,0:0|0:0,0:0:0:0:
280,172,49650,1,2,0:0:0:0:
156,96,49983,5,0,0:0:0:0:
224,64,50150,1,2,0:0:0:0:
296,64,50317,1,2,0:0:0:0:
368,84,50483,1,0,0:0:0:0:
416,140,50650,1,2,0:0:0:0:
360,276,50983,6,0,P|288:288|248:256,1,105.000004005432,14|0,0:0|0:0,0:0:0:0:
208,216,51483,1,2,0:0:0:0:
180,144,51650,1,0,0:0:0:0:
284,144,51817,1,0,0:0:0:0:
388,144,51983,1,0,0:0:0:0:
300,200,52150,1,0,0:0:0:0:
212,256,52317,5,10,0:0:0:0:
236,152,52483,1,0,0:0:0:0:
260,48,52650,1,0,0:0:0:0:
308,144,52817,1,0,0:0:0:0:
348,240,52983,1,2,0:0:0:0:
252,192,53150,1,0,0:0:0:0:
156,144,53317,1,0,0:0:0:0:
368,136,53650,5,4,0:0:0:0:
186,101,53983,2,4,L|146:157,1,52.5000020027161
312,232,54483,2,0,P|412:192|376:116,1,210.000008010865,4|12,0:0|0:0,0:0:0:0:
168,184,55150,5,0,0:0:0:0:
56,140,55317,1,0,0:0:0:0:
164,96,55483,1,2,0:0:0:0:
52,56,55650,1,2,0:0:0:0:
164,96,55817,1,2,0:0:0:0:
264,140,55983,1,2,0:0:0:0:
264,140,56067,1,0,0:0:0:0:
264,140,56150,1,0,0:0:0:0:
264,140,56233,1,0,0:0:0:0:
264,140,56317,6,0,P|320:212|288:268,1,157.500006008148,6|0,0:0|0:0,0:0:0:0:
256,216,56650,1,2,0:0:0:0:
156,252,56817,1,2,0:0:0:0:
256,216,56983,1,0,0:0:0:0:
87,259,57150,1,0,0:0:0:0:
256,216,57317,1,2,0:0:0:0:
23,237,57483,1,0,0:0:0:0:
184,104,57650,6,0,B|216:156|216:156|256:136|292:140|320:172|328:208,1,157.500006008148,2|0,0:0|0:0,0:0:0:0:
352,184,57983,1,2,0:0:0:0:
440,240,58150,1,2,0:0:0:0:
352,184,58317,1,0,0:0:0:0:
448,304,58483,1,0,0:0:0:0:
352,184,58650,1,2,0:0:0:0:
432,368,58817,1,0,0:0:0:0:
352,184,58983,1,2,0:0:0:0:
164,88,59317,5,2,0:0:0:0:
108,176,59483,1,2,0:0:0:0:
256,152,59650,1,2,0:0:0:0:
348,92,59817,1,2,0:0:0:0:
404,176,59983,1,2,0:0:0:0:
256,64,60317,5,2,0:0:0:0:
56,132,60650,1,2,0:0:0:0:
124,332,60983,1,2,0:0:0:0:
328,260,61317,1,2,0:0:0:0:
240,96,61650,6,0,P|240:160|216:208,1,87.5,4|0,0:0|0:0,0:0:0:0:
272,96,61983,2,0,P|272:160|296:208,1,87.5,8|0,0:0|0:0,0:0:0:0:
216,144,62317,6,0,P|210:207|182:253,1,87.5,8|0,0:0|0:0,0:0:0:0:
296,144,62650,2,0,P|301:207|329:253,1,87.5,8|0,0:0|0:0,0:0:0:0:
168,192,62983,6,0,P|140:250|98:283,1,87.5,8|0,0:0|0:0,0:0:0:0:
344,192,63317,2,0,P|371:250|413:283,1,87.5,8|0,0:0|0:0,0:0:0:0:
112,240,63650,6,0,P|66:285|15:302,1,87.5,8|0,0:0|0:0,0:0:0:0:
400,240,63983,2,0,P|445:285|496:302,1,87.5,8|0,0:0|0:0,0:0:0:0:
360,112,64317,5,2,0:0:0:0:
32,280,64650,1,2,0:0:0:0:
80,104,64817,1,2,0:0:0:0:
400,288,65150,1,2,0:0:0:0:
48,192,65483,1,2,0:0:0:0:
416,192,65817,1,2,0:0:0:0:
344,352,65983,2,0,L|292:288,1,70
164,100,66317,1,8,0:0:0:0:
480,88,66650,2,0,B|472:144|472:144|424:100|368:136,1,157.500006008148
292,188,66983,6,0,P|256:240|200:264,1,105.000004005432,14|0,0:0|0:0,0:0:0:0:
68,184,67317,1,2,0:0:0:0:
217,258,67484,1,0,0:0:0:0:
108,132,67650,1,2,0:0:0:0:
164,292,67817,1,0,0:0:0:0:
172,116,67983,2,0,B|224:80|224:80|248:96|261:99,1,105.000004005432,2|0,0:0|0:0,0:0:0:0:
268,264,68317,5,10,0:0:0:0:
472,84,68483,1,0,0:0:0:0:
268,264,68650,1,0,0:0:0:0:
316,116,68816,1,0,0:0:0:0:
268,264,68983,1,0,0:0:0:0:
212,116,69150,1,0,0:0:0:0:
308,332,69317,2,0,B|356:300|344:241,1,105.000004005432
156,176,69650,5,10,0:0:0:0:
0,132,69817,1,0,0:0:0:0:
148,88,69983,1,2,0:0:0:0:
60,216,70150,1,0,0:0:0:0:
56,56,70317,1,2,0:0:0:0:
208,232,70484,1,0,0:0:0:0:
0,132,70650,1,2,0:0:0:0:
265,60,70817,1,0,0:0:0:0:
156,176,70983,6,0,P|220:200|280:184,1,105.000004005432,10|0,0:0|0:0,0:0:0:0:
364,80,71317,2,0,P|317:57|266:60,1,105.000004005432,0|0,0:0|0:0,0:0:0:0:
420,240,71650,1,0,0:0:0:0:
288,324,71817,1,0,0:0:0:0:
164,236,71983,2,0,B|88:232|72:148,1,105.000004005432
212,88,72317,6,0,B|288:92|304:176,1,105.000004005432,10|0,0:0|0:0,0:0:0:0:
246,291,72650,2,0,B|170:287|154:203,1,105.000004005432,2|0,0:0|0:0,0:0:0:0:
294,143,72983,1,2,0:0:0:0:
400,260,73150,1,0,0:0:0:0:
246,291,73317,1,2,0:0:0:0:
294,143,73483,1,0,0:0:0:0:
148,208,73650,5,10,0:0:0:0:
188,56,73817,1,0,0:0:0:0:
344,36,73983,2,0,B|405:57|427:122,1,105.000004005432,0|0,0:0|0:0,0:0:0:0:
452,204,74317,1,0,0:0:0:0:
396,292,74483,1,0,0:0:0:0:
296,320,74650,1,0,0:0:0:0:
192,288,74817,1,0,0:0:0:0:
387,116,74983,6,0,P|382:64|344:30,1,105.000004005432,10|0,0:0|0:0,0:0:0:0:
387,116,75317,2,0,P|361:71|312:56,1,105.000004005432,2|0,0:0|0:0,0:0:0:0:
387,116,75650,2,0,P|345:87|294:93,1,105.000004005432,2|0,0:0|0:0,0:0:0:0:
387,116,75983,2,0,P|336:108|293:135,1,105.000004005432,2|0,0:0|0:0,0:0:0:0:
180,312,76317,5,2,0:0:0:0:
332,72,76650,1,2,0:0:0:0:
376,268,76983,1,2,0:0:0:0:
136,116,77317,1,2,0:0:0:0:
428,292,77650,6,0,P|460:256|464:224,1,70,14|0,0:0|0:0,0:0:0:0:
388,232,77983,2,0,B|312:292|300:208|228:272,1,140,2|0,0:0|0:0,0:0:0:0:
117,210,78317,1,2,0:0:0:0:
42,135,78483,1,0,0:0:0:0:
117,61,78650,1,2,0:0:0:0:
191,135,78817,1,0,0:0:0:0:
248,336,78983,6,0,P|306:323|328:296,1,70,10|0,0:0|0:0,0:0:0:0:
384,116,79317,2,0,P|349:117|319:134,1,70
240,276,79650,1,0,0:0:0:0:
319,134,79817,1,0,0:0:0:0:
192,232,79984,1,0,0:0:0:0:
348,200,80151,1,0,0:0:0:0:
452,316,80317,6,0,P|480:272|464:232,1,70,10|0,0:0|0:0,0:0:0:0:
340,284,80650,2,0,L|264:216,1,70,2|0,0:0|0:0,0:0:0:0:
168,116,80984,1,2,0:0:0:0:
56,240,81150,1,0,0:0:0:0:
112,80,81317,1,2,0:0:0:0:
124,248,81483,1,0,0:0:0:0:
284,84,81650,5,2,0:0:0:0:
420,164,81817,1,0,0:0:0:0:
472,256,81983,2,0,B|446:279|404:268|404:268|381:266|381:266,1,70
300,268,82317,1,0,0:0:0:0:
204,228,82484,1,0,0:0:0:0:
176,128,82651,1,0,0:0:0:0:
240,44,82818,1,0,0:0:0:0:
136,192,82983,6,0,P|204:198|223:190,1,70,10|0,0:0|0:0,0:0:0:0:
400,172,83317,2,0,P|388:239|373:251,1,70,2|0,0:0|0:0,0:0:0:0:
296,284,83650,1,2,0:0:0:0:
186,272,83817,1,0,0:0:0:0:
36,196,83983,2,0,P|85:148|105:148,1,70,2|0,0:0|0:0,0:0:0:0:
238,230,84317,6,0,P|184:272|164:271,1,70,10|0,0:0|0:0,0:0:0:0:
152,136,84650,2,0,P|206:94|226:95,1,70,0|0,0:0|0:0,0:0:0:0:
344,116,84983,2,0,P|352:184|340:200,1,70
244,284,85317,2,0,P|210:289|179:275,1,70,0|0,0:0|0:0,0:0:0:0:
278,106,85650,6,0,P|346:114|362:102,1,70,10|0,0:0|0:0,0:0:0:0:
436,64,85983,1,2,0:0:0:0:
464,164,86150,1,0,0:0:0:0:
400,248,86317,2,0,P|349:294|329:294,1,70,10|0,0:0|0:0,0:0:0:0:
300,200,86650,2,0,P|232:192|216:204,1,70,2|0,0:0|0:0,0:0:0:0:
164,268,86983,5,10,0:0:0:0:
72,216,87150,1,0,0:0:0:0:
4,136,87317,2,0,P|92:116|156:148,1,140,0|0,0:0|0:0,0:0:0:0:
196,48,87817,1,2,0:0:0:0:
240,144,87983,1,0,0:0:0:0:
312,64,88150,1,8,0:0:0:0:
312,64,88233,1,8,0:0:0:0:
312,64,88317,1,12,0:0:0:0:
120,232,88983,5,2,0:0:0:0:
392,128,89650,1,2,0:0:0:0:
120,256,89983,1,0,0:0:0:0:
344,80,90317,1,2,0:0:0:0:
168,304,90650,1,0,0:0:0:0:
132,168,90983,5,0,0:0:0:0:
212,236,91150,1,0,0:0:0:0:
280,156,91317,1,0,0:0:0:0:
348,236,91483,1,0,0:0:0:0:
480,184,91650,2,0,P|444:152|432:124,1,70,2|0,0:0|0:0,0:0:0:0:
308,68,91983,2,0,P|344:96|355:125,1,70,2|0,0:0|0:0,0:0:0:0:
236,44,92317,5,10,0:0:0:0:
112,176,92567,2,0,L|160:192,1,35,8|0,0:0|0:0,0:0:0:0:
208,208,92817,1,0,0:0:0:0:
264,248,92983,1,0,0:0:0:0:
276,280,93067,1,0,0:0:0:0:
300,304,93150,1,0,0:0:0:0:
332,320,93233,2,0,P|368:312|376:296,1,35
360,228,93400,1,0,0:0:0:0:
384,200,93483,1,0,0:0:0:0:
392,164,93567,1,0,0:0:0:0:
380,128,93650,6,0,B|324:56|264:96|264:96|244:56|196:64,1,210.000008010865,14|0,0:0|0:0,0:0:0:0:
112,192,94317,2,0,B|168:264|228:224|228:224|248:264|296:256,1,210.000008010865,2|0,0:0|0:0,0:0:0:0:
36,64,94983,5,10,0:0:0:0:
424,192,95317,1,0,0:0:0:0:
112,192,95650,1,0,0:0:0:0:
476,64,95983,1,0,0:0:0:0:
120,280,96317,6,0,B|128:208|184:168|232:184|232:184|232:240|232:240,1,210.000008010865,10|0,0:0|0:0,0:0:0:0:
392,104,96983,2,0,B|384:176|328:216|280:200|280:200|280:144|280:144,1,210.000008010865,10|0,0:0|0:0,0:0:0:0:
72,192,97650,5,10,0:0:0:0:
256,292,97983,1,0,0:0:0:0:
440,192,98317,1,0,0:0:0:0:
256,92,98650,1,0,0:0:0:0:
236,300,98983,6,0,P|182:201|159:223,1,210.000008010865,14|0,0:0|0:0,0:0:0:0:
352,159,99650,2,0,P|263:173|276:83,1,210.000008010865,2|0,0:0|0:0,0:0:0:0:
184,276,100317,5,10,0:0:0:0:
328,108,100650,1,0,0:0:0:0:
159,224,100983,1,0,0:0:0:0:
276,83,101317,1,0,0:0:0:0:
92,184,101650,6,0,B|56:236|108:332|204:288,1,210.000008010865,14|2,0:0|0:0,0:0:0:0:
302,268,102150,1,0,0:0:0:0:
354,176,102317,2,0,L|442:252,1,105.000004005432,2|0,0:0|0:0,0:0:0:0:
381,336,102650,2,0,L|293:260,1,105.000004005432,2|0,0:0|0:0,0:0:0:0:
192,192,102983,5,2,0:0:0:0:
367,58,103150,1,2,0:0:0:0:
302,268,103317,1,2,0:0:0:0:
230,60,103483,1,2,0:0:0:0:
412,186,103650,1,2,0:0:0:0:
108,120,104150,5,0,0:0:0:0:
384,264,104317,2,0,L|272:200,1,105.000004005432,10|0,0:0|0:0,0:0:0:0:
360,144,104650,2,0,L|248:80,1,105.000004005432,2|2,0:0|0:0,0:0:0:0:
172,56,104983,1,0,0:0:0:0:
72,84,105150,1,2,0:0:0:0:
252,188,105316,1,0,0:0:0:0:
156,232,105483,6,0,L|264:300,1,105.000004005432,2|2,0:0|0:0,0:0:0:0:
340,332,105817,1,0,0:0:0:0:
328,228,105983,1,2,0:0:0:0:
424,272,106150,2,2,B|448:156|364:120|316:128,1,210.000008010865,2|0,0:0|0:0,0:0:0:0:
328,228,106650,2,0,P|280:220|232:188,1,105.000004005432,2|0,0:0|0:0,0:0:0:0:
216,84,106983,5,2,0:0:0:0:
88,304,107150,1,0,0:0:0:0:
12,232,107317,2,0,P|68:204|116:204,1,105.000004005432,2|2,0:0|0:0,0:0:0:0:
192,264,107650,1,0,0:0:0:0:
200,160,107817,1,2,0:0:0:0:
340,88,107983,2,0,P|398:102|430:158,1,105.000004005432,0|2,0:0|0:0,0:0:0:0:
344,272,108317,6,0,P|308:316|248:336,2,105.000004005432,2|0|2,0:0|0:0|0:0,0:0:0:0:
248,232,108817,2,0,L|288:124,1,105.000004005432,2|0,0:0|0:0,0:0:0:0:
388,108,109150,2,0,L|496:148,1,105.000004005432,2|0,0:0|0:0,0:0:0:0:
432,232,109483,6,0,B|408:288|408:288,2,52.5000020027161,2|2|0,0:0|0:0|0:0,0:0:0:0:
400,304,109983,1,2,0:0:0:0:
296,304,110150,2,0,L|236:304,1,52.5000020027161,2|0,0:0|0:0,0:0:0:0:
172,224,110484,1,2,0:0:0:0:
168,120,110650,1,0,0:0:0:0:
296,28,110817,1,2,0:0:0:0:
372,100,110983,6,2,L|414:142,1,52.5000020027161,2|0,0:0|0:0,0:0:0:0:
468,224,111317,1,2,0:0:0:0:
388,292,111483,1,2,0:0:0:0:
308,224,111650,2,0,L|268:272,1,52.5000020027161,0|2,0:0|0:0,0:0:0:0:
260,160,111983,2,0,L|300:112,1,52.5000020027161,0|2,0:0|0:0,0:0:0:0:
388,68,112317,5,2,0:0:0:0:
180,68,112650,1,2,0:0:0:0:
284,252,112983,1,2,0:0:0:0:
284,68,113317,1,2,0:0:0:0:
180,252,113650,5,2,0:0:0:0:
388,252,113983,1,0,0:0:0:0:
372,112,114150,1,2,0:0:0:0:
256,208,114317,1,2,0:0:0:0:
280,344,114483,1,2,0:0:0:0:
388,252,114650,1,10,0:0:0:0:
435,140,114983,6,0,L|363:108,1,70,12|0,0:0|0:0,0:0:0:0:
276,68,115317,1,0,0:0:0:0:
176,32,115483,1,0,0:0:0:0:
140,132,115650,2,0,L|212:164,1,70
300,200,115983,1,0,0:0:0:0:
396,240,116149,1,0,0:0:0:0:
360,340,116317,6,0,L|288:308,1,70,8|0,0:0|0:0,0:0:0:0:
200,272,116650,1,0,0:0:0:0:
104,232,116817,1,0,0:0:0:0:
80,128,116983,2,0,B|172:128,1,70,8|0,0:0|0:0,0:0:0:0:
256,128,117317,1,0,0:0:0:0:
360,128,117483,1,0,0:0:0:0:
360,232,117650,6,0,B|268:232,1,70,8|0,0:0|0:0,0:0:0:0:
184,232,117983,1,0,0:0:0:0:
124,316,118150,1,0,0:0:0:0:
96,216,118317,2,0,B|116:140,1,70
268,64,118650,1,0,0:0:0:0:
412,164,118817,1,0,0:0:0:0:
316,20,118983,5,8,0:0:0:0:
352,192,119150,2,0,B|315:227|260:205,1,70,0|0,0:0|0:0,0:0:0:0:
128,284,119483,2,0,B|139:332|197:344,1,70
344,308,119817,2,0,B|304:340|251:314,1,70,0|0,0:0|0:0,0:0:0:0:
168,188,120150,6,0,B|146:159|144:123|156:100,1,70,0|8,0:0|0:0,0:0:0:0:
256,128,120483,1,0,0:0:0:0:
328,52,120650,1,0,0:0:0:0:
364,152,120816,2,0,B|361:179|341:213|303:229,1,70
252,56,121150,1,0,0:0:0:0:
184,136,121317,1,0,0:0:0:0:
80,140,121483,6,0,B|80:168|96:204|132:224,1,70,0|8,0:0|0:0,0:0:0:0:
240,316,121817,1,0,0:0:0:0:
388,228,121983,1,0,0:0:0:0:
328,52,122150,2,0,B|300:52|228:80|244:160,1,140,8|0,0:0|0:0,0:0:0:0:
248,248,122651,1,0,0:0:0:0:
344,308,122817,6,0,L|428:308,1,70,0|8,0:0|0:0,0:0:0:0:
484,228,123150,1,0,0:0:0:0:
412,152,123318,1,8,0:0:0:0:
168,248,123483,2,0,L|168:132,2,105,8|0|8,0:0|0:0|0:0,0:0:0:0:
396,40,124151,1,10,0:0:0:0:
188,76,124484,5,0,0:0:0:0:
128,164,124651,1,0,0:0:0:0:
204,236,124818,1,2,0:0:0:0:
292,180,124984,1,2,0:0:0:0:
388,220,125151,1,2,0:0:0:0:
356,320,125318,1,2,0:0:0:0:
252,312,125484,5,0,0:0:0:0:
252,312,125568,1,0,0:0:0:0:
252,312,125650,2,0,P|206:295|204:272,1,52.5000020027161,12|0,0:0|0:0,0:0:0:0:
152,208,125983,6,0,P|142:160|160:146,1,52.5000020027161
260,56,126317,2,0,P|306:68|310:91,1,52.5000020027161
296,172,126650,2,0,P|344:176|356:156,1,52.5000020027161,0|0,0:0|0:0,0:0:0:0:
496,140,126983,6,0,P|500:188|480:200,1,52.5000020027161
460,284,127317,2,0,P|412:288|400:268,1,52.5000020027161,0|0,0:0|0:0,0:0:0:0:
320,236,127651,2,0,B|309:186|245:164|245:164,1,105.000004005432,0|0,0:0|0:0,0:0:0:0:
124,120,128151,1,0,0:0:0:0:
124,120,128234,1,0,0:0:0:0:
124,120,128317,2,0,P|120:168|140:180,1,52.5000020027161,12|0,0:0|0:0,0:0:0:0:
220,204,128650,6,0,P|216:156|236:144,1,52.5000020027161,0|2,0:0|0:0,0:0:0:0:
260,56,128983,2,0,B|271:106|335:128|335:128,1,105.000004005432,0|0,0:0|0:0,0:0:0:0:
408,220,129483,1,0,0:0:0:0:
336,296,129650,1,0,0:0:0:0:
160,260,129983,5,0,0:0:0:0:
83,203,130150,1,2,0:0:0:0:
112,114,130317,1,0,0:0:0:0:
207,114,130483,1,0,0:0:0:0:
236,203,130650,1,2,0:0:0:0:
60,76,130984,5,2,0:0:0:0:
264,32,131318,1,0,0:0:0:0:
460,104,131651,1,0,0:0:0:0:
500,204,131817,1,0,0:0:0:0:
416,264,131984,1,2,0:0:0:0:
332,204,132151,1,0,0:0:0:0:
356,100,132318,5,2,0:0:0:0:
256,132,132484,1,0,0:0:0:0:
168,72,132650,1,2,0:0:0:0:
76,124,132818,1,2,0:0:0:0:
112,220,132984,1,2,0:0:0:0:
216,220,133151,1,0,0:0:0:0:
292,292,133318,1,2,0:0:0:0:
84,320,133651,5,14,0:0:0:0:
292,292,133983,2,0,L|236:252,1,52.5000020027161,12|0,0:0|0:0,0:0:0:0:
256,64,134483,2,0,P|332:84|316:200,1,210.000008010865,0|14,0:0|0:0,0:0:0:0:
116,112,135151,5,2,0:0:0:0:
184,192,135317,1,2,0:0:0:0:
88,148,135484,1,2,0:0:0:0:
164,224,135651,1,2,0:0:0:0:
200,260,135734,1,0,0:0:0:0:
252,268,135817,1,2,0:0:0:0:
300,244,135900,1,0,0:0:0:0:
324,196,135984,1,10,0:0:0:0:
344,148,136067,1,0,0:0:0:0:
384,112,136151,1,0,0:0:0:0:
436,104,136234,1,0,0:0:0:0:
476,140,136317,6,0,P|488:192|424:236,1,105.000004005432,14|0,0:0|0:0,0:0:0:0:
360,268,136651,1,8,0:0:0:0:
272,212,136818,1,2,0:0:0:0:
360,268,136984,1,2,0:0:0:0:
264,152,137151,1,0,0:0:0:0:
360,268,137318,1,2,0:0:0:0:
276,92,137484,1,2,0:0:0:0:
360,268,137650,5,2,0:0:0:0:
320,44,137817,1,2,0:0:0:0:
438,177,137983,2,0,L|360:248,1,105.000004005432,0|2,0:0|0:0,0:0:0:0:
341,142,138317,2,0,L|420:72,1,105.000004005432
320,160,138650,2,0,L|240:232,1,105.000004005432,2|0,0:0|0:0,0:0:0:0:
236,112,138983,6,0,L|316:40,1,105.000004005432,10|0,0:0|0:0,0:0:0:0:
420,72,139317,1,0,0:0:0:0:
341,142,139484,1,2,0:0:0:0:
420,312,139817,1,2,0:0:0:0:
341,242,139984,1,2,0:0:0:0:
56,192,140317,5,2,0:0:0:0:
256,128,140650,1,2,0:0:0:0:
56,192,140983,1,2,0:0:0:0:
256,252,141317,1,2,0:0:0:0:
400,140,141650,6,0,P|380:192|416:236,1,105.000004005432,8|0,0:0|0:0,0:0:0:0:
308,336,141983,2,0,P|256:316|212:352,1,105.000004005432,8|0,0:0|0:0,0:0:0:0:
112,244,142317,6,0,P|132:192|96:148,1,105.000004005432,8|0,0:0|0:0,0:0:0:0:
204,48,142650,2,0,P|256:68|300:32,1,105.000004005432,8|0,0:0|0:0,0:0:0:0:
386,266,142983,6,0,B|385:255|394:317|394:317|340:312,1,105.000004005432,8|0,0:0|0:0,0:0:0:0:
180,322,143317,2,0,B|192:321|130:330|130:330|136:276,1,105.000004005432,8|0,0:0|0:0,0:0:0:0:
124,115,143650,6,0,B|126:128|117:66|117:66|172:72,1,105.000004005432,8|0,0:0|0:0,0:0:0:0:
331,60,143983,2,0,B|319:62|381:53|381:53|376:108,1,105.000004005432,8|0,0:0|0:0,0:0:0:0:
252,192,144317,5,0,0:0:0:0:
240,192,144400,1,0,0:0:0:0:
232,184,144484,1,0,0:0:0:0:
228,172,144567,1,0,0:0:0:0:
228,156,144650,1,0,0:0:0:0:
236,136,144734,1,0,0:0:0:0:
260,128,144817,1,0,0:0:0:0:
292,132,144900,1,0,0:0:0:0:
316,160,144983,5,0,0:0:0:0:
320,200,145066,1,0,0:0:0:0:
296,240,145150,1,0,0:0:0:0:
248,256,145233,1,0,0:0:0:0:
200,240,145316,1,0,0:0:0:0:
168,200,145400,1,0,0:0:0:0:
164,148,145483,1,0,0:0:0:0:
188,100,145566,1,0,0:0:0:0:
236,76,145650,1,4,0:0:0:0:
344,68,145817,6,0,P|388:108|408:184,1,105.000004005432,14|0,0:0|0:0,0:0:0:0:
372,304,146150,1,4,0:0:0:0:
256,192,146317,1,8,0:0:0:0:
408,236,146650,2,0,B|328:216|328:216|344:164|300:128,1,157.500006008148
256,96,146983,6,0,P|168:88|144:104,1,105.000004005432,14|0,0:0|0:0,0:0:0:0:
64,224,147317,1,2,0:0:0:0:
204,156,147484,1,0,0:0:0:0:
160,308,147650,1,2,0:0:0:0:
204,156,147817,1,0,0:0:0:0:
284,288,147983,2,0,P|276:216|308:176,1,105.000004005432,2|0,0:0|0:0,0:0:0:0:
428,112,148317,5,10,0:0:0:0:
356,244,148483,1,0,0:0:0:0:
304,92,148650,1,0,0:0:0:0:
360,248,148816,1,0,0:0:0:0:
192,244,148983,2,0,P|136:208|124:160,1,105.000004005432
260,92,149317,1,0,0:0:0:0:
416,96,149483,1,0,0:0:0:0:
356,244,149650,5,10,0:0:0:0:
208,192,149817,1,0,0:0:0:0:
60,240,149983,2,0,P|60:300|120:340,1,105.000004005432,2|0,0:0|0:0,0:0:0:0:
244,360,150317,1,2,0:0:0:0:
356,244,150483,1,0,0:0:0:0:
480,148,150650,1,2,0:0:0:0:
336,88,150817,1,0,0:0:0:0:
136,144,150983,6,0,P|83:187|69:248,1,105.000004005432,10|0,0:0|0:0,0:0:0:0:
271,165,151317,2,0,P|323:121|337:60,1,105.000004005432,0|0,0:0|0:0,0:0:0:0:
480,148,151650,1,0,0:0:0:0:
356,244,151817,1,0,0:0:0:0:
276,108,151983,2,0,B|200:104|184:20,1,105.000004005432,0|0,0:0|0:0,0:0:0:0:
104,184,152317,6,0,B|180:188|196:272,1,105.000004005432,10|0,0:0|0:0,0:0:0:0:
300,348,152650,2,0,B|224:344|208:260,1,105.000004005432,2|0,0:0|0:0,0:0:0:0:
320,172,152983,2,0,B|299:245|213:241,1,105.000004005432,2|0,0:0|0:0,0:0:0:0:
108,316,153317,1,2,0:0:0:0:
44,172,153483,1,0,0:0:0:0:
156,60,153650,5,10,0:0:0:0:
252,184,153817,1,0,0:0:0:0:
460,148,153983,2,0,B|448:84|388:52,1,105.000004005432,0|0,0:0|0:0,0:0:0:0:
244,60,154317,1,0,0:0:0:0:
96,112,154483,1,0,0:0:0:0:
100,268,154650,1,0,0:0:0:0:
244,336,154817,1,0,0:0:0:0:
384,268,154983,6,0,P|442:291|483:275,1,105.000004005432,10|0,0:0|0:0,0:0:0:0:
384,268,155317,2,0,P|448:264|477:232,1,105.000004005432,2|0,0:0|0:0,0:0:0:0:
384,268,155650,2,0,P|440:237|454:196,1,105.000004005432,2|0,0:0|0:0,0:0:0:0:
384,268,155983,2,0,P|422:217|417:174,1,105.000004005432,2|0,0:0|0:0,0:0:0:0:
256,96,156317,5,2,0:0:0:0:
384,268,156650,1,2,0:0:0:0:
260,100,156983,1,2,0:0:0:0:
73,317,157317,2,0,P|105:281|109:249,1,70,2|0,0:0|0:0,0:0:0:0:
52,204,157650,6,0,B|128:144|148:228|212:164,1,140,14|0,0:0|0:0,0:0:0:0:
284,216,157983,1,2,0:0:0:0:
359,141,158149,1,0,0:0:0:0:
433,216,158316,1,2,0:0:0:0:
359,290,158483,1,0,0:0:0:0:
236,121,158650,2,0,P|188:133|156:173,1,70,2|0,0:0|0:0,0:0:0:0:
96,328,158983,6,0,P|144:316|176:276,1,70,2|0,0:0|0:0,0:0:0:0:
173,146,159316,1,0,0:0:0:0:
313,223,159483,1,0,0:0:0:0:
212,88,159650,1,0,0:0:0:0:
249,254,159817,1,0,0:0:0:0:
324,116,159983,2,0,P|384:104|420:112,1,70
488,224,160316,6,0,L|404:224,1,70,2|0,0:0|0:0,0:0:0:0:
92,192,160650,1,2,0:0:0:0:
236,268,160816,1,0,0:0:0:0:
144,136,160983,1,2,0:0:0:0:
168,296,161149,1,0,0:0:0:0:
216,140,161317,1,2,0:0:0:0:
96,268,161483,1,0,0:0:0:0:
256,200,161650,6,0,B|279:175|321:181|321:181|344:180|344:180,1,70,2|0,0:0|0:0,0:0:0:0:
452,224,161983,1,0,0:0:0:0:
381,302,162150,1,0,0:0:0:0:
280,328,162317,1,0,0:0:0:0:
176,304,162484,1,0,0:0:0:0:
168,136,162650,2,0,P|217:88|238:83,1,70
344,136,162984,6,0,P|410:149|422:164,1,70,2|0,0:0|0:0,0:0:0:0:
256,332,163317,1,2,0:0:0:0:
256,200,163483,1,0,0:0:0:0:
377,262,163650,1,2,0:0:0:0:
262,196,163816,1,0,0:0:0:0:
377,122,163983,1,2,0:0:0:0:
262,188,164149,1,0,0:0:0:0:
256,52,164316,5,2,0:0:0:0:
256,184,164482,1,0,0:0:0:0:
134,121,164650,1,0,0:0:0:0:
249,188,164816,1,0,0:0:0:0:
134,262,164983,1,0,0:0:0:0:
249,196,165149,1,0,0:0:0:0:
256,332,165317,1,0,0:0:0:0:
256,200,165483,1,0,0:0:0:0:
476,148,165650,6,0,P|452:173|420:186,1,70,2|0,0:0|0:0,0:0:0:0:
321,87,165983,2,0,P|334:55|360:32,1,70,2|0,0:0|0:0,0:0:0:0:
352,187,166317,6,0,P|328:213|296:226,1,70,2|0,0:0|0:0,0:0:0:0:
173,219,166650,2,0,P|186:187|212:163,1,70,2|0,0:0|0:0,0:0:0:0:
244,300,166983,6,0,P|288:336|316:340,1,70,2|0,0:0|0:0,0:0:0:0:
375,264,167317,2,0,P|409:253|443:258,1,70,0|0,0:0|0:0,0:0:0:0:
464,156,167650,6,0,P|428:112|424:83,1,70
324,124,167983,2,0,P|303:176|281:194,1,70
384,184,168317,5,2,0:0:0:0:
320,188,168983,1,2,0:0:0:0:
256,192,169650,5,2,0:0:0:0:
76,192,169983,1,0,0:0:0:0:
256,12,170317,1,2,0:0:0:0:
436,192,170650,1,2,0:0:0:0:
256,192,170983,12,2,173317,0:0:0:0:
240,192,173650,5,2,2:2:0:0:
413,75,173983,1,2,2:2:0:0:
347,275,174317,1,2,2:2:0:0:
284,76,174650,1,2,2:2:0:0:
450,201,174983,1,2,2:2:0:0:
376,296,176317,5,10,0:0:0:0:
272,192,177650,5,2,2:2:0:0:
99,309,177983,1,2,2:2:0:0:
165,109,178317,1,2,2:2:0:0:
228,308,178650,1,4,2:2:0:0:
62,183,178983,1,4,2:2:0:0:
336,336,179650,1,0,0:0:0:0:
460,240,179983,1,0,0:0:0:0:
408,108,180317,6,0,P|372:136|352:136,1,52.5000020027161,8|0,0:0|0:0,0:0:0:0:
300,160,180650,1,0,0:0:0:0:
232,176,180817,1,8,0:0:0:0:
200,192,180900,1,8,0:0:0:0:
196,228,180983,1,8,0:0:0:0:
204,296,181150,2,0,P|240:324|276:316,1,70
356,200,181650,6,0,B|312:188|312:188|316:140|284:128,1,105.000004005432,14|0,0:0|0:0,0:0:0:0:
148,76,182317,2,0,B|88:60|88:60|76:96|36:92,1,105.000004005432,2|2,0:0|0:0,0:0:0:0:
104,156,182817,1,0,0:0:0:0:
136,228,182983,2,0,B|128:264|128:264|152:304|200:300,1,105.000004005432,10|0,0:0|0:0,0:0:0:0:
316,216,183650,2,0,B|364:188|364:168|364:168|408:152|408:152,1,105.000004005432
240,128,184317,6,0,B|179:150|179:150|121:133|125:158,1,105.000004005432,10|2,0:0|0:0,0:0:0:0:
284,208,184983,2,0,B|232:232|232:232|224:272|247:282|247:282,1,105.000004005432,10|2,0:0|0:0,0:0:0:0:
320,284,185483,1,0,0:0:0:0:
364,220,185650,2,0,B|412:188|412:188|448:172|476:172,1,105.000004005432,10|0,0:0|0:0,0:0:0:0:
452,284,186317,2,0,P|390:323|341:329,1,105.000004005432,0|0,3:0|3:0,3:0:0:0:
216,284,186983,6,0,L|104:228,1,105.000004005432,10|2,0:0|0:0,0:0:0:0:
96,136,187650,2,0,L|208:192,1,105.000004005432,2|2,0:0|0:0,0:0:0:0:
220,256,188150,1,0,0:0:0:0:
296,284,188317,2,0,L|408:228,1,105.000004005432,10|0,0:0|0:0,0:0:0:0:
416,136,188984,2,0,L|304:192,1,105.000004005432
228,44,189650,5,2,0:0:0:0:
132,88,189983,1,10,0:0:0:0:
112,192,190317,1,10,0:0:0:0:
148,232,190483,1,0,0:0:0:0:
200,224,190650,1,2,0:0:0:0:
252,232,190817,1,0,0:0:0:0:
296,264,190983,1,10,0:0:0:0:
400,260,191317,5,0,0:0:0:0:
472,184,191650,1,0,0:0:0:0:
444,140,191817,1,0,0:0:0:0:
392,136,191983,1,0,0:0:0:0:
292,172,192317,1,14,0:0:0:0:
84,148,192650,6,0,L|132:168,2,52.5000020027161,2|2|0,0:0|0:0|0:0,0:0:0:0:
292,132,193317,2,0,L|333:100,2,52.5000020027161,0|2|2,0:0|0:0|0:0,0:0:0:0:
448,272,193983,2,0,L|396:266,2,52.5000020027161
240,228,194650,6,0,L|207:187,2,52.5000020027161,0|0|2,0:0|0:0|0:0,0:0:0:0:
428,132,195317,2,0,L|387:164,2,52.5000020027161,2|2|0,0:0|0:0|0:0,0:0:0:0:
264,260,195983,2,0,L|304:227,2,52.5000020027161,0|0|2,0:0|0:0|0:0,0:0:0:0:
56,280,196650,6,0,L|18:315,2,52.5000020027161
256,212,197317,1,0,0:0:0:0:
164,160,197483,1,0,0:0:0:0:
252,104,197650,1,2,0:0:0:0:
388,264,197983,2,0,L|436:284,2,52.5000020027161,2|2|0,0:0|0:0|0:0,0:0:0:0:
204,164,198650,6,0,L|152:165,2,52.5000020027161,0|0|2,0:0|0:0|0:0,0:0:0:0:
412,124,199317,1,2,0:0:0:0:
356,212,199483,1,2,0:0:0:0:
296,124,199650,1,2,0:0:0:0:
480,228,199983,2,0,L|509:270,2,52.5000020027161,2|2|2,0:0|0:0|0:0,0:0:0:0:
272,212,200650,5,2,0:0:0:0:
192,280,200817,1,2,0:0:0:0:
172,176,200983,1,2,0:0:0:0:
272,212,201150,1,2,0:0:0:0:
192,72,201650,5,2,0:0:0:0:
212,88,201983,1,2,0:0:0:0:
232,104,202317,1,2,0:0:0:0:
248,116,202651,1,2,0:0:0:0:
416,240,202983,5,2,0:0:0:0:
420,188,203149,1,0,0:0:0:0:
388,148,203316,1,0,0:0:0:0:
336,152,203483,1,2,0:0:0:0:
288,208,203650,5,0,0:0:0:0:
260,252,203816,1,0,0:0:0:0:
220,284,203983,1,2,0:0:0:0:
168,284,204150,1,0,0:0:0:0:
120,228,204317,5,2,0:0:0:0:
132,176,204483,1,0,0:0:0:0:
168,140,204650,1,0,0:0:0:0:
216,120,204817,1,2,0:0:0:0:
272,168,204984,5,0,0:0:0:0:
288,216,205150,1,0,0:0:0:0:
324,256,205317,1,2,0:0:0:0:
376,268,205484,1,0,0:0:0:0:
216,120,205650,5,2,0:0:0:0:
108,300,205983,1,2,0:0:0:0:
12,256,206150,1,2,0:0:0:0:
144,92,206483,1,0,0:0:0:0:
240,48,206650,1,2,0:0:0:0:
288,144,206817,1,2,0:0:0:0:
196,192,206983,1,2,0:0:0:0:
396,116,207317,5,2,0:0:0:0:
400,220,207483,1,2,0:0:0:0:
432,128,207650,1,0,0:0:0:0:
476,32,207817,1,0,0:0:0:0:
468,136,207983,1,2,0:0:0:0:
272,248,208317,5,0,0:0:0:0:
199,177,208483,1,0,0:0:0:0:
296,150,208650,1,0,0:0:0:0:
272,248,208817,1,0,0:0:0:0:
175,147,208983,5,0,0:0:0:0:
332,145,209149,1,0,0:0:0:0:
257,282,209316,1,0,0:0:0:0:
175,147,209483,1,0,0:0:0:0:
368,159,209650,5,0,0:0:0:0:
227,306,209816,1,0,0:0:0:0:
170,109,209983,1,0,0:0:0:0:
368,159,210150,1,0,0:0:0:0:
181,325,210317,5,0,0:0:0:0:
176,59,210483,1,0,0:0:0:0:
408,188,210650,1,0,0:0:0:0:
181,325,210817,1,0,0:0:0:0:
204,12,210983,5,2,0:0:0:0:
408,188,211317,2,0,P|420:244|380:260,1,105.000004005432,2|2,0:0|0:0,0:0:0:0:
181,325,211817,1,10,0:0:0:0:
176,59,212150,1,10,0:0:0:0:
484,112,212483,2,0,P|428:144|348:152,1,105.000004005432,8|0,0:0|0:0,0:0:0:0:
84,212,212983,1,4,0:0:0:0:
272,296,213317,2,0,B|264:236|164:268|152:200|152:200|168:176,1,157.500006008148
132,132,213650,6,0,P|168:76|228:76,1,105.000004005432,10|0,0:0|0:0,0:0:0:0:
348,152,213983,1,2,0:0:0:0:
488,244,214150,1,0,0:0:0:0:
324,216,214317,1,2,0:0:0:0:
488,176,214484,1,0,0:0:0:0:
356,276,214650,1,2,0:0:0:0:
440,128,214817,1,0,0:0:0:0:
284,292,214983,6,0,B|232:328|184:320,1,105.000004005432,10|0,0:0|0:0,0:0:0:0:
92,192,215317,1,0,0:0:0:0:
185,320,215483,1,0,0:0:0:0:
146,149,215650,1,0,0:0:0:0:
236,276,215816,1,0,0:0:0:0:
200,107,215983,1,0,0:0:0:0:
290,234,216150,1,0,0:0:0:0:
428,156,216317,6,0,B|390:101|312:114,1,105.000004005432,10|0,0:0|0:0,0:0:0:0:
180,108,216650,1,2,0:0:0:0:
337,112,216817,1,0,0:0:0:0:
192,176,216983,1,2,0:0:0:0:
300,60,217150,1,0,0:0:0:0:
252,212,217317,1,2,0:0:0:0:
236,56,217484,1,0,0:0:0:0:
316,248,217650,5,10,0:0:0:0:
472,248,217817,1,0,0:0:0:0:
341,166,217983,2,0,P|275:186|240:239,1,105.000004005432,0|0,0:0|0:0,0:0:0:0:
112,284,218317,2,0,P|180:282|229:243,1,105.000004005432
428,296,218650,1,0,0:0:0:0:
324,332,218817,1,0,0:0:0:0:
220,312,218983,6,0,B|144:308|128:224,1,105.000004005432,10|0,0:0|0:0,0:0:0:0:
116,100,219317,2,0,B|192:104|208:188,1,105.000004005432,2|0,0:0|0:0,0:0:0:0:
308,268,219650,2,0,B|384:264|400:180,1,105.000004005432,2|0,0:0|0:0,0:0:0:0:
452,68,219983,1,2,0:0:0:0:
300,32,220150,1,0,0:0:0:0:
312,188,220317,5,10,0:0:0:0:
172,120,220483,1,0,0:0:0:0:
184,274,220650,1,0,0:0:0:0:
36,220,220817,1,0,0:0:0:0:
184,274,220983,2,0,B|225:324|293:325,1,105.000004005432
432,304,221317,1,0,0:0:0:0:
284,252,221483,1,0,0:0:0:0:
440,232,221650,5,10,0:0:0:0:
292,180,221817,1,0,0:0:0:0:
444,160,221983,2,0,P|476:106|466:64,1,105.000004005432,2|0,0:0|0:0,0:0:0:0:
444,160,222317,2,0,P|457:97|433:61,1,105.000004005432,2|0,0:0|0:0,0:0:0:0:
444,160,222650,2,0,P|429:98|393:74,1,105.000004005432,2|0,0:0|0:0,0:0:0:0:
444,160,222983,5,2,0:0:0:0:
208,96,223317,1,2,0:0:0:0:
48,228,223650,1,2,0:0:0:0:
208,96,223983,1,2,0:0:0:0:
420,92,224317,6,0,P|409:124|383:148,1,70,10|0,0:0|0:0,0:0:0:0:
440,196,224650,2,0,B|364:256|352:172|280:236,1,140,2|0,0:0|0:0,0:0:0:0:
168,288,224983,1,2,0:0:0:0:
52,184,225149,1,0,0:0:0:0:
204,224,225316,1,2,0:0:0:0:
48,256,225483,1,0,0:0:0:0:
172,160,225650,6,0,P|231:160|265:186,1,105.000004005432,10|0,0:0|0:0,0:0:0:0:
300,344,225983,2,0,P|359:332|387:300,1,105.000004005432,0|0,0:0|0:0,0:0:0:0:
440,152,226316,1,0,0:0:0:0:
296,216,226483,1,0,0:0:0:0:
452,220,226650,1,0,0:0:0:0:
312,148,226817,1,0,0:0:0:0:
172,160,226984,6,0,L|232:220,1,70,10|0,0:0|0:0,0:0:0:0:
360,104,227317,2,0,L|300:44,1,70,2|0,0:0|0:0,0:0:0:0:
360,224,227650,2,0,L|420:284,1,70,2|0,0:0|0:0,0:0:0:0:
284,148,227984,2,0,L|224:88,1,70,2|0,0:0|0:0,0:0:0:0:
468,272,228317,6,0,B|438:291|400:276|400:276|377:270|377:270,1,70,10|0,0:0|0:0,0:0:0:0:
392,136,228650,2,0,B|423:117|460:132|460:132|484:138|484:138,1,70,0|0,0:0|0:0,0:0:0:0:
336,60,228984,2,0,B|302:74|293:113|293:113|283:136|283:136,1,70
152,128,229317,2,0,B|182:108|220:124|220:124|243:129|243:129,1,70,0|0,0:0|0:0,0:0:0:0:
272,248,229650,6,0,B|253:218|268:180|268:180|274:157|274:157,1,70,10|0,0:0|0:0,0:0:0:0:
404,212,229984,1,2,0:0:0:0:
328,96,230150,1,0,0:0:0:0:
336,236,230317,1,2,0:0:0:0:
400,112,230484,1,0,0:0:0:0:
280,184,230650,1,2,0:0:0:0:
160,256,230817,1,0,0:0:0:0:
228,132,230984,5,10,0:0:0:0:
228,272,231150,1,0,0:0:0:0:
156,152,231317,1,0,0:0:0:0:
52,60,231484,1,0,0:0:0:0:
92,192,231650,1,0,0:0:0:0:
124,56,231817,1,0,0:0:0:0:
28,160,231984,1,0,0:0:0:0:
44,300,232150,1,0,0:0:0:0:
228,272,232317,6,0,L|300:304,1,70,10|0,0:0|0:0,0:0:0:0:
452,200,232650,2,0,P|416:232|380:248,1,70,2|0,0:0|0:0,0:0:0:0:
364,144,232983,2,0,L|292:112,1,70,10|0,0:0|0:0,0:0:0:0:
200,144,233317,2,0,P|217:174|241:199,1,70,2|0,0:0|0:0,0:0:0:0:
440,124,233650,5,10,0:0:0:0:
420,228,233817,1,0,0:0:0:0:
340,160,233983,2,0,L|277:132,1,70,0|8,0:0|0:0,0:0:0:0:
184,84,234317,1,0,0:0:0:0:
104,152,234483,1,0,0:0:0:0:
136,252,234650,1,2,0:0:0:0:
216,320,234817,1,0,0:0:0:0:
248,328,234900,1,0,0:0:0:0:
280,316,234983,1,2,0:0:0:0:
368,260,235150,5,0,0:0:0:0:
248,132,235317,1,2,0:0:0:0:
416,88,235483,1,0,0:0:0:0:
308,228,235650,1,2,0:0:0:0:
256,60,235817,1,0,0:0:0:0:
396,160,235983,2,0,B|348:176|320:152|320:152,1,70,2|0,0:0|0:0,0:0:0:0:
76,84,236317,5,8,0:0:0:0:
436,296,236650,1,8,0:0:0:0:
88,156,236983,1,0,0:0:0:0:
112,148,237067,1,0,0:0:0:0:
128,128,237150,1,0,0:0:0:0:
144,108,237233,1,0,0:0:0:0:
168,100,237317,1,0,0:0:0:0:
192,96,237400,1,0,0:0:0:0:
220,96,237483,1,0,0:0:0:0:
244,108,237567,1,0,0:0:0:0:
256,128,237650,6,0,L|184:212,1,105.000004005432,14|0,0:0|0:0,0:0:0:0:
292,188,237983,1,2,0:0:0:0:
224,268,238150,1,0,0:0:0:0:
360,208,238317,2,0,L|288:292,1,105.000004005432,2|0,0:0|0:0,0:0:0:0:
396,272,238650,1,2,0:0:0:0:
328,352,238817,1,0,0:0:0:0:
216,328,238983,6,0,L|288:244,1,105.000004005432,10|0,0:0|0:0,0:0:0:0:
180,268,239317,1,0,0:0:0:0:
248,188,239484,1,0,0:0:0:0:
112,248,239650,2,0,L|184:164,1,105.000004005432,0|0,0:0|0:0,0:0:0:0:
76,188,239983,1,0,0:0:0:0:
144,108,240150,1,0,0:0:0:0:
256,48,240317,6,0,L|148:48,1,105.000004005432,10|0,0:0|0:0,0:0:0:0:
256,116,240650,2,0,L|364:116,1,105.000004005432,2|0,0:0|0:0,0:0:0:0:
256,184,240983,2,0,L|148:184,1,105.000004005432,2|0,0:0|0:0,0:0:0:0:
256,252,241317,2,0,L|364:252,1,105.000004005432,2|0,0:0|0:0,0:0:0:0:
256,320,241650,6,0,L|148:320,1,105.000004005432,10|0,0:0|0:0,0:0:0:0:
384,192,241983,2,0,L|384:300,1,105.000004005432
256,64,242317,2,0,L|364:64,1,105.000004005432,0|0,0:0|0:0,0:0:0:0:
128,192,242650,2,0,L|128:84,1,105.000004005432
256,192,242983,6,0,P|176:160|116:172,1,105.000004005432,10|0,0:0|0:0,0:0:0:0:
256,192,243317,2,0,P|224:272|236:332,1,105.000004005432,2|0,0:0|0:0,0:0:0:0:
256,192,243650,2,0,P|336:224|396:212,1,105.000004005432,2|0,0:0|0:0,0:0:0:0:
256,192,243983,2,0,P|288:112|276:52,1,105.000004005432,2|0,0:0|0:0,0:0:0:0:
412,228,244317,6,0,P|392:296|328:332,1,105.000004005432,10|0,0:0|0:0,0:0:0:0:
100,156,244650,2,0,P|120:88|184:52,1,105.000004005432
220,348,244983,2,0,P|152:328|116:264,1,105.000004005432,0|0,0:0|0:0,0:0:0:0:
292,36,245317,2,0,P|360:56|396:120,1,105.000004005432
180,324,245650,6,0,B|184:262|122:302|123:245|123:245,1,105.000004005432,10|0,0:0|0:0,0:0:0:0:
332,60,245983,2,0,B|327:121|389:81|388:138|388:138,1,105.000004005432,2|0,0:0|0:0,0:0:0:0:
124,116,246317,2,0,B|185:120|145:58|202:59|202:59,1,105.000004005432,2|0,0:0|0:0,0:0:0:0:
388,268,246650,2,0,B|326:263|366:325|309:324|309:324,1,105.000004005432,2|0,0:0|0:0,0:0:0:0:
68,300,246983,6,0,L|36:156,1,105.000004005432,2|0,0:0|0:0,0:0:0:0:
180,320,247317,2,0,L|172:180,1,105.000004005432,2|0,0:0|0:0,0:0:0:0:
332,320,247650,2,0,L|344:176,1,105.000004005432,2|0,0:0|0:0,0:0:0:0:
444,300,247983,2,0,L|472:160,1,105.000004005432,2|0,0:0|0:0,0:0:0:0:
321,135,248317,5,10,0:0:0:0:
222,272,248483,1,0,0:0:0:0:
248,105,248650,1,2,0:0:0:0:
297,267,248817,1,0,0:0:0:0:
184,142,248983,1,2,0:0:0:0:
340,207,249150,1,0,0:0:0:0:
172,216,249317,1,2,0:0:0:0:
353,107,249483,1,0,0:0:0:0:
206,311,249650,5,10,0:0:0:0:
244,61,249817,1,0,0:0:0:0:
318,305,249983,1,0,0:0:0:0:
148,118,250150,1,0,0:0:0:0:
383,214,250317,1,0,0:0:0:0:
131,229,250483,1,0,0:0:0:0:
344,64,250650,2,0,L|440:180,1,105.000004005432,0|0,0:0|0:0,0:0:0:0:
168,318,250983,6,0,L|72:202,1,105.000004005432,10|0,0:0|0:0,0:0:0:0:
384,280,251317,2,0,L|268:376,1,105.000004005432,2|0,0:0|0:0,0:0:0:0:
128,104,251650,2,0,L|244:8,1,105.000004005432,2|0,0:0|0:0,0:0:0:0:
448,96,251983,2,0,L|470:198,1,105.000004005432,2|0,0:0|0:0,0:0:0:0:
336,76,252317,6,0,L|344:180,1,105.000004005432,10|0,0:0|0:0,0:0:0:0:
184,76,252650,2,0,L|175:180,1,105.000004005432
72,96,252983,2,0,L|49:198,1,105.000004005432,0|0,0:0|0:0,0:0:0:0:
227,288,253317,1,0,0:0:0:0:
387,150,253483,1,0,0:0:0:0:
198,246,253650,5,10,0:0:0:0:
361,108,253817,1,0,0:0:0:0:
169,201,253983,1,2,0:0:0:0:
332,64,254150,1,0,0:0:0:0:
284,288,254317,1,2,0:0:0:0:
124,150,254483,1,0,0:0:0:0:
313,246,254650,1,2,0:0:0:0:
150,108,254817,1,0,0:0:0:0:
342,201,254983,5,10,0:0:0:0:
179,64,255150,1,0,0:0:0:0:
392,140,255317,2,0,B|320:100|268:168,2,105.000004005432,0|0|0,0:0|0:0|0:0,0:0:0:0:
484,192,255817,1,0,0:0:0:0:
396,248,255983,1,0,0:0:0:0:
304,300,256150,1,0,0:0:0:0:
200,300,256317,6,0,P|144:268|128:224,1,105.000004005432,10|0,0:0|0:0,0:0:0:0:
160,132,256650,2,0,P|216:164|232:208,1,105.000004005432,2|0,0:0|0:0,0:0:0:0:
308,272,256983,2,0,P|336:229|334:177,1,105.000004005432,10|0,0:0|0:0,0:0:0:0:
292,80,257317,2,0,P|355:71|395:97,1,105.000004005432,2|0,0:0|0:0,0:0:0:0:
334,177,257650,6,0,P|270:186|230:161,1,105.000004005432,10|0,0:0|0:0,0:0:0:0:
160,96,257983,1,0,0:0:0:0:
60,132,258150,1,8,0:0:0:0:
52,236,258317,1,0,0:0:0:0:
136,296,258483,1,0,0:0:0:0:
240,272,258650,1,0,0:0:0:0:
160,196,258817,1,0,0:0:0:0:
160,196,258900,1,0,0:0:0:0:
160,196,258983,6,0,B|212:176|212:176|280:124,1,140,6|0,0:0|0:0,0:0:0:0:
384,152,259650,2,0,P|272:248|272:248,1,140
416,232,260317,5,10,0:0:0:0:
372,100,260650,1,8,0:0:0:0:
292,264,260983,1,10,0:0:0:0:
220,68,261317,1,8,0:0:0:0:
56,276,261650,1,12,0:0:0:0:
256,192,261733,12,2,262650,0:0:0:0:
424,304,262983,5,8,0:0:0:0:
368,216,263233,2,0,L|416:232,1,35
412,156,263483,1,0,0:0:0:0:
364,104,263649,1,0,0:0:0:0:
332,120,263733,1,0,0:0:0:0:
296,124,263816,1,0,0:0:0:0:
260,128,263900,2,0,P|232:128|208:104,1,35
180,192,264067,1,0,0:0:0:0:
212,208,264151,1,0,0:0:0:0:
248,212,264234,1,0,0:0:0:0:
284,208,264317,5,14,0:0:0:0:
460,132,264649,2,0,B|450:174|366:207|366:207|366:256|321:283,1,210.000008010865,2|2,0:0|0:0,0:0:0:0:
120,324,265316,1,2,0:0:0:0:
224,144,265649,1,10,0:0:0:0:
344,316,265983,1,0,0:0:0:0:
292,112,266316,1,0,0:0:0:0:
148,264,266649,1,0,0:0:0:0:
343,122,266983,6,0,P|409:183|331:227,1,210.000008010865,10|2,0:0|0:0,0:0:0:0:
168,122,267650,2,0,P|102:183|180:227,1,210.000008010865,10|2,0:0|0:0,0:0:0:0:
348,164,268316,1,10,0:0:0:0:
140,141,268649,1,0,0:0:0:0:
320,248,268983,2,0,B|264:216|264:156,2,105.000004005432,0|0|0,0:0|0:0|0:0,0:0:0:0:
424,64,269650,5,10,0:0:0:0:
344,260,269983,1,2,0:0:0:0:
192,112,270316,1,2,0:0:0:0:
72,284,270649,1,2,0:0:0:0:
104,76,270983,5,10,0:0:0:0:
172,276,271316,1,0,0:0:0:0:
244,80,271649,1,0,0:0:0:0:
276,308,271983,1,0,0:0:0:0:
364,120,272316,6,0,B|324:172|324:172|468:216|336:272,1,210.000008010865,10|2,0:0|0:0,0:0:0:0:
276,308,272817,1,0,0:0:0:0:
172,332,272984,2,0,L|92:263,1,105.000004005432,2|0,0:0|0:0,0:0:0:0:
196,239,273317,2,0,L|275:307,1,105.000004005432,2|0,0:0|0:0,0:0:0:0:
332,192,273649,5,2,0:0:0:0:
88,248,273983,5,2,0:0:0:0:
248,52,274316,5,2,0:0:0:0:
244,304,274650,5,2,0:0:0:0:
96,100,274983,6,0,B|196:108|264:132|332:188,1,251.999992309571,2|2,0:0|0:0,0:0:0:0:
168,176,277317,6,0,L|128:208,2,41.9999987182618,2|2|2,0:0|0:0|0:0,0:0:0:0:
240,280,277982,1,2,0:0:0:0:
344,208,278316,1,2,0:0:0:0:
272,104,278649,1,2,0:0:0:0:
436,84,280317,6,0,P|396:72|356:84,1,83.9999974365235,2|2,0:0|0:0,0:0:0:0:
296,184,280983,2,0,P|256:195|216:183,1,83.9999974365235,2|2,0:0|0:0,0:0:0:0:
124,112,281650,6,0,L|160:108,1,20.9999993591309,2|2,0:0|0:0,0:0:0:0:
124,112,282150,1,2,0:0:0:0:
308,92,282650,1,2,0:0:0:0:
416,140,282983,5,2,0:0:0:0:
416,244,283317,1,0,0:0:0:0:
308,292,283650,1,2,0:0:0:0:
120,152,284317,6,0,L|144:140,1,20.9999993591309,2|2,0:0|0:0,0:0:0:0:
152,136,284983,1,2,0:0:0:0:
372,224,285649,5,2,0:0:0:0:
256,224,285982,1,0,0:0:0:0:
140,160,286317,1,0,0:0:0:0:
256,160,286650,1,2,0:0:0:0:
344,208,287983,6,0,L|384:176,2,41.9999987182618,0|0|2,0:0|0:0|0:0,0:0:0:0:
272,104,288649,1,0,0:0:0:0:
168,176,288983,1,0,0:0:0:0:
240,280,289329,1,2,0:0:0:0:
164,280,291143,5,2,0:0:0:0:
228,172,291543,2,0,B|268:148|336:132,1,105
468,184,292293,1,0,0:0:0:0:
120,72,292743,6,0,P|77:125|86:192,1,140,2|0,0:0|0:0,0:0:0:0:
412,324,293600,1,2,0:0:0:0:
376,72,294778,2,0,L|352:100,2,35,2|2|2,0:0|0:0|0:0,0:0:0:0:
256,192,295207,12,0,300243,0:0:0:0:
256,192,300350,12,0,303243,0:0:0:0:
