osu file format v14

[General]
AudioFilename: audio.mp3
AudioLeadIn: 0
PreviewTime: -1
Countdown: 1
SampleSet: Normal
StackLeniency: 0.7
Mode: 0
LetterboxInBreaks: 0
WidescreenStoryboard: 0

[Editor]
DistanceSpacing: 0.5
BeatDivisor: 4
GridSize: 8
TimelineZoom: 2.7

[Metadata]
Title:Signalize! (TV-size)
TitleUnicode:Signalize! (TV-size)
Artist:Waka, Fuuri, Sunao, Risuko from STARANIS
ArtistUnicode:Waka, Fuuri, Sunao, Risuko from STAR☆ANIS
Creator:Slyty98
Version:Hard
Source:Aikatsu
Tags:Aikatsu
BeatmapID:1419916
BeatmapSetID:671575

[Difficulty]
HPDrainRate:5
CircleSize:5
OverallDifficulty:5
ApproachRate:5
SliderMultiplier:1.4
SliderTickRate:1

[Events]
//Background and Video events
Video,-900,"h0aj6-4loda.avi"
0,0,"CxeQS_NVQAAen9V.jpg",0,0
//Break Periods
2,2122,15609
//Storyboard Layer 0 (Background)
//Storyboard Layer 1 (Fail)
//Storyboard Layer 2 (Pass)
//Storyboard Layer 3 (Foreground)
//Storyboard Sound Samples

[TimingPoints]
16809,451.127819548872,4,1,0,100,1,0
62185,-100,4,1,0,100,0,1
66997,-100,4,1,0,100,0,0

[Colours]
Combo1 : 128,0,255
Combo2 : 0,202,0
Combo3 : 18,124,255
Combo4 : 242,24,57
Combo5 : 255,192,0

[HitObjects]
256,56,568,5,0,0:0:0:0:
256,56,681,1,0,0:0:0:0:
256,128,906,1,0,0:0:0:0:
256,128,1019,1,0,0:0:0:0:
256,200,1245,1,0,0:0:0:0:
256,200,1358,1,0,0:0:0:0:
256,272,1583,1,0,0:0:0:0:
256,272,1696,1,0,0:0:0:0:
256,344,1922,5,0,0:0:0:0:
192,144,16809,5,0,0:0:0:0:
248,184,17260,1,0,0:0:0:0:
192,232,17711,1,0,0:0:0:0:
208,264,17936,6,0,P|248:312|272:320,1,70
288,328,18387,1,0,0:0:0:0:
320,320,18613,1,0,0:0:0:0:
344,296,19064,6,0,P|376:256|368:216,2,70
296,240,19966,1,0,0:0:0:0:
272,304,20418,1,0,0:0:0:0:
240,304,20643,1,0,0:0:0:0:
208,288,20869,6,0,P|160:248|192:184,1,140
224,184,21545,2,0,P|272:192|288:152,2,70
200,160,22448,2,0,P|160:120|128:136,2,70
208,192,23124,1,0,0:0:0:0:
216,208,23350,1,0,0:0:0:0:
224,224,23575,1,0,0:0:0:0:
288,256,24027,1,0,0:0:0:0:
336,232,24478,6,0,P|368:208|352:104,1,140
344,88,25154,1,0,0:0:0:0:
328,72,25380,1,0,0:0:0:0:
296,56,25605,6,0,P|248:40|208:64,1,70
216,112,26282,2,0,P|232:152|208:176,1,70
184,208,26959,1,0,0:0:0:0:
200,240,27185,1,0,0:0:0:0:
176,272,27410,1,0,0:0:0:0:
200,296,27636,1,0,0:0:0:0:
256,336,28087,6,0,P|312:344|408:304,1,140
408,288,28763,1,0,0:0:0:0:
416,256,28989,1,0,0:0:0:0:
416,224,29215,6,0,P|416:152|336:120,1,140
328,120,29891,1,0,0:0:0:0:
336,152,30117,1,0,0:0:0:0:
312,176,30342,1,0,0:0:0:0:
320,208,30568,1,0,0:0:0:0:
280,264,30793,5,0,0:0:0:0:
272,280,30906,1,0,0:0:0:0:
264,296,31019,1,0,0:0:0:0:
208,328,31245,5,4,0:0:0:0:
136,160,31696,5,0,0:0:0:0:
176,216,32147,2,0,P|208:272|224:288,1,70
240,296,32598,2,0,P|288:336|312:336,1,70
328,336,33049,1,0,0:0:0:0:
352,312,33275,6,0,P|376:272|352:248,2,70
320,336,33951,1,0,0:0:0:0:
264,296,34402,6,0,P|216:272|304:216,1,210
360,232,35305,2,0,P|408:248|424:216,1,70
448,176,35981,1,0,0:0:0:0:
440,160,36207,1,0,0:0:0:0:
432,144,36433,1,0,0:0:0:0:
416,112,36884,6,0,P|384:88|352:120,2,70
432,144,37560,2,0,P|448:192|392:272,1,140
336,288,38463,1,0,0:0:0:0:
264,280,38914,1,0,0:0:0:0:
240,256,39139,1,0,0:0:0:0:
216,232,39365,1,0,0:0:0:0:
192,200,39590,6,0,P|168:152|176:136,2,70
272,136,40718,2,0,P|216:160|200:192,1,70
224,200,41395,2,0,P|192:240|144:240,1,70
104,232,42072,1,0,0:0:0:0:
128,168,42523,6,0,P|160:128|200:136,2,70
112,200,43199,1,0,0:0:0:0:
104,232,43425,6,0,P|104:304|232:296,1,210
248,296,44327,2,0,P|288:248|192:168,1,210
168,176,45230,1,0,0:0:0:0:
152,208,45455,1,0,0:0:0:0:
144,224,45568,1,0,0:0:0:0:
136,240,45681,1,0,0:0:0:0:
152,304,46132,2,0,P|176:360|232:320,1,140
248,296,46808,2,0,P|240:248|256:208,1,70
280,208,47260,2,0,P|296:160|128:152,1,280
144,152,48613,1,0,0:0:0:0:
128,176,48839,1,0,0:0:0:0:
144,208,49065,1,0,0:0:0:0:
152,240,49290,6,0,P|144:280|120:288,4,70
136,208,50418,1,0,0:0:0:0:
152,176,50643,1,0,0:0:0:0:
128,152,50869,1,0,0:0:0:0:
160,88,51320,1,0,0:0:0:0:
144,56,51545,1,0,0:0:0:0:
160,24,51771,6,0,P|208:0|312:32,1,140
272,80,52673,1,0,0:0:0:0:
296,104,52899,1,0,0:0:0:0:
280,136,53124,1,0,0:0:0:0:
296,168,53350,6,0,P|336:216|360:224,1,70
392,264,54027,2,0,P|392:288|336:312,2,70
376,232,54929,2,0,P|352:192|384:184,2,70
416,288,55831,1,0,0:0:0:0:
384,304,56057,1,0,0:0:0:0:
352,320,56282,1,0,0:0:0:0:
320,312,56508,6,0,P|264:296|256:264,1,70
248,256,57184,2,0,P|240:216|136:208,1,140
120,200,57861,1,0,0:0:0:0:
104,168,58087,1,0,0:0:0:0:
72,184,58538,6,0,P|40:200|0:128,1,140
48,72,59440,1,0,0:0:0:0:
80,88,59666,1,0,0:0:0:0:
104,64,59891,6,0,P|136:32|288:80,1,210
288,96,61019,1,0,0:0:0:0:
312,120,61245,1,0,0:0:0:0:
296,152,61470,1,0,0:0:0:0:
256,192,61583,12,8,63274,0:0:0:0:
320,88,63726,5,0,0:0:0:0:
288,104,63951,6,0,P|240:128|232:160,2,70
320,88,64628,2,0,P|352:64|376:96,1,70
392,112,65079,1,0,0:0:0:0:
376,144,65305,1,0,0:0:0:0:
408,160,65530,6,0,P|424:200|400:224,2,70
424,128,66207,1,0,0:0:0:0:
368,80,66658,1,0,0:0:0:0:
336,80,66884,1,0,0:0:0:0:
280,128,67335,1,0,0:0:0:0:
288,160,67560,1,0,0:0:0:0:
264,184,67786,1,0,0:0:0:0:
232,176,68012,6,0,P|176:160|152:184,2,70
256,200,68688,2,0,P|320:232|280:280,2,140
184,184,70042,1,0,0:0:0:0:
152,120,70493,1,8,0:0:0:0:
216,88,70944,6,0,P|248:72|288:104,3,70
328,104,71846,1,0,0:0:0:0:
352,128,72072,1,0,0:0:0:0:
360,160,72523,6,0,P|376:208|296:256,1,140
280,264,73199,1,0,0:0:0:0:
264,264,73425,1,0,0:0:0:0:
200,232,73876,1,8,0:0:0:0:
184,224,74102,1,8,0:0:0:0:
128,184,74553,2,0,P|88:136|152:128,1,140
176,120,75230,1,0,0:0:0:0:
184,152,75455,1,0,0:0:0:0:
216,160,75681,1,0,0:0:0:0:
216,192,75906,1,0,0:0:0:0:
248,208,76132,6,0,P|264:256|296:256,1,70
304,280,76808,2,0,P|336:328|264:336,1,140
240,312,77711,1,0,0:0:0:0:
208,248,78162,6,0,P|168:224|168:176,3,70
152,168,79064,1,0,0:0:0:0:
152,136,79290,1,0,0:0:0:0:
168,104,79741,6,0,P|200:72|240:72,2,70
144,128,80418,2,0,P|112:176|128:208,1,70
120,256,81094,1,0,0:0:0:0:
136,288,81320,1,0,0:0:0:0:
200,264,81771,1,0,0:0:0:0:
216,232,81996,1,0,0:0:0:0:
248,224,82222,1,0,0:0:0:0:
256,192,82448,1,0,0:0:0:0:
232,168,82673,6,0,P|208:120|232:112,2,70
248,200,83350,2,0,P|272:232|248:256,1,70
192,288,84027,1,4,0:0:0:0:
160,280,84478,1,4,0:0:0:0:
88,264,84929,1,8,0:0:0:0:
96,192,85380,6,0,P|104:160|208:128,1,140
232,184,86057,1,0,0:0:0:0:
264,200,86282,1,0,0:0:0:0:
264,232,86508,1,0,0:0:0:0:
296,240,86959,6,0,P|336:264|360:184,1,140
360,168,87636,1,0,0:0:0:0:
368,136,87861,1,0,0:0:0:0:
312,96,88312,1,0,0:0:0:0:
280,112,88538,1,0,0:0:0:0:
256,176,88989,1,0,0:0:0:0:
256,208,89215,1,0,0:0:0:0:
232,232,89440,2,0,P|200:272|160:264,1,70
152,256,89891,1,0,0:0:0:0:
136,224,90117,1,0,0:0:0:0:
104,224,90342,2,0,P|72:248|48:232,1,70
32,208,90793,5,0,0:0:0:0:
80,160,91245,5,0,0:0:0:0:
40,104,91696,5,0,0:0:0:0:
