osu file format v14

[General]
AudioFilename: audio.mp3
AudioLeadIn: 0
PreviewTime: -1
Countdown: 0
SampleSet: None
StackLeniency: 0.7
Mode: 3
LetterboxInBreaks: 0
SpecialStyle: 0
WidescreenStoryboard: 1

[Editor]
DistanceSpacing: 1.2
BeatDivisor: 4
GridSize: 4
TimelineZoom: 1

[Metadata]
Title:Valkyrie Ikusa Otome
TitleUnicode:Valkyrie Ikusa Otome
Artist:Wagakki band
ArtistUnicode:Wagakki band
Creator:HybridLiam
Version:Novice
Source:Sousei No Onmyouji
Tags:Anime, Twin Star Exocists, 双星の陰陽師, Opening
BeatmapID:1352513
BeatmapSetID:634434

[Difficulty]
HPDrainRate:8
CircleSize:4
OverallDifficulty:8
ApproachRate:5
SliderMultiplier:1.4
SliderTickRate:1

[Events]
//Background and Video events
0,0,"Background.jpg",0,0
//Break Periods
//Storyboard Layer 0 (Background)
//Storyboard Layer 1 (Fail)
//Storyboard Layer 2 (Pass)
//Storyboard Layer 3 (Foreground)
//Storyboard Sound Samples

[TimingPoints]
65847,307.692307692308,4,1,1,70,1,1
85539,307.692307692308,4,1,1,70,1,0
144615,307.692307692308,4,1,1,70,1,1
164306,307.692307692308,4,1,1,70,1,0
187690,307.692307692308,4,1,1,70,1,1
192613,307.692307692308,4,1,1,70,1,0
215074,307.692307692308,4,1,1,70,1,0
215074,307.692307692308,4,1,1,70,1,1
215997,307.692307692308,4,1,1,70,1,1
224612,307.692307692308,4,1,1,70,1,0
254157,307.692307692308,3,1,1,70,1,0

[HitObjects]
448,192,1847,5,0,0:0:0:0:
320,192,2001,1,0,0:0:0:0:
64,192,4309,1,0,0:0:0:0:
192,192,4463,1,0,0:0:0:0:
448,192,6771,128,0,7078:0:0:0:0:
64,192,7232,128,0,7540:0:0:0:0:
320,192,7694,128,0,8001:0:0:0:0:
192,192,8155,128,0,8463:0:0:0:0:
448,192,8617,128,8,8924:0:0:0:0:
320,192,8924,128,8,9232:0:0:0:0:
64,192,9232,1,0,0:0:0:0:
448,192,9694,1,0,0:0:0:0:
64,192,10155,1,0,0:0:0:0:
448,192,10617,1,0,0:0:0:0:
64,192,11078,1,8,0:0:0:0:
192,192,11232,1,8,0:0:0:0:
320,192,11232,1,0,0:0:0:0:
64,192,11694,1,6,0:0:0:0:
192,192,12155,1,2,0:0:0:0:
448,192,12617,1,2,0:0:0:0:
320,192,13078,1,2,0:0:0:0:
64,192,13540,1,2,0:0:0:0:
320,192,13847,1,2,0:0:0:0:
448,192,14155,1,2,0:0:0:0:
320,192,14617,1,2,0:0:0:0:
64,192,15078,1,2,0:0:0:0:
192,192,15540,1,2,0:0:0:0:
448,192,16001,1,2,0:0:0:0:
320,192,16309,1,2,0:0:0:0:
192,192,16617,1,2,0:0:0:0:
448,192,17078,1,2,0:0:0:0:
320,192,17540,1,2,0:0:0:0:
64,192,18001,1,2,0:0:0:0:
192,192,18463,1,2,0:0:0:0:
320,192,18771,1,2,0:0:0:0:
448,192,19078,1,2,0:0:0:0:
192,192,19540,1,2,0:0:0:0:
320,192,20001,1,2,0:0:0:0:
64,192,20463,1,2,0:0:0:0:
448,192,20924,1,2,0:0:0:0:
192,192,21232,1,0,0:0:0:0:
320,192,21386,1,0,0:0:0:0:
64,192,21540,128,0,23078:0:0:0:0:
448,192,21540,1,4,0:0:0:0:
64,192,23386,1,0,0:0:0:0:
448,192,23386,1,0,0:0:0:0:
448,192,23540,1,0,0:0:0:0:
64,192,23540,1,0,0:0:0:0:
64,192,24000,1,0,0:0:0:0:
192,192,24001,1,4,0:0:0:0:
320,192,24309,1,0,0:0:0:0:
448,192,24617,1,0,0:0:0:0:
64,192,24924,1,8,0:0:0:0:
192,192,24924,1,8,0:0:0:0:
320,192,25232,1,0,0:0:0:0:
192,192,25540,1,0,0:0:0:0:
64,192,25847,1,0,0:0:0:0:
320,192,26155,1,8,0:0:0:0:
448,192,26155,1,8,0:0:0:0:
192,192,26463,1,0,0:0:0:0:
320,192,26771,1,0,0:0:0:0:
448,192,27078,1,0,0:0:0:0:
192,192,27386,1,8,0:0:0:0:
64,192,27386,1,8,0:0:0:0:
448,192,27694,1,0,0:0:0:0:
320,192,28001,1,0,0:0:0:0:
192,192,28309,1,0,0:0:0:0:
64,192,28617,1,8,0:0:0:0:
448,192,28617,1,8,0:0:0:0:
448,192,28923,1,0,0:0:0:0:
320,192,28924,1,4,0:0:0:0:
192,192,29232,1,0,0:0:0:0:
320,192,29540,1,0,0:0:0:0:
64,192,29847,1,8,0:0:0:0:
192,192,29847,1,8,0:0:0:0:
448,192,30155,1,0,0:0:0:0:
320,192,30463,1,0,0:0:0:0:
192,192,30771,1,0,0:0:0:0:
320,192,31078,1,8,0:0:0:0:
448,192,31078,1,8,0:0:0:0:
64,192,31386,1,0,0:0:0:0:
192,192,31694,1,0,0:0:0:0:
320,192,32001,1,0,0:0:0:0:
448,192,32309,1,8,0:0:0:0:
64,192,32309,128,10,32617:0:0:0:0:
192,192,32617,128,2,32924:0:0:0:0:
448,192,32924,128,2,33232:0:0:0:0:
320,192,33232,128,2,33540:0:0:0:0:
192,192,33540,128,2,33847:0:0:0:0:
64,192,33847,1,4,0:0:0:0:
448,192,33847,128,2,34463:0:0:0:0:
64,192,34463,128,2,35078:0:0:0:0:
192,192,35078,128,2,35694:0:0:0:0:
320,192,35694,128,2,36309:0:0:0:0:
448,192,36309,128,2,37540:0:0:0:0:
320,192,38155,128,2,38771:0:0:0:0:
64,192,38771,128,2,40001:0:0:0:0:
192,192,40001,128,2,41232:0:0:0:0:
320,192,41232,128,2,42463:0:0:0:0:
448,192,42463,1,2,0:0:0:0:
320,192,42771,1,2,0:0:0:0:
192,192,43078,1,2,0:0:0:0:
64,192,43386,1,2,0:0:0:0:
320,192,43694,1,0,0:0:0:0:
448,192,43694,1,4,0:0:0:0:
64,192,43847,128,0,44309:0:0:0:0:
448,192,44309,1,8,0:0:0:0:
192,192,44617,1,0,0:0:0:0:
448,192,44771,128,0,45232:0:0:0:0:
64,192,45232,1,8,0:0:0:0:
320,192,45540,1,0,0:0:0:0:
192,192,45694,1,0,0:0:0:0:
64,192,45847,1,8,0:0:0:0:
448,192,46155,1,0,0:0:0:0:
192,192,46309,128,0,46771:0:0:0:0:
320,192,46771,1,8,0:0:0:0:
64,192,47078,1,0,0:0:0:0:
320,192,47232,128,0,47694:0:0:0:0:
192,192,47694,128,8,48001:0:0:0:0:
64,192,48001,128,0,48617:0:0:0:0:
448,192,48617,1,4,0:0:0:0:
320,192,48617,1,0,0:0:0:0:
192,192,48771,128,0,49232:0:0:0:0:
64,192,49232,1,8,0:0:0:0:
192,192,49540,1,0,0:0:0:0:
320,192,49694,128,0,50155:0:0:0:0:
448,192,50155,1,8,0:0:0:0:
64,192,50463,1,0,0:0:0:0:
192,192,50617,1,0,0:0:0:0:
320,192,50771,1,8,0:0:0:0:
192,192,51078,1,0,0:0:0:0:
320,192,51232,128,0,51694:0:0:0:0:
64,192,51694,1,8,0:0:0:0:
320,192,52001,1,0,0:0:0:0:
192,192,52155,128,0,52617:0:0:0:0:
448,192,52617,1,8,0:0:0:0:
64,192,52924,1,0,0:0:0:0:
192,192,53078,1,0,0:0:0:0:
320,192,53232,1,0,0:0:0:0:
448,192,53386,1,0,0:0:0:0:
64,192,53540,128,6,54001:0:0:0:0:
192,192,54001,128,2,54463:0:0:0:0:
320,192,54463,128,2,54771:0:0:0:0:
448,192,54771,128,2,55232:0:0:0:0:
320,192,55232,128,2,55694:0:0:0:0:
192,192,55694,128,8,56001:0:0:0:0:
320,192,56001,128,2,56463:0:0:0:0:
192,192,56463,128,2,56924:0:0:0:0:
64,192,56924,128,2,57232:0:0:0:0:
192,192,57232,128,2,57694:0:0:0:0:
320,192,57694,128,2,58155:0:0:0:0:
448,192,58155,128,8,58463:0:0:0:0:
64,192,58463,1,0,0:0:0:0:
64,192,58771,1,0,0:0:0:0:
64,192,59078,1,0,0:0:0:0:
64,192,59386,1,0,0:0:0:0:
448,192,59694,1,0,0:0:0:0:
448,192,60001,1,0,0:0:0:0:
448,192,60309,1,0,0:0:0:0:
448,192,60617,1,0,0:0:0:0:
64,192,60924,1,0,0:0:0:0:
192,192,61078,1,0,0:0:0:0:
320,192,61232,1,0,0:0:0:0:
448,192,61386,1,0,0:0:0:0:
64,192,61540,1,0,0:0:0:0:
192,192,61694,1,0,0:0:0:0:
320,192,61847,1,0,0:0:0:0:
448,192,62001,1,0,0:0:0:0:
64,192,62155,128,0,63386:0:0:0:0:
320,192,63386,1,8,0:0:0:0:
448,192,63386,1,8,0:0:0:0:
64,192,63847,1,8,0:0:0:0:
192,192,63847,1,8,0:0:0:0:
320,192,64309,1,8,0:0:0:0:
192,192,64309,1,8,0:0:0:0:
64,192,64617,128,8,65232:0:0:0:0:
448,192,64617,128,8,65232:0:0:0:0:
448,192,65847,1,12,0:0:0:0:
64,192,66154,1,8,0:0:0:0:
192,192,66462,1,8,0:0:0:0:
320,192,66770,1,8,0:0:0:0:
64,192,67077,1,8,0:0:0:0:
448,192,67385,1,8,0:0:0:0:
320,192,67693,1,8,0:0:0:0:
192,192,68000,1,8,0:0:0:0:
448,192,68308,1,8,0:0:0:0:
192,192,68616,1,8,0:0:0:0:
448,192,68923,1,8,0:0:0:0:
320,192,69231,1,8,0:0:0:0:
64,192,69539,1,8,0:0:0:0:
320,192,69847,1,8,0:0:0:0:
64,192,70154,1,8,0:0:0:0:
192,192,70462,1,8,0:0:0:0:
448,192,70770,1,8,0:0:0:0:
64,192,71077,1,8,0:0:0:0:
192,192,71385,1,8,0:0:0:0:
320,192,71693,1,8,0:0:0:0:
64,192,72000,1,8,0:0:0:0:
448,192,72308,1,8,0:0:0:0:
320,192,72616,1,8,0:0:0:0:
192,192,72923,1,8,0:0:0:0:
64,192,73231,1,8,0:0:0:0:
448,192,73539,1,8,0:0:0:0:
192,192,73847,1,8,0:0:0:0:
64,192,74154,1,8,0:0:0:0:
448,192,74462,1,8,0:0:0:0:
64,192,74770,1,2,0:0:0:0:
192,192,74923,1,2,0:0:0:0:
320,192,75077,1,2,0:0:0:0:
448,192,75231,1,2,0:0:0:0:
64,192,75385,1,2,0:0:0:0:
192,192,75539,1,2,0:0:0:0:
320,192,75693,1,8,0:0:0:0:
448,192,75693,1,12,0:0:0:0:
64,192,76000,1,8,0:0:0:0:
448,192,76308,1,8,0:0:0:0:
64,192,76616,1,8,0:0:0:0:
320,192,76923,1,8,0:0:0:0:
192,192,77231,1,8,0:0:0:0:
320,192,77539,1,8,0:0:0:0:
192,192,77847,1,8,0:0:0:0:
64,192,78154,1,8,0:0:0:0:
192,192,78462,1,8,0:0:0:0:
320,192,78770,1,8,0:0:0:0:
64,192,79077,1,8,0:0:0:0:
448,192,79385,1,8,0:0:0:0:
320,192,79693,1,8,0:0:0:0:
192,192,80000,1,8,0:0:0:0:
448,192,80308,1,8,0:0:0:0:
320,192,80616,1,8,0:0:0:0:
448,192,80923,1,8,0:0:0:0:
192,192,81231,1,8,0:0:0:0:
448,192,81539,1,8,0:0:0:0:
192,192,81847,1,8,0:0:0:0:
320,192,82154,1,8,0:0:0:0:
64,192,82462,1,8,0:0:0:0:
320,192,82770,1,8,0:0:0:0:
448,192,83077,1,8,0:0:0:0:
320,192,83385,1,8,0:0:0:0:
192,192,83693,1,8,0:0:0:0:
64,192,84000,1,8,0:0:0:0:
320,192,84308,1,8,0:0:0:0:
192,192,84616,1,8,0:0:0:0:
64,192,84923,128,8,85539:0:0:0:0:
320,192,85539,1,8,0:0:0:0:
448,192,85539,1,8,0:0:0:0:
192,192,86000,1,8,0:0:0:0:
448,192,86000,1,8,0:0:0:0:
192,192,86462,1,8,0:0:0:0:
320,192,86462,1,8,0:0:0:0:
64,192,86923,1,8,0:0:0:0:
320,192,86923,1,8,0:0:0:0:
64,192,87385,1,8,0:0:0:0:
192,192,87385,1,8,0:0:0:0:
192,192,87692,1,8,0:0:0:0:
320,192,87692,1,8,0:0:0:0:
320,192,88000,1,8,0:0:0:0:
448,192,88000,1,8,0:0:0:0:
192,192,88462,1,8,0:0:0:0:
448,192,88462,1,8,0:0:0:0:
64,192,88923,128,0,89539:0:0:0:0:
448,192,88923,128,4,89539:0:0:0:0:
320,192,89846,1,0,0:0:0:0:
192,192,90000,1,0,0:0:0:0:
64,192,90154,1,0,0:0:0:0:
448,192,90462,1,4,0:0:0:0:
320,192,90615,1,0,0:0:0:0:
192,192,90769,1,0,0:0:0:0:
64,192,90923,128,8,91308:0:0:0:0:
320,192,91385,1,0,0:0:0:0:
192,192,91539,1,0,0:0:0:0:
320,192,91692,1,0,0:0:0:0:
448,192,91846,128,8,92231:0:0:0:0:
64,192,92308,128,0,92615:0:0:0:0:
320,192,92615,1,8,0:0:0:0:
448,192,92615,1,8,0:0:0:0:
64,192,92923,1,4,0:0:0:0:
192,192,93077,1,0,0:0:0:0:
320,192,93231,1,0,0:0:0:0:
448,192,93385,128,8,93769:0:0:0:0:
192,192,93846,1,0,0:0:0:0:
320,192,94000,1,0,0:0:0:0:
192,192,94154,1,0,0:0:0:0:
64,192,94308,128,8,94769:0:0:0:0:
448,192,94769,1,0,0:0:0:0:
320,192,94923,1,0,0:0:0:0:
64,192,95077,1,8,0:0:0:0:
192,192,95231,1,8,0:0:0:0:
448,192,95385,1,4,0:0:0:0:
320,192,95385,1,0,0:0:0:0:
320,192,95692,1,0,0:0:0:0:
448,192,95692,1,0,0:0:0:0:
448,192,96000,1,0,0:0:0:0:
64,192,96000,1,8,0:0:0:0:
64,192,96615,1,0,0:0:0:0:
192,192,96615,1,0,0:0:0:0:
192,192,96923,1,0,0:0:0:0:
64,192,96923,1,0,0:0:0:0:
64,192,97231,1,0,0:0:0:0:
448,192,97231,1,8,0:0:0:0:
64,192,97846,128,0,98154:0:0:0:0:
192,192,98154,1,2,0:0:0:0:
320,192,98308,1,2,0:0:0:0:
448,192,98462,1,2,0:0:0:0:
320,192,98615,1,2,0:0:0:0:
64,192,98769,128,0,99077:0:0:0:0:
448,192,99077,1,0,0:0:0:0:
320,192,99231,1,2,0:0:0:0:
192,192,99385,1,2,0:0:0:0:
64,192,99539,1,2,0:0:0:0:
192,192,99692,1,2,0:0:0:0:
448,192,99846,128,2,100308:0:0:0:0:
320,192,99846,128,0,100308:0:0:0:0:
64,192,100308,128,0,101539:0:0:0:0:
448,192,101539,128,0,101846:0:0:0:0:
320,192,101846,128,0,102154:0:0:0:0:
192,192,102154,128,0,102462:0:0:0:0:
64,192,102462,128,8,102769:0:0:0:0:
192,192,102769,128,0,103077:0:0:0:0:
320,192,103077,128,0,103385:0:0:0:0:
448,192,103385,128,0,103692:0:0:0:0:
64,192,103692,128,8,104000:0:0:0:0:
448,192,104000,128,0,104308:0:0:0:0:
320,192,104308,128,0,104615:0:0:0:0:
192,192,104615,128,0,104923:0:0:0:0:
64,192,104923,128,8,105231:0:0:0:0:
192,192,105231,128,0,105539:0:0:0:0:
64,192,105539,128,0,105846:0:0:0:0:
192,192,105846,128,0,106154:0:0:0:0:
320,192,106154,128,8,106462:0:0:0:0:
448,192,106462,128,0,106769:0:0:0:0:
320,192,106769,128,0,107077:0:0:0:0:
192,192,107077,128,0,107385:0:0:0:0:
64,192,107385,128,8,107692:0:0:0:0:
192,192,107692,128,0,108000:0:0:0:0:
320,192,108000,128,0,108308:0:0:0:0:
448,192,108308,128,0,108923:0:0:0:0:
64,192,108923,1,0,0:0:0:0:
192,192,109077,1,8,0:0:0:0:
320,192,109077,1,8,0:0:0:0:
192,192,109385,1,0,0:0:0:0:
64,192,109539,128,0,110154:0:0:0:0:
448,192,110154,1,4,0:0:0:0:
320,192,110308,1,2,0:0:0:0:
192,192,110462,1,2,0:0:0:0:
448,192,110615,128,2,110769:0:0:0:0:
320,192,110615,128,0,110769:0:0:0:0:
448,192,110923,128,2,111077:0:0:0:0:
320,192,110923,128,0,111077:0:0:0:0:
64,192,111385,1,2,0:0:0:0:
192,192,111539,1,2,0:0:0:0:
320,192,111692,1,2,0:0:0:0:
64,192,111846,128,2,112000:0:0:0:0:
192,192,111846,128,0,112000:0:0:0:0:
64,192,112154,128,2,112308:0:0:0:0:
192,192,112154,128,0,112308:0:0:0:0:
320,192,112615,1,2,0:0:0:0:
64,192,112769,1,2,0:0:0:0:
192,192,112923,1,2,0:0:0:0:
448,192,113077,128,2,113231:0:0:0:0:
320,192,113077,128,0,113231:0:0:0:0:
448,192,113385,128,2,113539:0:0:0:0:
320,192,113385,128,0,113539:0:0:0:0:
192,192,113846,1,2,0:0:0:0:
448,192,114000,1,2,0:0:0:0:
320,192,114154,1,2,0:0:0:0:
64,192,114308,128,2,114462:0:0:0:0:
192,192,114308,128,0,114462:0:0:0:0:
64,192,114615,128,2,114769:0:0:0:0:
192,192,114615,128,0,114769:0:0:0:0:
448,192,115077,1,2,0:0:0:0:
320,192,115231,1,2,0:0:0:0:
192,192,115385,1,2,0:0:0:0:
448,192,115539,128,0,115692:0:0:0:0:
64,192,115539,128,2,115692:0:0:0:0:
448,192,115846,128,0,116000:0:0:0:0:
64,192,115846,128,2,116000:0:0:0:0:
64,192,116308,1,2,0:0:0:0:
192,192,116462,1,2,0:0:0:0:
320,192,116615,1,2,0:0:0:0:
64,192,116769,128,0,116923:0:0:0:0:
448,192,116769,128,2,116923:0:0:0:0:
64,192,117077,128,0,117231:0:0:0:0:
448,192,117077,128,2,117231:0:0:0:0:
192,192,117539,1,0,0:0:0:0:
448,192,117692,1,0,0:0:0:0:
192,192,117846,1,8,0:0:0:0:
64,192,117846,1,8,0:0:0:0:
320,192,118154,1,0,0:0:0:0:
64,192,118308,1,0,0:0:0:0:
320,192,118462,1,8,0:0:0:0:
448,192,118462,1,8,0:0:0:0:
448,192,118769,128,0,120000:0:0:0:0:
64,192,118769,128,0,120000:0:0:0:0:
192,192,120000,1,0,0:0:0:0:
320,192,120000,1,12,0:0:0:0:
192,192,120923,1,2,0:0:0:0:
320,192,121077,1,2,0:0:0:0:
64,192,121846,1,0,0:0:0:0:
448,192,122000,1,0,0:0:0:0:
448,192,122308,1,0,0:0:0:0:
320,192,122462,1,8,0:0:0:0:
192,192,122462,1,8,0:0:0:0:
320,192,124923,1,8,0:0:0:0:
192,192,124923,1,8,0:0:0:0:
64,192,126000,1,8,0:0:0:0:
192,192,126000,1,8,0:0:0:0:
448,192,127385,128,8,127846:0:0:0:0:
320,192,127385,128,8,127846:0:0:0:0:
448,192,128462,128,0,129769:0:0:0:0:
64,192,129846,128,2,130308:0:0:0:0:
192,192,130308,128,2,130769:0:0:0:0:
320,192,130769,128,2,131077:0:0:0:0:
448,192,131077,128,2,131539:0:0:0:0:
320,192,131539,128,2,132000:0:0:0:0:
192,192,132000,128,10,132308:0:0:0:0:
64,192,132308,128,2,132769:0:0:0:0:
192,192,132769,128,2,133231:0:0:0:0:
320,192,133231,128,2,133539:0:0:0:0:
448,192,133539,128,2,134000:0:0:0:0:
320,192,134000,128,2,134462:0:0:0:0:
192,192,134462,128,2,134769:0:0:0:0:
448,192,134769,1,2,0:0:0:0:
448,192,135077,1,2,0:0:0:0:
448,192,135385,1,2,0:0:0:0:
448,192,135692,1,2,0:0:0:0:
64,192,136000,1,2,0:0:0:0:
64,192,136308,1,2,0:0:0:0:
64,192,136615,1,2,0:0:0:0:
64,192,136923,1,2,0:0:0:0:
320,192,137231,1,2,0:0:0:0:
192,192,137385,1,2,0:0:0:0:
320,192,137539,1,2,0:0:0:0:
192,192,137692,1,2,0:0:0:0:
320,192,137846,1,2,0:0:0:0:
192,192,138000,1,2,0:0:0:0:
320,192,138154,1,2,0:0:0:0:
192,192,138308,1,2,0:0:0:0:
448,192,138462,128,0,139692:0:0:0:0:
192,192,139692,1,8,0:0:0:0:
320,192,139692,1,8,0:0:0:0:
320,192,140000,1,0,0:0:0:0:
64,192,140154,1,8,0:0:0:0:
192,192,140154,1,8,0:0:0:0:
192,192,140462,1,0,0:0:0:0:
320,192,140615,1,8,0:0:0:0:
448,192,140615,1,8,0:0:0:0:
320,192,140923,1,0,0:0:0:0:
192,192,141077,1,8,0:0:0:0:
64,192,141077,1,8,0:0:0:0:
448,192,141539,1,8,0:0:0:0:
320,192,141539,1,8,0:0:0:0:
64,192,141846,1,8,0:0:0:0:
192,192,141846,1,8,0:0:0:0:
448,192,142154,1,0,0:0:0:0:
320,192,142308,1,0,0:0:0:0:
192,192,142462,1,0,0:0:0:0:
64,192,142615,1,0,0:0:0:0:
448,192,142769,1,0,0:0:0:0:
320,192,142923,1,0,0:0:0:0:
192,192,143077,128,8,144000:0:0:0:0:
448,192,144615,1,12,0:0:0:0:
64,192,144922,1,8,0:0:0:0:
192,192,145230,1,8,0:0:0:0:
320,192,145538,1,8,0:0:0:0:
64,192,145845,1,8,0:0:0:0:
448,192,146153,1,8,0:0:0:0:
320,192,146461,1,8,0:0:0:0:
192,192,146768,1,8,0:0:0:0:
448,192,147076,1,8,0:0:0:0:
192,192,147384,1,8,0:0:0:0:
448,192,147691,1,8,0:0:0:0:
320,192,147999,1,8,0:0:0:0:
64,192,148307,1,8,0:0:0:0:
320,192,148615,1,8,0:0:0:0:
64,192,148922,1,8,0:0:0:0:
192,192,149230,1,8,0:0:0:0:
448,192,149538,1,8,0:0:0:0:
64,192,149845,1,8,0:0:0:0:
192,192,150153,1,8,0:0:0:0:
320,192,150461,1,8,0:0:0:0:
64,192,150768,1,8,0:0:0:0:
448,192,151076,1,8,0:0:0:0:
320,192,151384,1,8,0:0:0:0:
192,192,151691,1,8,0:0:0:0:
64,192,151999,1,8,0:0:0:0:
448,192,152307,1,8,0:0:0:0:
192,192,152615,1,8,0:0:0:0:
64,192,152922,1,8,0:0:0:0:
448,192,153230,1,8,0:0:0:0:
64,192,153538,1,10,0:0:0:0:
192,192,153691,1,10,0:0:0:0:
320,192,153845,1,10,0:0:0:0:
448,192,153999,1,10,0:0:0:0:
64,192,154153,1,10,0:0:0:0:
192,192,154307,1,10,0:0:0:0:
320,192,154461,1,0,0:0:0:0:
448,192,154461,1,12,0:0:0:0:
64,192,154768,1,8,0:0:0:0:
448,192,155076,1,8,0:0:0:0:
64,192,155384,1,8,0:0:0:0:
320,192,155691,1,8,0:0:0:0:
192,192,155999,1,8,0:0:0:0:
320,192,156307,1,8,0:0:0:0:
192,192,156615,1,8,0:0:0:0:
64,192,156922,1,8,0:0:0:0:
192,192,157230,1,8,0:0:0:0:
320,192,157538,1,8,0:0:0:0:
64,192,157845,1,8,0:0:0:0:
448,192,158153,1,8,0:0:0:0:
320,192,158461,1,8,0:0:0:0:
192,192,158768,1,8,0:0:0:0:
448,192,159076,1,8,0:0:0:0:
320,192,159384,1,8,0:0:0:0:
448,192,159691,1,8,0:0:0:0:
192,192,159999,1,8,0:0:0:0:
448,192,160307,1,8,0:0:0:0:
192,192,160615,1,8,0:0:0:0:
320,192,160922,1,8,0:0:0:0:
64,192,161230,1,8,0:0:0:0:
320,192,161538,1,8,0:0:0:0:
448,192,161845,1,8,0:0:0:0:
320,192,162153,1,8,0:0:0:0:
192,192,162461,1,8,0:0:0:0:
64,192,162768,1,8,0:0:0:0:
320,192,163076,1,8,0:0:0:0:
192,192,163384,1,8,0:0:0:0:
64,192,163691,128,8,164306:0:0:0:0:
320,192,164306,1,8,0:0:0:0:
448,192,164306,1,12,0:0:0:0:
192,192,164767,1,8,0:0:0:0:
448,192,164767,1,8,0:0:0:0:
192,192,165229,1,8,0:0:0:0:
320,192,165229,1,8,0:0:0:0:
64,192,165690,1,8,0:0:0:0:
320,192,165690,1,8,0:0:0:0:
64,192,166152,1,8,0:0:0:0:
192,192,166152,1,8,0:0:0:0:
192,192,166459,1,8,0:0:0:0:
320,192,166459,1,8,0:0:0:0:
320,192,166767,1,8,0:0:0:0:
448,192,166767,1,8,0:0:0:0:
192,192,167229,1,8,0:0:0:0:
448,192,167229,1,8,0:0:0:0:
448,192,167690,128,12,168306:0:0:0:0:
64,192,167690,128,8,168306:0:0:0:0:
192,192,168306,1,0,0:0:0:0:
320,192,168613,1,2,0:0:0:0:
448,192,168921,1,0,0:0:0:0:
320,192,169229,1,2,0:0:0:0:
192,192,169536,1,0,0:0:0:0:
448,192,170152,1,0,0:0:0:0:
320,192,170459,1,2,0:0:0:0:
192,192,170767,1,0,0:0:0:0:
448,192,171382,1,0,0:0:0:0:
320,192,171690,1,2,0:0:0:0:
192,192,171998,1,0,0:0:0:0:
64,192,172306,128,0,172613:0:0:0:0:
192,192,172613,1,8,0:0:0:0:
320,192,172613,1,12,0:0:0:0:
448,192,172921,128,8,173229:0:0:0:0:
320,192,173229,1,0,0:0:0:0:
64,192,173382,128,8,173690:0:0:0:0:
192,192,173690,1,0,0:0:0:0:
320,192,173844,128,8,174152:0:0:0:0:
448,192,174152,1,0,0:0:0:0:
192,192,174306,128,8,174613:0:0:0:0:
64,192,174613,1,0,0:0:0:0:
448,192,174767,1,8,0:0:0:0:
320,192,175075,1,10,0:0:0:0:
64,192,175382,1,10,0:0:0:0:
192,192,175382,1,8,0:0:0:0:
448,192,175844,1,0,0:0:0:0:
320,192,176306,1,0,0:0:0:0:
192,192,176767,1,0,0:0:0:0:
64,192,177229,1,2,0:0:0:0:
320,192,177229,1,8,0:0:0:0:
192,192,177536,1,10,0:0:0:0:
448,192,177536,1,8,0:0:0:0:
192,192,177844,1,6,0:0:0:0:
448,192,177998,1,2,0:0:0:0:
64,192,178152,1,2,0:0:0:0:
320,192,178306,1,2,0:0:0:0:
192,192,178459,1,2,0:0:0:0:
448,192,178613,1,2,0:0:0:0:
64,192,178767,1,2,0:0:0:0:
320,192,178921,128,2,179229:0:0:0:0:
448,192,179229,128,2,179382:0:0:0:0:
64,192,179536,1,2,0:0:0:0:
192,192,179690,1,10,0:0:0:0:
192,192,180306,1,2,0:0:0:0:
448,192,180459,1,2,0:0:0:0:
64,192,180613,1,2,0:0:0:0:
320,192,180767,1,2,0:0:0:0:
192,192,180921,1,2,0:0:0:0:
64,192,181075,128,2,181382:0:0:0:0:
448,192,181382,1,2,0:0:0:0:
448,192,181690,1,2,0:0:0:0:
320,192,181844,128,2,182152:0:0:0:0:
192,192,182152,128,2,182459:0:0:0:0:
64,192,182459,128,2,182767:0:0:0:0:
320,192,182767,128,2,183075:0:0:0:0:
448,192,182767,128,4,183075:0:0:0:0:
320,192,183229,128,2,183382:0:0:0:0:
448,192,183229,128,0,183382:0:0:0:0:
64,192,183536,1,2,0:0:0:0:
320,192,183690,128,2,183998:0:0:0:0:
448,192,183690,128,0,183998:0:0:0:0:
320,192,184152,128,2,184459:0:0:0:0:
448,192,184152,128,0,184459:0:0:0:0:
320,192,184613,128,2,184767:0:0:0:0:
448,192,184613,128,0,184767:0:0:0:0:
64,192,184921,1,2,0:0:0:0:
192,192,185075,1,2,0:0:0:0:
320,192,185229,1,2,0:0:0:0:
448,192,185382,1,2,0:0:0:0:
192,192,185536,1,2,0:0:0:0:
64,192,185690,1,2,0:0:0:0:
448,192,185844,1,2,0:0:0:0:
64,192,186152,1,2,0:0:0:0:
448,192,186306,1,2,0:0:0:0:
64,192,186613,1,2,0:0:0:0:
448,192,186767,1,2,0:0:0:0:
64,192,187075,1,2,0:0:0:0:
192,192,187229,1,2,0:0:0:0:
320,192,187382,1,2,0:0:0:0:
448,192,187536,1,2,0:0:0:0:
64,192,187690,128,14,187843:0:0:0:0:
192,192,187690,128,8,187843:0:0:0:0:
448,192,187997,128,2,188920:0:0:0:0:
64,192,188920,128,2,189536:0:0:0:0:
448,192,189536,1,2,0:0:0:0:
320,192,189690,1,2,0:0:0:0:
192,192,189843,1,2,0:0:0:0:
64,192,189997,1,2,0:0:0:0:
320,192,190151,1,8,0:0:0:0:
448,192,190151,1,8,0:0:0:0:
192,192,190459,1,8,0:0:0:0:
64,192,190459,1,8,0:0:0:0:
320,192,190766,1,8,0:0:0:0:
448,192,190766,1,8,0:0:0:0:
192,192,191074,1,8,0:0:0:0:
64,192,191074,1,8,0:0:0:0:
448,192,191382,1,8,0:0:0:0:
320,192,191690,1,8,0:0:0:0:
64,192,191997,1,0,0:0:0:0:
192,192,192151,1,0,0:0:0:0:
320,192,192305,1,0,0:0:0:0:
448,192,192459,1,0,0:0:0:0:
320,192,192613,128,4,193074:0:0:0:0:
64,192,193074,128,0,193843:0:0:0:0:
192,192,193843,128,4,194305:0:0:0:0:
448,192,194305,128,0,195074:0:0:0:0:
64,192,195074,128,8,195536:0:0:0:0:
192,192,195536,128,8,195997:0:0:0:0:
320,192,195997,128,8,196459:0:0:0:0:
448,192,196459,128,8,196920:0:0:0:0:
320,192,196920,128,8,197228:0:0:0:0:
192,192,197228,128,8,197536:0:0:0:0:
64,192,197536,128,8,197997:0:0:0:0:
192,192,197997,128,8,198459:0:0:0:0:
320,192,198459,128,8,198920:0:0:0:0:
448,192,198920,128,8,199382:0:0:0:0:
64,192,199382,128,8,199689:0:0:0:0:
192,192,199689,128,8,199997:0:0:0:0:
64,192,199997,128,12,200459:0:0:0:0:
192,192,200459,128,8,200920:0:0:0:0:
320,192,200920,128,8,201382:0:0:0:0:
448,192,201382,128,8,201843:0:0:0:0:
192,192,201843,128,8,202151:0:0:0:0:
320,192,202151,128,8,202459:0:0:0:0:
448,192,202459,128,12,204766:0:0:0:0:
64,192,204920,128,0,206151:0:0:0:0:
192,192,205228,1,0,0:0:0:0:
320,192,205536,1,8,0:0:0:0:
448,192,206151,128,0,207382:0:0:0:0:
320,192,206459,1,0,0:0:0:0:
192,192,206766,1,8,0:0:0:0:
64,192,207382,128,0,208613:0:0:0:0:
320,192,207689,1,0,0:0:0:0:
448,192,207997,1,8,0:0:0:0:
448,192,208613,128,0,209843:0:0:0:0:
192,192,208920,1,0,0:0:0:0:
64,192,209228,1,8,0:0:0:0:
64,192,209843,128,0,211074:0:0:0:0:
192,192,211074,128,0,212305:0:0:0:0:
320,192,212305,1,8,0:0:0:0:
448,192,212305,1,8,0:0:0:0:
64,192,212613,1,8,0:0:0:0:
192,192,212613,1,8,0:0:0:0:
320,192,212920,1,8,0:0:0:0:
448,192,212920,1,8,0:0:0:0:
192,192,213228,1,8,0:0:0:0:
64,192,213228,1,8,0:0:0:0:
448,192,213536,1,2,0:0:0:0:
320,192,213689,1,2,0:0:0:0:
192,192,213843,1,2,0:0:0:0:
64,192,213997,1,2,0:0:0:0:
448,192,214151,1,2,0:0:0:0:
320,192,214305,128,2,214766:0:0:0:0:
64,192,215074,1,8,0:0:0:0:
192,192,215381,1,8,0:0:0:0:
320,192,215689,1,8,0:0:0:0:
64,192,215997,1,8,0:0:0:0:
448,192,216304,1,8,0:0:0:0:
320,192,216612,1,8,0:0:0:0:
192,192,216920,1,8,0:0:0:0:
320,192,217227,1,8,0:0:0:0:
448,192,217535,1,8,0:0:0:0:
192,192,217843,1,8,0:0:0:0:
320,192,218150,1,8,0:0:0:0:
192,192,218458,1,8,0:0:0:0:
64,192,218766,1,8,0:0:0:0:
192,192,219073,1,8,0:0:0:0:
320,192,219381,1,8,0:0:0:0:
192,192,219689,1,8,0:0:0:0:
64,192,219997,1,8,0:0:0:0:
192,192,220304,1,8,0:0:0:0:
64,192,220612,1,8,0:0:0:0:
320,192,220920,1,8,0:0:0:0:
448,192,221227,1,8,0:0:0:0:
320,192,221535,1,8,0:0:0:0:
448,192,221843,1,8,0:0:0:0:
192,192,222150,1,8,0:0:0:0:
448,192,222458,1,8,0:0:0:0:
192,192,222766,1,8,0:0:0:0:
64,192,223074,1,8,0:0:0:0:
320,192,223381,1,8,0:0:0:0:
192,192,223689,1,8,0:0:0:0:
64,192,223997,128,8,224612:0:0:0:0:
320,192,224612,1,8,0:0:0:0:
448,192,224612,1,12,0:0:0:0:
448,192,225073,1,8,0:0:0:0:
192,192,225073,1,8,0:0:0:0:
192,192,225535,1,8,0:0:0:0:
320,192,225535,1,8,0:0:0:0:
64,192,225996,1,8,0:0:0:0:
320,192,225996,1,8,0:0:0:0:
64,192,226458,1,8,0:0:0:0:
192,192,226458,1,8,0:0:0:0:
320,192,226765,1,8,0:0:0:0:
192,192,226765,1,8,0:0:0:0:
64,192,227073,1,8,0:0:0:0:
448,192,227073,1,8,0:0:0:0:
192,192,227535,1,8,0:0:0:0:
448,192,227535,1,8,0:0:0:0:
320,192,227996,1,8,0:0:0:0:
448,192,227996,1,8,0:0:0:0:
448,192,228612,128,8,229535:0:0:0:0:
64,192,229535,1,14,0:0:0:0:
192,192,229535,1,10,0:0:0:0:
64,192,229996,1,8,0:0:0:0:
320,192,229996,1,12,0:0:0:0:
192,192,230458,1,8,0:0:0:0:
320,192,230458,1,12,0:0:0:0:
192,192,230919,1,8,0:0:0:0:
448,192,230919,1,12,0:0:0:0:
320,192,231381,1,12,0:0:0:0:
448,192,231381,1,8,0:0:0:0:
192,192,231688,1,8,0:0:0:0:
320,192,231688,1,8,0:0:0:0:
64,192,231996,1,12,0:0:0:0:
448,192,231996,1,8,0:0:0:0:
64,192,232458,1,8,0:0:0:0:
320,192,232458,1,12,0:0:0:0:
64,192,232919,128,0,234150:0:0:0:0:
192,192,232919,128,4,234150:0:0:0:0:
64,192,234458,1,6,0:0:0:0:
192,192,234919,1,2,0:0:0:0:
448,192,235381,1,2,0:0:0:0:
320,192,235842,1,2,0:0:0:0:
64,192,236304,1,2,0:0:0:0:
320,192,236612,1,2,0:0:0:0:
448,192,236919,1,2,0:0:0:0:
320,192,237381,1,2,0:0:0:0:
64,192,237842,1,2,0:0:0:0:
192,192,238304,1,2,0:0:0:0:
448,192,238765,1,2,0:0:0:0:
320,192,239073,1,2,0:0:0:0:
192,192,239381,1,2,0:0:0:0:
448,192,239842,1,2,0:0:0:0:
320,192,240304,1,2,0:0:0:0:
64,192,240765,1,2,0:0:0:0:
192,192,241227,1,2,0:0:0:0:
320,192,241535,1,2,0:0:0:0:
448,192,241842,1,2,0:0:0:0:
192,192,242304,1,2,0:0:0:0:
320,192,242765,1,2,0:0:0:0:
64,192,243227,1,2,0:0:0:0:
448,192,243688,1,2,0:0:0:0:
192,192,243996,1,0,0:0:0:0:
320,192,244150,1,0,0:0:0:0:
448,192,244304,1,12,0:0:0:0:
64,192,244304,1,8,0:0:0:0:
192,192,244765,1,8,0:0:0:0:
320,192,244765,1,8,0:0:0:0:
64,192,245227,1,8,0:0:0:0:
448,192,245227,1,8,0:0:0:0:
192,192,245688,1,8,0:0:0:0:
320,192,245688,1,8,0:0:0:0:
64,192,246150,1,8,0:0:0:0:
448,192,246150,1,8,0:0:0:0:
192,192,246458,1,8,0:0:0:0:
320,192,246765,1,8,0:0:0:0:
448,192,246765,1,8,0:0:0:0:
64,192,247227,1,8,0:0:0:0:
192,192,247227,1,8,0:0:0:0:
320,192,247688,1,8,0:0:0:0:
448,192,247688,1,8,0:0:0:0:
64,192,248150,1,8,0:0:0:0:
192,192,248150,1,8,0:0:0:0:
320,192,248612,1,8,0:0:0:0:
448,192,248612,1,8,0:0:0:0:
192,192,248919,1,8,0:0:0:0:
320,192,248919,1,8,0:0:0:0:
64,192,249227,1,8,0:0:0:0:
448,192,249227,1,8,0:0:0:0:
192,192,249688,1,8,0:0:0:0:
320,192,249688,1,8,0:0:0:0:
64,192,250150,1,8,0:0:0:0:
448,192,250150,1,8,0:0:0:0:
192,192,250612,1,8,0:0:0:0:
320,192,250612,1,8,0:0:0:0:
64,192,251073,1,8,0:0:0:0:
448,192,251073,1,8,0:0:0:0:
320,192,251381,1,8,0:0:0:0:
64,192,251688,1,8,0:0:0:0:
192,192,251688,1,8,0:0:0:0:
320,192,252150,1,8,0:0:0:0:
192,192,252150,1,8,0:0:0:0:
320,192,252612,1,8,0:0:0:0:
448,192,252612,1,8,0:0:0:0:
64,192,252919,128,2,253535:0:0:0:0:
448,192,253535,1,2,0:0:0:0:
320,192,253688,1,2,0:0:0:0:
192,192,253842,1,2,0:0:0:0:
64,192,253996,1,2,0:0:0:0:
448,192,254150,128,0,255695:0:0:0:0:
320,192,256003,1,8,0:0:0:0:
192,192,256003,1,8,0:0:0:0:
192,192,256157,1,8,0:0:0:0:
320,192,256157,1,8,0:0:0:0:
