osu file format v14

[General]
AudioFilename: audio.mp3
AudioLeadIn: 0
PreviewTime: -1
Countdown: 0
SampleSet: Normal
StackLeniency: 0.7
Mode: 3
LetterboxInBreaks: 0
SpecialStyle: 0
WidescreenStoryboard: 1

[Editor]
DistanceSpacing: 1.2
BeatDivisor: 4
GridSize: 4
TimelineZoom: 1

[Metadata]
Title:Valkyrie Ikusa Otome
TitleUnicode:Valkyrie Ikusa Otome
Artist:Wagakki band
ArtistUnicode:Wagakki band
Creator:HybridLiam
Version:Expert
Source:Sousei No Onmyouji
Tags:Anime, Twin Star Exocists, 双星の陰陽師, Opening
BeatmapID:1346154
BeatmapSetID:634434

[Difficulty]
HPDrainRate:8
CircleSize:4
OverallDifficulty:8
ApproachRate:5
SliderMultiplier:1.4
SliderTickRate:1

[Events]
//Background and Video events
0,0,"Background.jpg",0,0
//Break Periods
//Storyboard Layer 0 (Background)
//Storyboard Layer 1 (Fail)
//Storyboard Layer 2 (Pass)
//Storyboard Layer 3 (Foreground)
//Storyboard Sound Samples

[TimingPoints]
-613.567794242936,307.692307692308,4,1,1,70,1,0
65847,307.692307692308,4,1,1,70,1,1
85539,307.692307692308,4,1,1,70,1,0
144615,307.692307692308,4,1,1,70,1,1
164306,307.692307692308,4,1,1,70,1,0
187690,307.692307692308,4,1,1,70,1,1
192613,307.692307692308,4,1,1,70,1,0
215074,307.692307692308,4,1,1,70,1,1
216017,307.692307692308,4,1,1,70,1,1
224612,307.692307692308,4,1,1,70,1,0
254157,307.692307692308,3,1,1,70,1,0

[HitObjects]
64,192,1847,5,0,0:0:0:0:
448,192,1847,1,0,0:0:0:0:
64,192,2001,1,0,0:0:0:0:
448,192,2001,1,0,0:0:0:0:
192,192,4309,1,0,0:0:0:0:
320,192,4309,1,0,0:0:0:0:
192,192,4463,1,0,0:0:0:0:
320,192,4463,1,0,0:0:0:0:
64,192,6617,1,0,0:0:0:0:
192,192,6694,1,0,0:0:0:0:
320,192,6771,1,8,0:0:0:0:
448,192,6771,128,8,7078:0:0:0:0:
320,192,7078,1,0,0:0:0:0:
192,192,7232,1,8,0:0:0:0:
64,192,7232,128,8,7540:0:0:0:0:
192,192,7540,1,0,0:0:0:0:
320,192,7694,1,8,0:0:0:0:
448,192,7694,128,8,8001:0:0:0:0:
320,192,8001,1,0,0:0:0:0:
192,192,8155,1,8,0:0:0:0:
64,192,8155,128,8,8463:0:0:0:0:
192,192,8463,1,0,0:0:0:0:
448,192,8617,128,8,8924:0:0:0:0:
64,192,8617,1,0,0:0:0:0:
320,192,8924,128,8,9232:0:0:0:0:
192,192,8924,1,0,0:0:0:0:
64,192,9232,1,8,0:0:0:0:
192,192,9232,1,8,0:0:0:0:
448,192,9386,1,0,0:0:0:0:
320,192,9463,1,0,0:0:0:0:
192,192,9540,1,0,0:0:0:0:
64,192,9540,1,0,0:0:0:0:
320,192,9694,1,8,0:0:0:0:
448,192,9694,1,8,0:0:0:0:
64,192,9847,1,0,0:0:0:0:
192,192,9924,1,0,0:0:0:0:
320,192,10001,1,0,0:0:0:0:
448,192,10001,1,0,0:0:0:0:
192,192,10155,1,8,0:0:0:0:
64,192,10155,1,8,0:0:0:0:
448,192,10309,1,0,0:0:0:0:
320,192,10386,1,0,0:0:0:0:
192,192,10463,1,0,0:0:0:0:
64,192,10463,1,0,0:0:0:0:
320,192,10617,1,8,0:0:0:0:
448,192,10617,1,8,0:0:0:0:
64,192,10771,1,0,0:0:0:0:
448,192,10771,1,0,0:0:0:0:
192,192,10847,1,0,0:0:0:0:
320,192,10847,1,0,0:0:0:0:
64,192,10924,1,0,0:0:0:0:
448,192,10924,1,0,0:0:0:0:
192,192,11078,1,0,0:0:0:0:
320,192,11078,1,0,0:0:0:0:
64,192,11232,1,8,0:0:0:0:
448,192,11232,1,8,0:0:0:0:
448,192,11694,1,8,0:0:0:0:
64,192,11694,1,6,0:0:0:0:
192,192,11694,1,8,0:0:0:0:
448,192,12001,1,0,0:0:0:0:
320,192,12001,1,8,0:0:0:0:
192,192,12155,1,2,0:0:0:0:
64,192,12309,1,0,0:0:0:0:
320,192,12309,1,8,0:0:0:0:
448,192,12463,1,0,0:0:0:0:
64,192,12617,1,2,0:0:0:0:
192,192,12617,1,8,0:0:0:0:
320,192,12771,1,0,0:0:0:0:
192,192,12847,1,0,0:0:0:0:
448,192,12924,1,8,0:0:0:0:
64,192,12924,1,0,0:0:0:0:
320,192,13078,1,2,0:0:0:0:
192,192,13232,1,8,0:0:0:0:
64,192,13232,1,0,0:0:0:0:
448,192,13386,1,0,0:0:0:0:
320,192,13463,1,0,0:0:0:0:
64,192,13540,1,2,0:0:0:0:
448,192,13540,1,8,0:0:0:0:
192,192,13694,1,0,0:0:0:0:
448,192,13847,1,2,0:0:0:0:
320,192,13847,1,8,0:0:0:0:
64,192,14001,1,0,0:0:0:0:
192,192,14078,1,0,0:0:0:0:
64,192,14155,1,8,0:0:0:0:
448,192,14155,1,2,0:0:0:0:
320,192,14309,1,0,0:0:0:0:
192,192,14463,1,8,0:0:0:0:
64,192,14463,1,0,0:0:0:0:
320,192,14617,1,2,0:0:0:0:
448,192,14771,1,8,0:0:0:0:
192,192,14771,1,0,0:0:0:0:
64,192,14924,1,0,0:0:0:0:
448,192,15078,1,2,0:0:0:0:
320,192,15078,1,8,0:0:0:0:
192,192,15232,1,0,0:0:0:0:
320,192,15309,1,0,0:0:0:0:
448,192,15386,1,0,0:0:0:0:
64,192,15386,1,8,0:0:0:0:
192,192,15540,1,2,0:0:0:0:
320,192,15694,1,0,0:0:0:0:
448,192,15694,1,8,0:0:0:0:
64,192,15847,1,0,0:0:0:0:
192,192,15924,1,0,0:0:0:0:
64,192,16001,1,8,0:0:0:0:
448,192,16001,1,2,0:0:0:0:
320,192,16155,1,0,0:0:0:0:
192,192,16309,1,8,0:0:0:0:
64,192,16309,1,2,0:0:0:0:
448,192,16463,1,0,0:0:0:0:
192,192,16540,1,0,0:0:0:0:
448,192,16617,1,8,0:0:0:0:
64,192,16617,1,2,0:0:0:0:
320,192,16617,1,0,0:0:0:0:
192,192,16771,1,0,0:0:0:0:
448,192,16924,1,0,0:0:0:0:
320,192,16924,1,8,0:0:0:0:
192,192,17078,1,2,0:0:0:0:
64,192,17232,1,0,0:0:0:0:
320,192,17232,1,8,0:0:0:0:
448,192,17386,1,0,0:0:0:0:
64,192,17540,1,2,0:0:0:0:
192,192,17540,1,8,0:0:0:0:
320,192,17694,1,0,0:0:0:0:
192,192,17771,1,0,0:0:0:0:
448,192,17847,1,8,0:0:0:0:
64,192,17847,1,0,0:0:0:0:
320,192,18001,1,2,0:0:0:0:
192,192,18155,1,8,0:0:0:0:
64,192,18155,1,0,0:0:0:0:
448,192,18309,1,0,0:0:0:0:
320,192,18386,1,0,0:0:0:0:
64,192,18463,1,2,0:0:0:0:
448,192,18463,1,8,0:0:0:0:
192,192,18617,1,0,0:0:0:0:
448,192,18771,1,2,0:0:0:0:
320,192,18771,1,8,0:0:0:0:
64,192,18924,1,0,0:0:0:0:
192,192,19001,1,0,0:0:0:0:
64,192,19078,1,8,0:0:0:0:
448,192,19078,1,2,0:0:0:0:
320,192,19232,1,0,0:0:0:0:
192,192,19386,1,8,0:0:0:0:
64,192,19386,1,0,0:0:0:0:
320,192,19540,1,2,0:0:0:0:
448,192,19694,1,8,0:0:0:0:
192,192,19694,1,0,0:0:0:0:
64,192,19847,1,0,0:0:0:0:
448,192,20001,1,2,0:0:0:0:
320,192,20001,1,8,0:0:0:0:
192,192,20155,1,0,0:0:0:0:
320,192,20232,1,0,0:0:0:0:
448,192,20309,1,0,0:0:0:0:
64,192,20309,1,8,0:0:0:0:
192,192,20463,1,2,0:0:0:0:
320,192,20617,1,0,0:0:0:0:
448,192,20617,1,8,0:0:0:0:
64,192,20771,1,0,0:0:0:0:
192,192,20847,1,0,0:0:0:0:
64,192,20924,1,8,0:0:0:0:
448,192,20924,1,2,0:0:0:0:
320,192,21078,1,0,0:0:0:0:
192,192,21232,1,8,0:0:0:0:
64,192,21232,1,2,0:0:0:0:
448,192,21386,1,0,0:0:0:0:
320,192,21463,1,0,0:0:0:0:
192,192,21540,1,4,0:0:0:0:
64,192,21540,128,0,23540:0:0:0:0:
192,192,23386,1,0,0:0:0:0:
320,192,23386,1,8,0:0:0:0:
448,192,23386,1,8,0:0:0:0:
448,192,23540,1,8,0:0:0:0:
192,192,23540,1,0,0:0:0:0:
320,192,23540,1,8,0:0:0:0:
448,192,23847,1,0,0:0:0:0:
320,192,23924,1,0,0:0:0:0:
192,192,23924,1,0,0:0:0:0:
448,192,24001,1,4,0:0:0:0:
64,192,24001,128,0,25232:0:0:0:0:
320,192,24309,1,0,0:0:0:0:
192,192,24617,1,0,0:0:0:0:
448,192,24924,1,8,0:0:0:0:
320,192,24924,1,8,0:0:0:0:
192,192,24924,1,0,0:0:0:0:
448,192,25232,128,0,25540:0:0:0:0:
192,192,25232,1,0,0:0:0:0:
320,192,25540,128,0,25847:0:0:0:0:
64,192,25540,1,0,0:0:0:0:
192,192,25847,128,0,26155:0:0:0:0:
448,192,25847,1,0,0:0:0:0:
64,192,26155,128,0,26463:0:0:0:0:
448,192,26155,1,8,0:0:0:0:
320,192,26155,1,8,0:0:0:0:
192,192,26463,128,0,26771:0:0:0:0:
320,192,26463,1,0,0:0:0:0:
320,192,26771,128,0,27078:0:0:0:0:
64,192,26771,1,0,0:0:0:0:
448,192,27078,128,0,27386:0:0:0:0:
192,192,27078,1,0,0:0:0:0:
64,192,27386,128,0,27694:0:0:0:0:
192,192,27386,1,8,0:0:0:0:
320,192,27386,1,8,0:0:0:0:
448,192,27694,128,0,28001:0:0:0:0:
320,192,27694,1,0,0:0:0:0:
320,192,28001,128,0,28309:0:0:0:0:
64,192,28001,1,0,0:0:0:0:
192,192,28309,128,0,28617:0:0:0:0:
448,192,28309,1,0,0:0:0:0:
64,192,28617,128,0,28924:0:0:0:0:
320,192,28617,1,8,0:0:0:0:
448,192,28617,1,8,0:0:0:0:
448,192,28771,1,0,0:0:0:0:
320,192,28847,1,0,0:0:0:0:
192,192,28924,128,0,29232:0:0:0:0:
448,192,28924,1,4,0:0:0:0:
64,192,29232,128,0,29540:0:0:0:0:
448,192,29232,1,0,0:0:0:0:
192,192,29540,128,0,30155:0:0:0:0:
320,192,29540,1,0,0:0:0:0:
64,192,29847,1,8,0:0:0:0:
448,192,29847,1,8,0:0:0:0:
448,192,30155,128,0,30463:0:0:0:0:
320,192,30155,1,0,0:0:0:0:
320,192,30463,128,0,30771:0:0:0:0:
64,192,30463,1,0,0:0:0:0:
192,192,30771,128,0,31078:0:0:0:0:
448,192,30771,1,0,0:0:0:0:
64,192,31078,128,0,31386:0:0:0:0:
320,192,31078,1,8,0:0:0:0:
448,192,31078,1,8,0:0:0:0:
192,192,31386,128,0,31694:0:0:0:0:
448,192,31386,1,0,0:0:0:0:
320,192,31694,128,0,32001:0:0:0:0:
64,192,31694,1,0,0:0:0:0:
448,192,32001,128,0,32617:0:0:0:0:
64,192,32001,1,0,0:0:0:0:
64,192,32309,1,0,0:0:0:0:
192,192,32463,1,0,0:0:0:0:
320,192,32617,1,2,0:0:0:0:
64,192,32617,1,8,0:0:0:0:
192,192,32771,1,0,0:0:0:0:
448,192,32924,1,2,0:0:0:0:
320,192,32924,1,8,0:0:0:0:
192,192,33078,1,0,0:0:0:0:
64,192,33232,1,8,0:0:0:0:
448,192,33232,1,2,0:0:0:0:
320,192,33386,1,0,0:0:0:0:
192,192,33540,1,2,0:0:0:0:
64,192,33694,1,0,0:0:0:0:
192,192,33847,128,0,34463:0:0:0:0:
448,192,33847,1,2,0:0:0:0:
64,192,34155,1,8,0:0:0:0:
320,192,34155,1,8,0:0:0:0:
448,192,34309,1,2,0:0:0:0:
64,192,34463,128,0,35078:0:0:0:0:
320,192,34771,1,8,0:0:0:0:
448,192,34771,1,8,0:0:0:0:
192,192,35078,128,0,35694:0:0:0:0:
320,192,35078,1,2,0:0:0:0:
64,192,35386,1,8,0:0:0:0:
448,192,35386,1,8,0:0:0:0:
320,192,35694,128,0,36309:0:0:0:0:
64,192,35847,1,0,0:0:0:0:
448,192,36001,1,2,0:0:0:0:
192,192,36001,1,8,0:0:0:0:
448,192,36309,128,2,37540:0:0:0:0:
64,192,36309,1,0,0:0:0:0:
64,192,36617,1,8,0:0:0:0:
192,192,36617,1,8,0:0:0:0:
320,192,36771,1,2,0:0:0:0:
192,192,36924,1,0,0:0:0:0:
64,192,37078,1,0,0:0:0:0:
192,192,37232,1,8,0:0:0:0:
320,192,37232,1,8,0:0:0:0:
64,192,37540,1,2,0:0:0:0:
320,192,37540,1,0,0:0:0:0:
64,192,37847,1,8,0:0:0:0:
192,192,37847,1,8,0:0:0:0:
448,192,38001,1,2,0:0:0:0:
320,192,38155,128,0,38771:0:0:0:0:
192,192,38309,1,0,0:0:0:0:
64,192,38463,1,2,0:0:0:0:
448,192,38463,1,8,0:0:0:0:
64,192,38771,128,0,40001:0:0:0:0:
192,192,38771,1,2,0:0:0:0:
320,192,39078,1,8,0:0:0:0:
448,192,39078,1,8,0:0:0:0:
192,192,39232,1,2,0:0:0:0:
448,192,39540,1,0,0:0:0:0:
320,192,39694,1,2,0:0:0:0:
192,192,39694,1,8,0:0:0:0:
192,192,40001,128,0,41232:0:0:0:0:
448,192,40001,1,2,0:0:0:0:
448,192,40309,1,8,0:0:0:0:
64,192,40309,1,8,0:0:0:0:
320,192,40463,1,2,0:0:0:0:
448,192,40617,1,0,0:0:0:0:
64,192,40771,1,0,0:0:0:0:
320,192,40924,1,8,0:0:0:0:
448,192,40924,1,2,0:0:0:0:
320,192,41232,128,0,42463:0:0:0:0:
64,192,41232,1,0,0:0:0:0:
448,192,41232,1,2,0:0:0:0:
448,192,41540,1,8,0:0:0:0:
64,192,41540,1,8,0:0:0:0:
192,192,41694,1,2,0:0:0:0:
64,192,41847,1,0,0:0:0:0:
448,192,42001,1,0,0:0:0:0:
192,192,42155,1,10,0:0:0:0:
64,192,42155,1,8,0:0:0:0:
448,192,42463,128,0,43540:0:0:0:0:
64,192,42617,128,0,42924:0:0:0:0:
192,192,42771,128,0,43078:0:0:0:0:
320,192,42924,128,0,43232:0:0:0:0:
64,192,43078,128,0,43386:0:0:0:0:
192,192,43232,128,0,43540:0:0:0:0:
320,192,43386,128,0,43540:0:0:0:0:
64,192,43540,1,0,0:0:0:0:
320,192,43694,1,0,0:0:0:0:
448,192,43694,1,4,0:0:0:0:
64,192,43847,1,0,0:0:0:0:
192,192,43847,1,0,0:0:0:0:
192,192,44001,1,0,0:0:0:0:
64,192,44001,1,0,0:0:0:0:
64,192,44155,1,0,0:0:0:0:
192,192,44155,1,0,0:0:0:0:
320,192,44309,1,8,0:0:0:0:
448,192,44309,1,8,0:0:0:0:
192,192,44309,1,0,0:0:0:0:
192,192,44617,1,0,0:0:0:0:
64,192,44617,1,0,0:0:0:0:
320,192,44771,1,0,0:0:0:0:
448,192,44771,1,0,0:0:0:0:
320,192,44924,1,0,0:0:0:0:
448,192,44924,1,0,0:0:0:0:
448,192,45078,1,0,0:0:0:0:
320,192,45078,1,0,0:0:0:0:
64,192,45232,1,8,0:0:0:0:
192,192,45232,1,8,0:0:0:0:
320,192,45232,1,0,0:0:0:0:
320,192,45540,1,0,0:0:0:0:
448,192,45540,1,0,0:0:0:0:
192,192,45694,1,0,0:0:0:0:
320,192,45694,1,0,0:0:0:0:
64,192,45847,1,8,0:0:0:0:
448,192,45847,1,0,0:0:0:0:
192,192,45847,1,8,0:0:0:0:
192,192,46155,1,0,0:0:0:0:
64,192,46155,1,0,0:0:0:0:
448,192,46309,1,0,0:0:0:0:
320,192,46309,1,0,0:0:0:0:
320,192,46463,1,0,0:0:0:0:
448,192,46463,1,0,0:0:0:0:
320,192,46617,1,0,0:0:0:0:
448,192,46617,1,0,0:0:0:0:
192,192,46771,1,8,0:0:0:0:
64,192,46771,1,8,0:0:0:0:
320,192,46771,1,0,0:0:0:0:
320,192,47078,1,0,0:0:0:0:
448,192,47078,1,0,0:0:0:0:
192,192,47232,1,0,0:0:0:0:
64,192,47232,1,0,0:0:0:0:
64,192,47386,1,0,0:0:0:0:
192,192,47386,1,0,0:0:0:0:
192,192,47540,1,0,0:0:0:0:
64,192,47540,1,0,0:0:0:0:
320,192,47694,1,0,0:0:0:0:
448,192,47694,1,0,0:0:0:0:
192,192,47771,1,0,0:0:0:0:
64,192,47771,1,0,0:0:0:0:
320,192,47847,1,0,0:0:0:0:
448,192,47847,1,0,0:0:0:0:
192,192,47924,1,0,0:0:0:0:
64,192,47924,1,0,0:0:0:0:
320,192,48001,128,0,48155:0:0:0:0:
448,192,48001,1,0,0:0:0:0:
192,192,48155,128,0,48309:0:0:0:0:
64,192,48309,128,0,48617:0:0:0:0:
320,192,48309,1,8,0:0:0:0:
448,192,48309,1,8,0:0:0:0:
320,192,48617,1,0,0:0:0:0:
448,192,48617,1,0,0:0:0:0:
64,192,48771,1,0,0:0:0:0:
192,192,48771,1,0,0:0:0:0:
192,192,48924,1,0,0:0:0:0:
64,192,48924,1,0,0:0:0:0:
64,192,49078,1,0,0:0:0:0:
192,192,49078,1,0,0:0:0:0:
320,192,49232,1,8,0:0:0:0:
448,192,49232,1,8,0:0:0:0:
192,192,49232,1,0,0:0:0:0:
192,192,49540,1,0,0:0:0:0:
64,192,49540,1,0,0:0:0:0:
320,192,49694,1,0,0:0:0:0:
448,192,49694,1,0,0:0:0:0:
320,192,49847,1,0,0:0:0:0:
448,192,49847,1,0,0:0:0:0:
448,192,50001,1,0,0:0:0:0:
320,192,50001,1,0,0:0:0:0:
64,192,50155,1,8,0:0:0:0:
192,192,50155,1,8,0:0:0:0:
320,192,50155,1,0,0:0:0:0:
320,192,50463,1,0,0:0:0:0:
448,192,50463,1,0,0:0:0:0:
192,192,50617,1,0,0:0:0:0:
320,192,50617,1,0,0:0:0:0:
64,192,50771,1,8,0:0:0:0:
448,192,50771,1,0,0:0:0:0:
192,192,50771,1,8,0:0:0:0:
192,192,51078,1,0,0:0:0:0:
64,192,51078,1,0,0:0:0:0:
448,192,51232,1,0,0:0:0:0:
320,192,51232,1,0,0:0:0:0:
448,192,51386,1,0,0:0:0:0:
192,192,51386,1,0,0:0:0:0:
448,192,51540,1,0,0:0:0:0:
64,192,51540,1,0,0:0:0:0:
192,192,51694,1,8,0:0:0:0:
64,192,51694,1,8,0:0:0:0:
320,192,51694,1,0,0:0:0:0:
320,192,52001,1,0,0:0:0:0:
448,192,52001,1,0,0:0:0:0:
192,192,52155,1,0,0:0:0:0:
64,192,52155,1,0,0:0:0:0:
64,192,52309,1,0,0:0:0:0:
320,192,52309,1,0,0:0:0:0:
64,192,52463,1,0,0:0:0:0:
448,192,52463,1,0,0:0:0:0:
192,192,52617,1,8,0:0:0:0:
320,192,52617,1,8,0:0:0:0:
320,192,52771,1,8,0:0:0:0:
192,192,52771,1,8,0:0:0:0:
448,192,52924,1,0,0:0:0:0:
64,192,52924,1,0,0:0:0:0:
64,192,53078,1,0,0:0:0:0:
320,192,53078,1,0,0:0:0:0:
192,192,53232,1,0,0:0:0:0:
64,192,53232,1,0,0:0:0:0:
448,192,53309,1,0,0:0:0:0:
320,192,53309,1,0,0:0:0:0:
192,192,53386,1,0,0:0:0:0:
64,192,53386,1,0,0:0:0:0:
320,192,53463,1,0,0:0:0:0:
448,192,53463,1,0,0:0:0:0:
64,192,53540,128,4,54001:0:0:0:0:
192,192,53540,1,8,0:0:0:0:
320,192,53847,1,2,0:0:0:0:
192,192,54001,128,0,54463:0:0:0:0:
448,192,54001,1,8,0:0:0:0:
320,192,54155,1,0,0:0:0:0:
64,192,54309,1,0,0:0:0:0:
320,192,54463,128,0,54771:0:0:0:0:
448,192,54463,1,8,0:0:0:0:
64,192,54617,1,0,0:0:0:0:
448,192,54771,128,0,55232:0:0:0:0:
192,192,54771,1,8,0:0:0:0:
320,192,54924,1,2,0:0:0:0:
64,192,54924,1,0,0:0:0:0:
192,192,55078,1,0,0:0:0:0:
320,192,55232,128,0,55694:0:0:0:0:
64,192,55232,1,10,0:0:0:0:
192,192,55386,1,0,0:0:0:0:
448,192,55540,1,0,0:0:0:0:
192,192,55694,128,8,56001:0:0:0:0:
64,192,55694,1,8,0:0:0:0:
448,192,55847,1,0,0:0:0:0:
64,192,56001,128,0,56463:0:0:0:0:
448,192,56001,1,4,0:0:0:0:
320,192,56001,1,8,0:0:0:0:
320,192,56309,1,2,0:0:0:0:
192,192,56463,128,0,56924:0:0:0:0:
64,192,56617,1,0,0:0:0:0:
448,192,56771,1,0,0:0:0:0:
320,192,56924,128,0,57232:0:0:0:0:
64,192,56924,1,2,0:0:0:0:
64,192,57078,1,0,0:0:0:0:
448,192,57232,128,0,57694:0:0:0:0:
192,192,57232,1,2,0:0:0:0:
64,192,57386,1,0,0:0:0:0:
192,192,57540,1,0,0:0:0:0:
320,192,57694,128,0,58155:0:0:0:0:
64,192,57694,1,0,0:0:0:0:
192,192,57847,1,0,0:0:0:0:
64,192,58001,1,0,0:0:0:0:
192,192,58155,128,0,58463:0:0:0:0:
448,192,58155,1,2,0:0:0:0:
64,192,58309,1,0,0:0:0:0:
448,192,58463,1,6,0:0:0:0:
64,192,58540,1,0,0:0:0:0:
320,192,58617,1,0,0:0:0:0:
192,192,58617,1,0,0:0:0:0:
448,192,58771,1,2,0:0:0:0:
192,192,58847,1,0,0:0:0:0:
320,192,58924,1,0,0:0:0:0:
64,192,58924,1,0,0:0:0:0:
448,192,59078,1,2,0:0:0:0:
64,192,59155,1,0,0:0:0:0:
320,192,59232,1,0,0:0:0:0:
192,192,59232,1,0,0:0:0:0:
448,192,59386,1,2,0:0:0:0:
192,192,59463,1,0,0:0:0:0:
320,192,59540,1,0,0:0:0:0:
64,192,59540,1,0,0:0:0:0:
64,192,59694,1,2,0:0:0:0:
448,192,59771,1,0,0:0:0:0:
192,192,59847,1,0,0:0:0:0:
320,192,59847,1,0,0:0:0:0:
64,192,60001,1,2,0:0:0:0:
320,192,60078,1,0,0:0:0:0:
192,192,60155,1,0,0:0:0:0:
448,192,60155,1,0,0:0:0:0:
64,192,60309,1,2,0:0:0:0:
448,192,60386,1,0,0:0:0:0:
192,192,60463,1,0,0:0:0:0:
320,192,60463,1,0,0:0:0:0:
64,192,60617,1,2,0:0:0:0:
320,192,60694,1,0,0:0:0:0:
192,192,60771,1,0,0:0:0:0:
448,192,60771,1,0,0:0:0:0:
448,192,60924,1,2,0:0:0:0:
320,192,61001,1,2,0:0:0:0:
64,192,61078,1,2,0:0:0:0:
192,192,61155,1,2,0:0:0:0:
448,192,61232,1,2,0:0:0:0:
320,192,61309,1,2,0:0:0:0:
64,192,61386,1,2,0:0:0:0:
192,192,61463,1,2,0:0:0:0:
448,192,61540,1,2,0:0:0:0:
320,192,61617,1,2,0:0:0:0:
64,192,61694,1,2,0:0:0:0:
192,192,61771,1,2,0:0:0:0:
448,192,61847,1,2,0:0:0:0:
320,192,61924,1,2,0:0:0:0:
64,192,62001,1,2,0:0:0:0:
192,192,62078,1,2,0:0:0:0:
320,192,62155,1,0,0:0:0:0:
448,192,62155,1,0,0:0:0:0:
192,192,62232,1,0,0:0:0:0:
64,192,62232,1,0,0:0:0:0:
320,192,62309,1,0,0:0:0:0:
448,192,62309,1,0,0:0:0:0:
192,192,62386,1,0,0:0:0:0:
64,192,62386,1,0,0:0:0:0:
448,192,62463,1,0,0:0:0:0:
320,192,62540,1,0,0:0:0:0:
192,192,62617,1,0,0:0:0:0:
64,192,62617,1,0,0:0:0:0:
320,192,62694,1,0,0:0:0:0:
448,192,62694,1,0,0:0:0:0:
192,192,62771,1,0,0:0:0:0:
64,192,62771,1,0,0:0:0:0:
320,192,62847,1,0,0:0:0:0:
448,192,62847,1,0,0:0:0:0:
64,192,62924,1,0,0:0:0:0:
192,192,63001,1,0,0:0:0:0:
320,192,63078,1,0,0:0:0:0:
448,192,63078,1,0,0:0:0:0:
192,192,63155,1,0,0:0:0:0:
64,192,63155,1,0,0:0:0:0:
320,192,63232,1,0,0:0:0:0:
448,192,63232,1,0,0:0:0:0:
64,192,63309,1,0,0:0:0:0:
192,192,63386,1,8,0:0:0:0:
320,192,63386,1,8,0:0:0:0:
448,192,63386,1,8,0:0:0:0:
64,192,63540,1,0,0:0:0:0:
192,192,63540,1,0,0:0:0:0:
320,192,63694,1,0,0:0:0:0:
448,192,63694,1,0,0:0:0:0:
64,192,63847,1,8,0:0:0:0:
192,192,63847,1,8,0:0:0:0:
320,192,63847,1,8,0:0:0:0:
320,192,64001,1,0,0:0:0:0:
448,192,64001,1,0,0:0:0:0:
192,192,64155,1,0,0:0:0:0:
64,192,64155,1,0,0:0:0:0:
64,192,64309,1,8,0:0:0:0:
320,192,64309,1,8,0:0:0:0:
448,192,64309,1,8,0:0:0:0:
320,192,64463,1,0,0:0:0:0:
192,192,64463,1,0,0:0:0:0:
64,192,64617,1,8,0:0:0:0:
192,192,64617,1,8,0:0:0:0:
448,192,64617,1,0,0:0:0:0:
448,192,64771,1,8,0:0:0:0:
320,192,64771,1,8,0:0:0:0:
192,192,64924,1,8,0:0:0:0:
64,192,64924,1,8,0:0:0:0:
320,192,65001,1,0,0:0:0:0:
448,192,65001,1,0,0:0:0:0:
64,192,65078,1,8,0:0:0:0:
192,192,65078,1,8,0:0:0:0:
320,192,65155,1,8,0:0:0:0:
448,192,65155,1,8,0:0:0:0:
64,192,65232,128,0,65694:0:0:0:0:
192,192,65386,128,0,65694:0:0:0:0:
320,192,65540,128,0,65694:0:0:0:0:
448,192,65694,1,0,0:0:0:0:
64,192,65847,1,2,0:0:0:0:
448,192,65847,1,12,0:0:0:0:
192,192,65847,1,0,0:0:0:0:
448,192,66154,1,8,0:0:0:0:
64,192,66154,1,0,0:0:0:0:
192,192,66308,1,2,0:0:0:0:
320,192,66462,1,8,0:0:0:0:
64,192,66462,1,0,0:0:0:0:
448,192,66616,1,0,0:0:0:0:
192,192,66770,1,8,0:0:0:0:
64,192,66770,1,2,0:0:0:0:
320,192,66923,1,0,0:0:0:0:
192,192,67000,1,0,0:0:0:0:
64,192,67077,1,0,0:0:0:0:
448,192,67077,1,8,0:0:0:0:
320,192,67231,1,2,0:0:0:0:
64,192,67385,1,0,0:0:0:0:
192,192,67385,1,8,0:0:0:0:
448,192,67539,1,0,0:0:0:0:
320,192,67616,1,0,0:0:0:0:
448,192,67693,1,8,0:0:0:0:
64,192,67693,1,2,0:0:0:0:
192,192,67847,1,0,0:0:0:0:
320,192,68000,1,8,0:0:0:0:
448,192,68000,1,2,0:0:0:0:
64,192,68154,1,0,0:0:0:0:
192,192,68231,1,0,0:0:0:0:
448,192,68308,1,2,0:0:0:0:
64,192,68308,1,8,0:0:0:0:
320,192,68462,1,0,0:0:0:0:
64,192,68616,1,0,0:0:0:0:
192,192,68616,1,8,0:0:0:0:
320,192,68770,1,2,0:0:0:0:
192,192,68923,1,0,0:0:0:0:
448,192,68923,1,8,0:0:0:0:
64,192,69077,1,0,0:0:0:0:
320,192,69231,1,8,0:0:0:0:
448,192,69231,1,2,0:0:0:0:
192,192,69385,1,0,0:0:0:0:
320,192,69462,1,0,0:0:0:0:
64,192,69539,1,8,0:0:0:0:
448,192,69539,1,0,0:0:0:0:
192,192,69693,1,2,0:0:0:0:
448,192,69847,1,8,0:0:0:0:
320,192,69847,1,0,0:0:0:0:
64,192,70000,1,0,0:0:0:0:
192,192,70077,1,0,0:0:0:0:
448,192,70154,1,2,0:0:0:0:
64,192,70154,1,8,0:0:0:0:
320,192,70308,1,0,0:0:0:0:
64,192,70462,1,2,0:0:0:0:
192,192,70462,1,8,0:0:0:0:
448,192,70616,1,0,0:0:0:0:
192,192,70693,1,0,0:0:0:0:
320,192,70770,1,0,0:0:0:0:
448,192,70770,1,8,0:0:0:0:
64,192,70770,1,2,0:0:0:0:
192,192,70923,1,0,0:0:0:0:
320,192,71077,1,8,0:0:0:0:
448,192,71077,1,0,0:0:0:0:
192,192,71231,1,2,0:0:0:0:
320,192,71385,1,8,0:0:0:0:
64,192,71385,1,0,0:0:0:0:
448,192,71539,1,0,0:0:0:0:
192,192,71693,1,8,0:0:0:0:
64,192,71693,1,2,0:0:0:0:
320,192,71847,1,0,0:0:0:0:
192,192,71923,1,0,0:0:0:0:
64,192,72000,1,0,0:0:0:0:
448,192,72000,1,8,0:0:0:0:
320,192,72154,1,2,0:0:0:0:
64,192,72308,1,0,0:0:0:0:
192,192,72308,1,8,0:0:0:0:
448,192,72462,1,0,0:0:0:0:
320,192,72539,1,0,0:0:0:0:
448,192,72616,1,8,0:0:0:0:
64,192,72616,1,2,0:0:0:0:
192,192,72770,1,0,0:0:0:0:
320,192,72923,1,8,0:0:0:0:
448,192,72923,1,2,0:0:0:0:
64,192,73077,1,0,0:0:0:0:
192,192,73154,1,0,0:0:0:0:
448,192,73231,1,2,0:0:0:0:
64,192,73231,1,8,0:0:0:0:
320,192,73385,1,0,0:0:0:0:
64,192,73539,1,0,0:0:0:0:
192,192,73539,1,8,0:0:0:0:
320,192,73693,1,2,0:0:0:0:
192,192,73847,1,0,0:0:0:0:
448,192,73847,1,8,0:0:0:0:
64,192,74000,1,0,0:0:0:0:
320,192,74154,1,8,0:0:0:0:
448,192,74154,1,2,0:0:0:0:
192,192,74308,1,0,0:0:0:0:
320,192,74385,1,0,0:0:0:0:
64,192,74462,1,8,0:0:0:0:
448,192,74462,1,0,0:0:0:0:
192,192,74539,1,0,0:0:0:0:
320,192,74539,1,0,0:0:0:0:
64,192,74616,1,0,0:0:0:0:
448,192,74616,1,0,0:0:0:0:
192,192,74693,1,0,0:0:0:0:
320,192,74693,1,0,0:0:0:0:
448,192,74770,1,8,0:0:0:0:
64,192,74770,1,8,0:0:0:0:
64,192,74923,1,2,0:0:0:0:
192,192,75000,1,0,0:0:0:0:
448,192,75077,1,2,0:0:0:0:
320,192,75077,1,0,0:0:0:0:
64,192,75231,1,2,0:0:0:0:
192,192,75231,1,0,0:0:0:0:
320,192,75385,1,0,0:0:0:0:
448,192,75385,1,2,0:0:0:0:
192,192,75539,1,0,0:0:0:0:
64,192,75539,1,2,0:0:0:0:
320,192,75616,1,0,0:0:0:0:
64,192,75693,1,2,0:0:0:0:
448,192,75693,1,12,0:0:0:0:
192,192,75693,1,0,0:0:0:0:
320,192,75847,1,0,0:0:0:0:
448,192,76000,1,0,0:0:0:0:
64,192,76000,1,0,0:0:0:0:
192,192,76154,1,2,0:0:0:0:
320,192,76308,1,8,0:0:0:0:
64,192,76308,1,0,0:0:0:0:
448,192,76462,1,0,0:0:0:0:
192,192,76616,1,8,0:0:0:0:
64,192,76616,1,2,0:0:0:0:
320,192,76770,1,0,0:0:0:0:
192,192,76847,1,0,0:0:0:0:
64,192,76923,1,0,0:0:0:0:
448,192,76923,1,8,0:0:0:0:
320,192,77077,1,2,0:0:0:0:
64,192,77231,1,0,0:0:0:0:
192,192,77231,1,8,0:0:0:0:
448,192,77385,1,0,0:0:0:0:
320,192,77462,1,0,0:0:0:0:
448,192,77539,1,8,0:0:0:0:
64,192,77539,1,2,0:0:0:0:
192,192,77693,1,0,0:0:0:0:
320,192,77847,1,8,0:0:0:0:
448,192,77847,1,2,0:0:0:0:
64,192,78000,1,0,0:0:0:0:
192,192,78077,1,0,0:0:0:0:
448,192,78154,1,2,0:0:0:0:
64,192,78154,1,8,0:0:0:0:
320,192,78308,1,0,0:0:0:0:
64,192,78462,1,0,0:0:0:0:
192,192,78462,1,8,0:0:0:0:
320,192,78616,1,2,0:0:0:0:
192,192,78770,1,0,0:0:0:0:
448,192,78770,1,8,0:0:0:0:
64,192,78923,1,0,0:0:0:0:
320,192,79077,1,8,0:0:0:0:
448,192,79077,1,2,0:0:0:0:
192,192,79231,1,0,0:0:0:0:
320,192,79308,1,0,0:0:0:0:
64,192,79385,1,8,0:0:0:0:
448,192,79385,1,0,0:0:0:0:
192,192,79539,1,2,0:0:0:0:
448,192,79693,1,8,0:0:0:0:
320,192,79693,1,0,0:0:0:0:
64,192,79847,1,0,0:0:0:0:
192,192,79923,1,0,0:0:0:0:
448,192,80000,1,2,0:0:0:0:
64,192,80000,1,8,0:0:0:0:
320,192,80154,1,0,0:0:0:0:
64,192,80308,1,2,0:0:0:0:
192,192,80308,1,8,0:0:0:0:
448,192,80462,1,0,0:0:0:0:
192,192,80539,1,0,0:0:0:0:
64,192,80616,1,2,0:0:0:0:
448,192,80616,1,8,0:0:0:0:
320,192,80616,1,0,0:0:0:0:
192,192,80770,1,0,0:0:0:0:
320,192,80923,1,8,0:0:0:0:
448,192,80923,1,0,0:0:0:0:
192,192,81077,1,2,0:0:0:0:
320,192,81231,1,8,0:0:0:0:
64,192,81231,1,0,0:0:0:0:
448,192,81385,1,0,0:0:0:0:
192,192,81539,1,8,0:0:0:0:
64,192,81539,1,2,0:0:0:0:
320,192,81693,1,0,0:0:0:0:
192,192,81770,1,0,0:0:0:0:
64,192,81847,1,0,0:0:0:0:
448,192,81847,1,8,0:0:0:0:
320,192,82000,1,2,0:0:0:0:
64,192,82154,1,0,0:0:0:0:
192,192,82154,1,8,0:0:0:0:
448,192,82308,1,0,0:0:0:0:
320,192,82385,1,0,0:0:0:0:
448,192,82462,1,8,0:0:0:0:
64,192,82462,1,2,0:0:0:0:
192,192,82616,1,0,0:0:0:0:
320,192,82770,1,8,0:0:0:0:
448,192,82770,1,2,0:0:0:0:
64,192,82923,1,0,0:0:0:0:
192,192,83000,1,0,0:0:0:0:
448,192,83077,1,2,0:0:0:0:
64,192,83077,1,8,0:0:0:0:
320,192,83231,1,0,0:0:0:0:
64,192,83385,1,0,0:0:0:0:
192,192,83385,1,8,0:0:0:0:
320,192,83539,1,2,0:0:0:0:
192,192,83693,1,0,0:0:0:0:
448,192,83693,1,8,0:0:0:0:
64,192,83847,1,0,0:0:0:0:
320,192,84000,1,8,0:0:0:0:
448,192,84000,1,2,0:0:0:0:
192,192,84154,1,0,0:0:0:0:
320,192,84231,1,0,0:0:0:0:
64,192,84308,1,8,0:0:0:0:
448,192,84308,1,0,0:0:0:0:
192,192,84462,1,2,0:0:0:0:
448,192,84616,1,8,0:0:0:0:
320,192,84616,1,0,0:0:0:0:
64,192,84770,1,0,0:0:0:0:
192,192,84847,1,0,0:0:0:0:
448,192,84923,1,2,0:0:0:0:
64,192,84923,1,8,0:0:0:0:
320,192,85077,1,0,0:0:0:0:
64,192,85231,1,2,0:0:0:0:
192,192,85231,1,8,0:0:0:0:
448,192,85385,1,0,0:0:0:0:
320,192,85462,1,0,0:0:0:0:
64,192,85539,1,8,0:0:0:0:
192,192,85539,1,8,0:0:0:0:
448,192,85539,1,2,0:0:0:0:
64,192,85692,1,0,0:0:0:0:
320,192,85692,1,0,0:0:0:0:
192,192,85846,1,0,0:0:0:0:
64,192,85846,1,0,0:0:0:0:
64,192,86000,1,2,0:0:0:0:
320,192,86000,1,8,0:0:0:0:
448,192,86000,1,8,0:0:0:0:
448,192,86154,1,0,0:0:0:0:
192,192,86154,1,0,0:0:0:0:
448,192,86308,1,0,0:0:0:0:
320,192,86308,1,0,0:0:0:0:
64,192,86462,1,8,0:0:0:0:
192,192,86462,1,8,0:0:0:0:
448,192,86462,1,2,0:0:0:0:
320,192,86615,1,0,0:0:0:0:
192,192,86692,1,0,0:0:0:0:
64,192,86769,1,0,0:0:0:0:
448,192,86769,1,0,0:0:0:0:
320,192,86769,1,0,0:0:0:0:
192,192,86923,1,2,0:0:0:0:
448,192,86923,1,8,0:0:0:0:
320,192,86923,1,8,0:0:0:0:
64,192,87231,1,0,0:0:0:0:
192,192,87231,1,0,0:0:0:0:
192,192,87385,1,8,0:0:0:0:
64,192,87385,1,2,0:0:0:0:
320,192,87385,1,8,0:0:0:0:
320,192,87539,1,0,0:0:0:0:
448,192,87539,1,0,0:0:0:0:
448,192,87692,1,8,0:0:0:0:
64,192,87692,1,2,0:0:0:0:
320,192,87692,1,8,0:0:0:0:
192,192,88000,1,0,0:0:0:0:
448,192,88000,1,2,0:0:0:0:
64,192,88000,1,0,0:0:0:0:
64,192,88154,1,0,0:0:0:0:
320,192,88154,1,0,0:0:0:0:
64,192,88308,1,0,0:0:0:0:
192,192,88308,1,0,0:0:0:0:
448,192,88462,1,2,0:0:0:0:
64,192,88462,1,0,0:0:0:0:
320,192,88462,1,0,0:0:0:0:
192,192,88615,1,0,0:0:0:0:
448,192,88615,1,0,0:0:0:0:
448,192,88769,1,0,0:0:0:0:
320,192,88769,1,0,0:0:0:0:
64,192,88923,1,8,0:0:0:0:
192,192,88923,1,8,0:0:0:0:
448,192,88923,1,2,0:0:0:0:
448,192,89846,1,0,0:0:0:0:
320,192,89846,1,0,0:0:0:0:
192,192,89923,1,0,0:0:0:0:
64,192,89923,1,0,0:0:0:0:
320,192,90000,1,0,0:0:0:0:
448,192,90000,1,0,0:0:0:0:
192,192,90077,1,0,0:0:0:0:
64,192,90077,1,0,0:0:0:0:
320,192,90154,1,8,0:0:0:0:
448,192,90154,1,8,0:0:0:0:
448,192,90462,1,12,0:0:0:0:
192,192,90462,1,0,0:0:0:0:
64,192,90615,1,0,0:0:0:0:
448,192,90769,1,0,0:0:0:0:
192,192,90769,1,0,0:0:0:0:
64,192,90923,128,2,91308:0:0:0:0:
320,192,90923,128,0,91308:0:0:0:0:
64,192,91385,1,0,0:0:0:0:
320,192,91385,1,0,0:0:0:0:
448,192,91539,1,0,0:0:0:0:
64,192,91692,1,0,0:0:0:0:
320,192,91692,1,0,0:0:0:0:
192,192,91846,128,0,92231:0:0:0:0:
448,192,91846,128,2,92231:0:0:0:0:
320,192,92308,1,2,0:0:0:0:
448,192,92308,1,0,0:0:0:0:
192,192,92385,1,2,0:0:0:0:
64,192,92462,1,2,0:0:0:0:
64,192,92615,1,0,0:0:0:0:
320,192,92615,1,8,0:0:0:0:
448,192,92615,1,8,0:0:0:0:
64,192,92923,1,4,0:0:0:0:
192,192,92923,1,0,0:0:0:0:
448,192,93077,1,0,0:0:0:0:
64,192,93231,1,0,0:0:0:0:
192,192,93231,1,0,0:0:0:0:
320,192,93385,128,8,93769:0:0:0:0:
448,192,93385,128,10,93769:0:0:0:0:
320,192,93846,1,0,0:0:0:0:
448,192,93846,1,0,0:0:0:0:
64,192,94000,1,0,0:0:0:0:
320,192,94154,1,0,0:0:0:0:
448,192,94154,1,0,0:0:0:0:
192,192,94308,128,8,94615:0:0:0:0:
64,192,94308,128,10,94615:0:0:0:0:
448,192,94615,1,0,0:0:0:0:
320,192,94692,1,0,0:0:0:0:
192,192,94769,1,8,0:0:0:0:
64,192,94769,1,8,0:0:0:0:
320,192,94923,1,0,0:0:0:0:
64,192,95077,1,8,0:0:0:0:
448,192,95077,1,8,0:0:0:0:
320,192,95231,1,8,0:0:0:0:
192,192,95231,1,8,0:0:0:0:
64,192,95385,1,0,0:0:0:0:
448,192,95385,1,6,0:0:0:0:
192,192,95539,1,0,0:0:0:0:
320,192,95692,1,8,0:0:0:0:
448,192,95692,1,8,0:0:0:0:
64,192,95846,1,2,0:0:0:0:
320,192,96000,1,8,0:0:0:0:
448,192,96000,1,8,0:0:0:0:
64,192,96308,1,2,0:0:0:0:
448,192,96308,1,0,0:0:0:0:
320,192,96462,1,0,0:0:0:0:
64,192,96615,1,8,0:0:0:0:
192,192,96615,1,8,0:0:0:0:
448,192,96769,1,2,0:0:0:0:
192,192,96923,1,8,0:0:0:0:
64,192,96923,1,8,0:0:0:0:
448,192,97077,1,0,0:0:0:0:
320,192,97154,1,0,0:0:0:0:
64,192,97231,1,0,0:0:0:0:
448,192,97231,1,0,0:0:0:0:
192,192,97385,1,8,0:0:0:0:
320,192,97385,1,8,0:0:0:0:
448,192,97846,1,0,0:0:0:0:
192,192,97846,1,0,0:0:0:0:
64,192,97923,1,0,0:0:0:0:
320,192,97923,1,0,0:0:0:0:
192,192,98000,1,0,0:0:0:0:
448,192,98000,1,0,0:0:0:0:
192,192,98154,1,0,0:0:0:0:
64,192,98154,1,0,0:0:0:0:
320,192,98308,1,0,0:0:0:0:
448,192,98308,1,2,0:0:0:0:
320,192,98462,1,0,0:0:0:0:
448,192,98462,1,2,0:0:0:0:
320,192,98615,1,0,0:0:0:0:
448,192,98615,1,2,0:0:0:0:
320,192,98769,1,0,0:0:0:0:
64,192,98769,1,0,0:0:0:0:
448,192,98846,1,0,0:0:0:0:
192,192,98846,1,0,0:0:0:0:
64,192,98923,1,0,0:0:0:0:
320,192,98923,1,0,0:0:0:0:
320,192,99077,1,0,0:0:0:0:
448,192,99077,1,0,0:0:0:0:
192,192,99231,1,0,0:0:0:0:
64,192,99231,1,8,0:0:0:0:
64,192,99385,1,8,0:0:0:0:
192,192,99385,1,0,0:0:0:0:
192,192,99539,1,0,0:0:0:0:
64,192,99539,1,8,0:0:0:0:
320,192,99692,1,8,0:0:0:0:
192,192,99692,1,8,0:0:0:0:
64,192,99846,1,0,0:0:0:0:
448,192,99846,1,2,0:0:0:0:
320,192,99923,1,2,0:0:0:0:
192,192,99923,1,0,0:0:0:0:
448,192,100000,1,2,0:0:0:0:
64,192,100000,1,0,0:0:0:0:
320,192,100077,1,2,0:0:0:0:
192,192,100077,1,0,0:0:0:0:
448,192,100154,1,2,0:0:0:0:
64,192,100154,1,0,0:0:0:0:
320,192,100231,1,2,0:0:0:0:
192,192,100231,1,0,0:0:0:0:
64,192,100308,128,0,101539:0:0:0:0:
448,192,100308,1,4,0:0:0:0:
320,192,100615,1,0,0:0:0:0:
192,192,100923,1,0,0:0:0:0:
448,192,101077,1,0,0:0:0:0:
448,192,101231,1,8,0:0:0:0:
320,192,101231,1,8,0:0:0:0:
192,192,101231,1,0,0:0:0:0:
448,192,101539,128,0,101846:0:0:0:0:
192,192,101539,1,0,0:0:0:0:
320,192,101846,128,0,102154:0:0:0:0:
64,192,101846,1,0,0:0:0:0:
192,192,102154,128,0,102462:0:0:0:0:
448,192,102154,1,0,0:0:0:0:
64,192,102308,1,0,0:0:0:0:
64,192,102462,128,0,102769:0:0:0:0:
448,192,102462,1,8,0:0:0:0:
320,192,102462,1,8,0:0:0:0:
192,192,102769,128,0,103077:0:0:0:0:
320,192,102769,1,0,0:0:0:0:
320,192,103077,128,0,103385:0:0:0:0:
64,192,103077,1,0,0:0:0:0:
448,192,103385,128,0,103692:0:0:0:0:
192,192,103385,1,0,0:0:0:0:
64,192,103539,1,0,0:0:0:0:
64,192,103692,128,0,104000:0:0:0:0:
192,192,103692,1,8,0:0:0:0:
320,192,103692,1,8,0:0:0:0:
448,192,104000,128,0,104308:0:0:0:0:
320,192,104000,1,0,0:0:0:0:
320,192,104308,128,0,104615:0:0:0:0:
64,192,104308,1,0,0:0:0:0:
192,192,104615,128,0,104923:0:0:0:0:
448,192,104615,1,0,0:0:0:0:
64,192,104769,1,0,0:0:0:0:
64,192,104923,128,0,105231:0:0:0:0:
320,192,104923,1,8,0:0:0:0:
448,192,104923,1,8,0:0:0:0:
448,192,105077,1,0,0:0:0:0:
320,192,105154,1,0,0:0:0:0:
192,192,105231,128,0,105539:0:0:0:0:
448,192,105231,1,4,0:0:0:0:
64,192,105539,128,0,105846:0:0:0:0:
448,192,105539,1,0,0:0:0:0:
192,192,105846,128,0,106462:0:0:0:0:
320,192,105846,1,0,0:0:0:0:
448,192,106000,1,0,0:0:0:0:
64,192,106154,1,8,0:0:0:0:
448,192,106154,1,8,0:0:0:0:
448,192,106462,128,0,106769:0:0:0:0:
320,192,106462,1,0,0:0:0:0:
320,192,106769,128,0,107077:0:0:0:0:
64,192,106769,1,0,0:0:0:0:
192,192,107077,128,0,107385:0:0:0:0:
448,192,107077,1,0,0:0:0:0:
64,192,107231,1,0,0:0:0:0:
64,192,107385,128,0,107692:0:0:0:0:
320,192,107385,1,8,0:0:0:0:
448,192,107385,1,8,0:0:0:0:
192,192,107692,128,0,108000:0:0:0:0:
448,192,107692,1,0,0:0:0:0:
320,192,108000,128,0,108308:0:0:0:0:
64,192,108000,1,0,0:0:0:0:
448,192,108308,128,0,108923:0:0:0:0:
64,192,108308,1,0,0:0:0:0:
192,192,108615,1,8,0:0:0:0:
320,192,108615,1,8,0:0:0:0:
64,192,108615,1,0,0:0:0:0:
64,192,108923,1,0,0:0:0:0:
192,192,108923,1,0,0:0:0:0:
320,192,109077,1,8,0:0:0:0:
448,192,109077,1,2,0:0:0:0:
64,192,109231,1,0,0:0:0:0:
192,192,109385,1,0,0:0:0:0:
320,192,109385,1,0,0:0:0:0:
448,192,109539,1,0,0:0:0:0:
64,192,109539,1,0,0:0:0:0:
320,192,109615,1,0,0:0:0:0:
192,192,109692,1,0,0:0:0:0:
64,192,109769,1,0,0:0:0:0:
448,192,109846,1,0,0:0:0:0:
320,192,109923,1,0,0:0:0:0:
192,192,110000,1,0,0:0:0:0:
64,192,110077,1,0,0:0:0:0:
448,192,110154,128,6,110462:0:0:0:0:
320,192,110154,128,0,110462:0:0:0:0:
192,192,110308,128,2,111231:0:0:0:0:
64,192,110462,128,2,111231:0:0:0:0:
448,192,110615,128,2,110769:0:0:0:0:
320,192,110615,128,0,110769:0:0:0:0:
448,192,110923,128,2,111077:0:0:0:0:
320,192,110923,128,0,111077:0:0:0:0:
320,192,111231,1,2,0:0:0:0:
192,192,111385,128,0,111692:0:0:0:0:
64,192,111385,128,2,111692:0:0:0:0:
320,192,111539,128,2,112462:0:0:0:0:
448,192,111692,128,2,112462:0:0:0:0:
64,192,111846,128,2,112000:0:0:0:0:
192,192,111846,128,0,112000:0:0:0:0:
64,192,112154,128,2,112308:0:0:0:0:
192,192,112154,128,0,112308:0:0:0:0:
192,192,112462,1,2,0:0:0:0:
320,192,112615,128,0,112923:0:0:0:0:
448,192,112615,128,2,112923:0:0:0:0:
64,192,112769,128,2,113692:0:0:0:0:
192,192,112923,128,2,113692:0:0:0:0:
448,192,113077,128,2,113231:0:0:0:0:
320,192,113077,128,0,113231:0:0:0:0:
448,192,113385,128,2,113539:0:0:0:0:
320,192,113385,128,0,113539:0:0:0:0:
320,192,113692,1,2,0:0:0:0:
64,192,113846,128,2,114154:0:0:0:0:
192,192,113846,128,0,114154:0:0:0:0:
448,192,114000,128,2,114923:0:0:0:0:
320,192,114154,128,2,114923:0:0:0:0:
64,192,114308,128,2,114462:0:0:0:0:
192,192,114308,128,0,114462:0:0:0:0:
64,192,114615,128,2,114769:0:0:0:0:
192,192,114615,128,0,114769:0:0:0:0:
192,192,114923,1,2,0:0:0:0:
448,192,115077,128,2,115385:0:0:0:0:
64,192,115077,128,0,115385:0:0:0:0:
320,192,115231,128,2,116154:0:0:0:0:
192,192,115385,128,2,116154:0:0:0:0:
448,192,115539,128,2,115692:0:0:0:0:
64,192,115539,128,0,115692:0:0:0:0:
448,192,115846,128,2,116000:0:0:0:0:
64,192,115846,128,0,116000:0:0:0:0:
64,192,116154,1,2,0:0:0:0:
64,192,116308,128,2,116615:0:0:0:0:
448,192,116308,128,0,116615:0:0:0:0:
192,192,116462,128,2,117385:0:0:0:0:
320,192,116615,128,2,117385:0:0:0:0:
64,192,116769,128,2,116923:0:0:0:0:
448,192,116769,128,0,116923:0:0:0:0:
64,192,117077,128,2,117231:0:0:0:0:
448,192,117077,128,0,117231:0:0:0:0:
448,192,117385,1,2,0:0:0:0:
64,192,117539,1,0,0:0:0:0:
448,192,117692,1,0,0:0:0:0:
320,192,117846,1,0,0:0:0:0:
192,192,117846,1,8,0:0:0:0:
64,192,117846,1,8,0:0:0:0:
448,192,118154,1,0,0:0:0:0:
64,192,118308,1,0,0:0:0:0:
192,192,118462,1,0,0:0:0:0:
320,192,118462,1,8,0:0:0:0:
448,192,118462,1,8,0:0:0:0:
64,192,118615,1,0,0:0:0:0:
192,192,118692,1,0,0:0:0:0:
448,192,118769,128,0,119846:0:0:0:0:
64,192,118923,128,0,119231:0:0:0:0:
192,192,119077,128,0,119385:0:0:0:0:
320,192,119231,128,0,119539:0:0:0:0:
64,192,119385,128,0,119692:0:0:0:0:
192,192,119539,128,0,119846:0:0:0:0:
320,192,119692,128,0,119846:0:0:0:0:
64,192,119846,1,0,0:0:0:0:
64,192,120000,1,0,0:0:0:0:
192,192,120000,1,4,0:0:0:0:
320,192,120000,1,8,0:0:0:0:
448,192,120000,1,8,0:0:0:0:
192,192,120923,1,2,0:0:0:0:
320,192,121077,1,2,0:0:0:0:
64,192,121846,1,0,0:0:0:0:
448,192,122000,1,0,0:0:0:0:
448,192,122154,1,0,0:0:0:0:
448,192,122308,1,0,0:0:0:0:
192,192,122308,1,0,0:0:0:0:
320,192,122308,1,0,0:0:0:0:
320,192,122462,1,8,0:0:0:0:
192,192,122462,1,8,0:0:0:0:
64,192,122462,1,8,0:0:0:0:
320,192,124769,1,0,0:0:0:0:
448,192,124769,1,0,0:0:0:0:
64,192,124846,1,0,0:0:0:0:
320,192,124923,1,8,0:0:0:0:
448,192,124923,1,12,0:0:0:0:
192,192,124923,1,8,0:0:0:0:
64,192,126000,1,8,0:0:0:0:
192,192,126000,1,8,0:0:0:0:
320,192,126000,1,12,0:0:0:0:
320,192,127385,1,8,0:0:0:0:
448,192,127385,1,12,0:0:0:0:
64,192,127385,128,8,127846:0:0:0:0:
192,192,127846,1,8,0:0:0:0:
320,192,127846,1,8,0:0:0:0:
448,192,128462,128,0,129769:0:0:0:0:
320,192,128539,1,0,0:0:0:0:
192,192,128615,1,0,0:0:0:0:
64,192,128692,1,0,0:0:0:0:
320,192,128769,1,0,0:0:0:0:
192,192,128846,1,0,0:0:0:0:
64,192,128923,1,0,0:0:0:0:
320,192,129000,1,0,0:0:0:0:
192,192,129077,1,0,0:0:0:0:
64,192,129154,1,0,0:0:0:0:
320,192,129231,1,0,0:0:0:0:
192,192,129308,1,0,0:0:0:0:
64,192,129385,1,0,0:0:0:0:
320,192,129462,1,0,0:0:0:0:
192,192,129539,1,0,0:0:0:0:
64,192,129615,1,0,0:0:0:0:
192,192,129692,1,0,0:0:0:0:
320,192,129769,1,0,0:0:0:0:
64,192,129846,128,0,130308:0:0:0:0:
192,192,129846,1,12,0:0:0:0:
320,192,130154,1,2,0:0:0:0:
192,192,130308,128,0,130769:0:0:0:0:
448,192,130308,1,8,0:0:0:0:
320,192,130462,1,0,0:0:0:0:
64,192,130615,1,0,0:0:0:0:
320,192,130769,128,0,131077:0:0:0:0:
448,192,130769,1,8,0:0:0:0:
64,192,130923,1,0,0:0:0:0:
448,192,131077,128,0,131539:0:0:0:0:
192,192,131077,1,8,0:0:0:0:
320,192,131231,1,2,0:0:0:0:
64,192,131231,1,0,0:0:0:0:
192,192,131385,1,0,0:0:0:0:
320,192,131539,128,0,132000:0:0:0:0:
64,192,131539,1,10,0:0:0:0:
192,192,131692,1,0,0:0:0:0:
448,192,131846,1,0,0:0:0:0:
192,192,132000,128,8,132308:0:0:0:0:
64,192,132000,1,8,0:0:0:0:
448,192,132154,1,0,0:0:0:0:
64,192,132308,128,0,132769:0:0:0:0:
448,192,132308,1,4,0:0:0:0:
320,192,132308,1,8,0:0:0:0:
320,192,132615,1,2,0:0:0:0:
192,192,132769,128,0,133231:0:0:0:0:
64,192,132923,1,0,0:0:0:0:
448,192,133077,1,0,0:0:0:0:
320,192,133231,128,0,133539:0:0:0:0:
64,192,133231,1,2,0:0:0:0:
64,192,133385,1,0,0:0:0:0:
448,192,133539,128,0,134000:0:0:0:0:
192,192,133539,1,2,0:0:0:0:
64,192,133692,1,0,0:0:0:0:
192,192,133846,1,0,0:0:0:0:
320,192,134000,128,0,134462:0:0:0:0:
64,192,134000,1,0,0:0:0:0:
192,192,134154,1,0,0:0:0:0:
64,192,134308,1,0,0:0:0:0:
192,192,134462,128,0,134769:0:0:0:0:
448,192,134462,1,2,0:0:0:0:
64,192,134615,1,0,0:0:0:0:
448,192,134769,1,2,0:0:0:0:
64,192,134846,1,0,0:0:0:0:
320,192,134923,1,0,0:0:0:0:
192,192,134923,1,0,0:0:0:0:
448,192,135077,1,2,0:0:0:0:
192,192,135154,1,0,0:0:0:0:
320,192,135231,1,0,0:0:0:0:
64,192,135231,1,0,0:0:0:0:
448,192,135385,1,2,0:0:0:0:
64,192,135462,1,0,0:0:0:0:
320,192,135539,1,0,0:0:0:0:
192,192,135539,1,0,0:0:0:0:
448,192,135692,1,2,0:0:0:0:
192,192,135769,1,0,0:0:0:0:
320,192,135846,1,0,0:0:0:0:
64,192,135846,1,0,0:0:0:0:
64,192,136000,1,2,0:0:0:0:
448,192,136077,1,0,0:0:0:0:
192,192,136154,1,0,0:0:0:0:
320,192,136154,1,0,0:0:0:0:
64,192,136308,1,2,0:0:0:0:
320,192,136385,1,0,0:0:0:0:
192,192,136462,1,0,0:0:0:0:
448,192,136462,1,0,0:0:0:0:
64,192,136615,1,2,0:0:0:0:
448,192,136692,1,0,0:0:0:0:
192,192,136769,1,0,0:0:0:0:
320,192,136769,1,0,0:0:0:0:
64,192,136923,1,2,0:0:0:0:
320,192,137000,1,0,0:0:0:0:
192,192,137077,1,0,0:0:0:0:
448,192,137077,1,0,0:0:0:0:
448,192,137231,1,2,0:0:0:0:
64,192,137308,1,2,0:0:0:0:
320,192,137385,1,2,0:0:0:0:
192,192,137462,1,2,0:0:0:0:
448,192,137539,1,2,0:0:0:0:
64,192,137615,1,2,0:0:0:0:
320,192,137692,1,2,0:0:0:0:
192,192,137769,1,2,0:0:0:0:
448,192,137846,1,2,0:0:0:0:
64,192,137923,1,2,0:0:0:0:
320,192,138000,1,2,0:0:0:0:
192,192,138077,1,2,0:0:0:0:
448,192,138154,1,2,0:0:0:0:
64,192,138231,1,2,0:0:0:0:
320,192,138308,1,2,0:0:0:0:
192,192,138385,1,2,0:0:0:0:
448,192,138462,1,2,0:0:0:0:
320,192,138462,1,0,0:0:0:0:
64,192,138539,1,0,0:0:0:0:
448,192,138615,1,2,0:0:0:0:
320,192,138615,1,0,0:0:0:0:
64,192,138692,1,0,0:0:0:0:
448,192,138769,1,2,0:0:0:0:
320,192,138769,1,0,0:0:0:0:
192,192,138923,1,0,0:0:0:0:
64,192,138923,1,2,0:0:0:0:
448,192,139000,1,0,0:0:0:0:
192,192,139077,1,0,0:0:0:0:
64,192,139077,1,2,0:0:0:0:
448,192,139154,1,0,0:0:0:0:
192,192,139231,1,0,0:0:0:0:
64,192,139231,1,2,0:0:0:0:
448,192,139385,1,2,0:0:0:0:
320,192,139385,1,0,0:0:0:0:
64,192,139462,1,0,0:0:0:0:
448,192,139539,1,2,0:0:0:0:
320,192,139539,1,0,0:0:0:0:
64,192,139615,1,0,0:0:0:0:
192,192,139692,1,8,0:0:0:0:
320,192,139692,1,8,0:0:0:0:
448,192,139692,1,6,0:0:0:0:
64,192,139846,1,0,0:0:0:0:
448,192,140000,1,0,0:0:0:0:
320,192,140000,1,0,0:0:0:0:
64,192,140154,1,8,0:0:0:0:
192,192,140154,1,8,0:0:0:0:
448,192,140154,1,0,0:0:0:0:
320,192,140308,1,0,0:0:0:0:
192,192,140462,1,0,0:0:0:0:
64,192,140462,1,0,0:0:0:0:
64,192,140615,1,0,0:0:0:0:
320,192,140615,1,8,0:0:0:0:
448,192,140615,1,8,0:0:0:0:
192,192,140769,1,0,0:0:0:0:
448,192,140923,1,0,0:0:0:0:
320,192,140923,1,0,0:0:0:0:
192,192,141077,1,8,0:0:0:0:
320,192,141077,1,0,0:0:0:0:
64,192,141077,1,8,0:0:0:0:
448,192,141231,1,0,0:0:0:0:
320,192,141385,1,0,0:0:0:0:
64,192,141385,1,0,0:0:0:0:
192,192,141539,1,0,0:0:0:0:
448,192,141539,1,8,0:0:0:0:
320,192,141539,1,8,0:0:0:0:
64,192,141692,1,0,0:0:0:0:
320,192,141692,1,0,0:0:0:0:
64,192,141846,1,8,0:0:0:0:
192,192,141846,1,8,0:0:0:0:
448,192,141846,1,0,0:0:0:0:
320,192,141923,1,2,0:0:0:0:
192,192,142000,1,2,0:0:0:0:
64,192,142077,1,2,0:0:0:0:
448,192,142154,1,0,0:0:0:0:
320,192,142154,1,0,0:0:0:0:
64,192,142308,1,0,0:0:0:0:
192,192,142308,1,0,0:0:0:0:
320,192,142462,1,0,0:0:0:0:
448,192,142462,1,0,0:0:0:0:
192,192,142615,1,0,0:0:0:0:
64,192,142615,1,0,0:0:0:0:
448,192,142769,1,2,0:0:0:0:
320,192,142769,1,0,0:0:0:0:
320,192,142923,1,2,0:0:0:0:
192,192,142923,1,0,0:0:0:0:
64,192,143077,1,2,0:0:0:0:
192,192,143077,1,0,0:0:0:0:
320,192,143154,1,0,0:0:0:0:
448,192,143154,1,2,0:0:0:0:
64,192,143231,1,2,0:0:0:0:
192,192,143231,1,0,0:0:0:0:
320,192,143308,1,0,0:0:0:0:
448,192,143308,1,2,0:0:0:0:
64,192,143385,1,2,0:0:0:0:
192,192,143385,1,0,0:0:0:0:
320,192,143462,1,0,0:0:0:0:
448,192,143462,1,2,0:0:0:0:
64,192,143539,1,2,0:0:0:0:
192,192,143539,1,0,0:0:0:0:
320,192,143615,1,0,0:0:0:0:
448,192,143615,1,2,0:0:0:0:
64,192,143692,1,2,0:0:0:0:
192,192,143692,1,0,0:0:0:0:
320,192,143769,1,0,0:0:0:0:
448,192,143769,1,2,0:0:0:0:
64,192,143846,1,2,0:0:0:0:
192,192,143846,1,0,0:0:0:0:
448,192,144000,128,0,144462:0:0:0:0:
320,192,144154,128,0,144462:0:0:0:0:
192,192,144308,128,0,144462:0:0:0:0:
64,192,144462,1,0,0:0:0:0:
64,192,144615,1,2,0:0:0:0:
448,192,144615,1,12,0:0:0:0:
192,192,144615,1,0,0:0:0:0:
320,192,144922,1,8,0:0:0:0:
448,192,144922,1,0,0:0:0:0:
192,192,145076,1,2,0:0:0:0:
320,192,145230,1,8,0:0:0:0:
64,192,145230,1,0,0:0:0:0:
448,192,145384,1,0,0:0:0:0:
192,192,145538,1,8,0:0:0:0:
64,192,145538,1,2,0:0:0:0:
320,192,145691,1,0,0:0:0:0:
192,192,145768,1,0,0:0:0:0:
64,192,145845,1,0,0:0:0:0:
448,192,145845,1,8,0:0:0:0:
320,192,145999,1,2,0:0:0:0:
64,192,146153,1,0,0:0:0:0:
192,192,146153,1,8,0:0:0:0:
448,192,146307,1,0,0:0:0:0:
320,192,146384,1,0,0:0:0:0:
448,192,146461,1,8,0:0:0:0:
64,192,146461,1,2,0:0:0:0:
192,192,146615,1,0,0:0:0:0:
320,192,146768,1,8,0:0:0:0:
448,192,146768,1,2,0:0:0:0:
64,192,146922,1,0,0:0:0:0:
192,192,146999,1,0,0:0:0:0:
448,192,147076,1,2,0:0:0:0:
64,192,147076,1,8,0:0:0:0:
320,192,147230,1,0,0:0:0:0:
64,192,147384,1,0,0:0:0:0:
192,192,147384,1,8,0:0:0:0:
320,192,147538,1,2,0:0:0:0:
192,192,147691,1,0,0:0:0:0:
448,192,147691,1,8,0:0:0:0:
64,192,147845,1,0,0:0:0:0:
320,192,147999,1,8,0:0:0:0:
448,192,147999,1,2,0:0:0:0:
192,192,148153,1,0,0:0:0:0:
320,192,148230,1,0,0:0:0:0:
64,192,148307,1,8,0:0:0:0:
448,192,148307,1,0,0:0:0:0:
192,192,148461,1,2,0:0:0:0:
448,192,148615,1,8,0:0:0:0:
320,192,148615,1,0,0:0:0:0:
64,192,148768,1,0,0:0:0:0:
192,192,148845,1,0,0:0:0:0:
448,192,148922,1,2,0:0:0:0:
64,192,148922,1,8,0:0:0:0:
320,192,149076,1,0,0:0:0:0:
64,192,149230,1,2,0:0:0:0:
192,192,149230,1,8,0:0:0:0:
448,192,149384,1,0,0:0:0:0:
192,192,149461,1,0,0:0:0:0:
64,192,149538,1,2,0:0:0:0:
448,192,149538,1,8,0:0:0:0:
192,192,149691,1,0,0:0:0:0:
320,192,149845,1,8,0:0:0:0:
448,192,149845,1,0,0:0:0:0:
192,192,149999,1,2,0:0:0:0:
320,192,150153,1,8,0:0:0:0:
64,192,150153,1,0,0:0:0:0:
448,192,150307,1,0,0:0:0:0:
192,192,150461,1,8,0:0:0:0:
64,192,150461,1,2,0:0:0:0:
320,192,150615,1,0,0:0:0:0:
192,192,150691,1,0,0:0:0:0:
64,192,150768,1,0,0:0:0:0:
448,192,150768,1,8,0:0:0:0:
320,192,150922,1,2,0:0:0:0:
64,192,151076,1,0,0:0:0:0:
192,192,151076,1,8,0:0:0:0:
448,192,151230,1,0,0:0:0:0:
320,192,151307,1,0,0:0:0:0:
448,192,151384,1,8,0:0:0:0:
64,192,151384,1,2,0:0:0:0:
192,192,151538,1,0,0:0:0:0:
320,192,151691,1,8,0:0:0:0:
448,192,151691,1,2,0:0:0:0:
64,192,151845,1,0,0:0:0:0:
192,192,151922,1,0,0:0:0:0:
448,192,151999,1,2,0:0:0:0:
64,192,151999,1,8,0:0:0:0:
320,192,152153,1,0,0:0:0:0:
64,192,152307,1,0,0:0:0:0:
192,192,152307,1,8,0:0:0:0:
320,192,152461,1,2,0:0:0:0:
192,192,152615,1,0,0:0:0:0:
448,192,152615,1,8,0:0:0:0:
64,192,152768,1,0,0:0:0:0:
320,192,152922,1,8,0:0:0:0:
448,192,152922,1,2,0:0:0:0:
192,192,153076,1,0,0:0:0:0:
320,192,153153,1,0,0:0:0:0:
64,192,153230,1,8,0:0:0:0:
448,192,153230,1,0,0:0:0:0:
192,192,153307,1,0,0:0:0:0:
320,192,153307,1,0,0:0:0:0:
64,192,153384,1,0,0:0:0:0:
448,192,153384,1,0,0:0:0:0:
192,192,153461,1,0,0:0:0:0:
320,192,153461,1,0,0:0:0:0:
448,192,153538,1,8,0:0:0:0:
64,192,153538,1,8,0:0:0:0:
64,192,153691,1,2,0:0:0:0:
192,192,153768,1,0,0:0:0:0:
448,192,153845,1,2,0:0:0:0:
320,192,153845,1,0,0:0:0:0:
64,192,153999,1,2,0:0:0:0:
192,192,153999,1,0,0:0:0:0:
320,192,154153,1,0,0:0:0:0:
448,192,154153,1,2,0:0:0:0:
192,192,154307,1,0,0:0:0:0:
64,192,154307,1,2,0:0:0:0:
320,192,154384,1,0,0:0:0:0:
64,192,154461,1,6,0:0:0:0:
448,192,154461,1,8,0:0:0:0:
192,192,154461,1,0,0:0:0:0:
320,192,154615,1,0,0:0:0:0:
448,192,154768,1,0,0:0:0:0:
64,192,154768,1,0,0:0:0:0:
192,192,154922,1,2,0:0:0:0:
320,192,155076,1,8,0:0:0:0:
64,192,155076,1,0,0:0:0:0:
448,192,155230,1,0,0:0:0:0:
192,192,155384,1,8,0:0:0:0:
64,192,155384,1,2,0:0:0:0:
320,192,155538,1,0,0:0:0:0:
192,192,155615,1,0,0:0:0:0:
64,192,155691,1,0,0:0:0:0:
448,192,155691,1,8,0:0:0:0:
320,192,155845,1,2,0:0:0:0:
64,192,155999,1,0,0:0:0:0:
192,192,155999,1,8,0:0:0:0:
448,192,156153,1,0,0:0:0:0:
320,192,156230,1,0,0:0:0:0:
448,192,156307,1,8,0:0:0:0:
64,192,156307,1,2,0:0:0:0:
192,192,156461,1,0,0:0:0:0:
320,192,156615,1,8,0:0:0:0:
448,192,156615,1,2,0:0:0:0:
64,192,156768,1,0,0:0:0:0:
192,192,156845,1,0,0:0:0:0:
448,192,156922,1,2,0:0:0:0:
64,192,156922,1,8,0:0:0:0:
320,192,157076,1,0,0:0:0:0:
64,192,157230,1,0,0:0:0:0:
192,192,157230,1,8,0:0:0:0:
320,192,157384,1,2,0:0:0:0:
192,192,157538,1,0,0:0:0:0:
448,192,157538,1,8,0:0:0:0:
64,192,157691,1,0,0:0:0:0:
320,192,157845,1,8,0:0:0:0:
448,192,157845,1,2,0:0:0:0:
192,192,157999,1,0,0:0:0:0:
320,192,158076,1,0,0:0:0:0:
64,192,158153,1,8,0:0:0:0:
448,192,158153,1,0,0:0:0:0:
192,192,158307,1,2,0:0:0:0:
448,192,158461,1,8,0:0:0:0:
320,192,158461,1,0,0:0:0:0:
64,192,158615,1,0,0:0:0:0:
192,192,158691,1,0,0:0:0:0:
448,192,158768,1,2,0:0:0:0:
64,192,158768,1,8,0:0:0:0:
320,192,158922,1,0,0:0:0:0:
64,192,159076,1,2,0:0:0:0:
192,192,159076,1,8,0:0:0:0:
448,192,159230,1,0,0:0:0:0:
192,192,159307,1,0,0:0:0:0:
320,192,159384,1,8,0:0:0:0:
64,192,159384,1,2,0:0:0:0:
192,192,159538,1,0,0:0:0:0:
320,192,159691,1,8,0:0:0:0:
448,192,159691,1,0,0:0:0:0:
192,192,159845,1,2,0:0:0:0:
320,192,159999,1,8,0:0:0:0:
64,192,159999,1,0,0:0:0:0:
448,192,160153,1,0,0:0:0:0:
192,192,160307,1,8,0:0:0:0:
64,192,160307,1,2,0:0:0:0:
320,192,160461,1,0,0:0:0:0:
192,192,160538,1,0,0:0:0:0:
64,192,160615,1,0,0:0:0:0:
448,192,160615,1,8,0:0:0:0:
320,192,160768,1,2,0:0:0:0:
64,192,160922,1,0,0:0:0:0:
192,192,160922,1,8,0:0:0:0:
448,192,161076,1,0,0:0:0:0:
320,192,161153,1,0,0:0:0:0:
448,192,161230,1,8,0:0:0:0:
64,192,161230,1,2,0:0:0:0:
192,192,161384,1,0,0:0:0:0:
320,192,161538,1,8,0:0:0:0:
448,192,161538,1,2,0:0:0:0:
64,192,161691,1,0,0:0:0:0:
192,192,161768,1,0,0:0:0:0:
448,192,161845,1,2,0:0:0:0:
64,192,161845,1,8,0:0:0:0:
320,192,161999,1,0,0:0:0:0:
64,192,162153,1,0,0:0:0:0:
192,192,162153,1,8,0:0:0:0:
320,192,162307,1,2,0:0:0:0:
192,192,162461,1,0,0:0:0:0:
448,192,162461,1,8,0:0:0:0:
64,192,162615,1,0,0:0:0:0:
320,192,162768,1,8,0:0:0:0:
448,192,162768,1,2,0:0:0:0:
192,192,162922,1,0,0:0:0:0:
320,192,162999,1,0,0:0:0:0:
64,192,163076,1,8,0:0:0:0:
448,192,163076,1,0,0:0:0:0:
192,192,163230,1,2,0:0:0:0:
448,192,163384,1,8,0:0:0:0:
320,192,163384,1,0,0:0:0:0:
64,192,163538,1,0,0:0:0:0:
192,192,163615,1,0,0:0:0:0:
448,192,163691,1,2,0:0:0:0:
64,192,163691,1,8,0:0:0:0:
320,192,163845,1,0,0:0:0:0:
64,192,163999,1,2,0:0:0:0:
192,192,163999,1,8,0:0:0:0:
448,192,164153,1,0,0:0:0:0:
320,192,164230,1,0,0:0:0:0:
64,192,164307,1,8,0:0:0:0:
192,192,164307,1,8,0:0:0:0:
448,192,164307,1,6,0:0:0:0:
64,192,164459,1,0,0:0:0:0:
320,192,164459,1,0,0:0:0:0:
192,192,164613,1,0,0:0:0:0:
64,192,164613,1,0,0:0:0:0:
64,192,164767,1,2,0:0:0:0:
320,192,164767,1,8,0:0:0:0:
448,192,164767,1,8,0:0:0:0:
448,192,164921,1,0,0:0:0:0:
192,192,164921,1,0,0:0:0:0:
448,192,165075,1,0,0:0:0:0:
320,192,165075,1,0,0:0:0:0:
64,192,165229,1,8,0:0:0:0:
192,192,165229,1,8,0:0:0:0:
448,192,165229,1,2,0:0:0:0:
320,192,165382,1,0,0:0:0:0:
192,192,165459,1,0,0:0:0:0:
64,192,165536,1,0,0:0:0:0:
448,192,165536,1,0,0:0:0:0:
192,192,165690,1,2,0:0:0:0:
448,192,165690,1,8,0:0:0:0:
320,192,165690,1,8,0:0:0:0:
64,192,165998,1,0,0:0:0:0:
192,192,165998,1,0,0:0:0:0:
192,192,166152,1,8,0:0:0:0:
64,192,166152,1,2,0:0:0:0:
448,192,166152,1,0,0:0:0:0:
448,192,166306,1,0,0:0:0:0:
320,192,166306,1,0,0:0:0:0:
448,192,166459,1,8,0:0:0:0:
192,192,166459,1,2,0:0:0:0:
320,192,166459,1,8,0:0:0:0:
192,192,166767,1,0,0:0:0:0:
448,192,166767,1,2,0:0:0:0:
64,192,166767,1,4,0:0:0:0:
64,192,166921,1,0,0:0:0:0:
320,192,166921,1,0,0:0:0:0:
64,192,167075,1,0,0:0:0:0:
192,192,167075,1,0,0:0:0:0:
448,192,167229,1,6,0:0:0:0:
64,192,167229,1,0,0:0:0:0:
320,192,167229,1,0,0:0:0:0:
192,192,167382,1,0,0:0:0:0:
448,192,167382,1,0,0:0:0:0:
448,192,167536,1,0,0:0:0:0:
320,192,167536,1,0,0:0:0:0:
192,192,167690,1,12,0:0:0:0:
448,192,167690,1,2,0:0:0:0:
64,192,167690,128,0,172613:0:0:0:0:
192,192,168306,1,0,0:0:0:0:
320,192,168613,1,2,0:0:0:0:
448,192,168921,1,0,0:0:0:0:
320,192,169229,1,2,0:0:0:0:
192,192,169536,1,0,0:0:0:0:
448,192,170152,1,0,0:0:0:0:
320,192,170459,1,2,0:0:0:0:
192,192,170767,1,0,0:0:0:0:
448,192,171382,1,0,0:0:0:0:
320,192,171690,1,2,0:0:0:0:
192,192,171998,1,0,0:0:0:0:
448,192,172306,128,0,172613:0:0:0:0:
192,192,172613,1,0,0:0:0:0:
320,192,172613,1,4,0:0:0:0:
64,192,172921,1,0,0:0:0:0:
192,192,172921,1,2,0:0:0:0:
320,192,173075,1,0,0:0:0:0:
448,192,173075,1,0,0:0:0:0:
192,192,173229,1,0,0:0:0:0:
64,192,173229,1,0,0:0:0:0:
448,192,173382,1,0,0:0:0:0:
192,192,173382,1,2,0:0:0:0:
320,192,173536,1,0,0:0:0:0:
64,192,173536,1,0,0:0:0:0:
192,192,173690,1,0,0:0:0:0:
448,192,173690,1,0,0:0:0:0:
320,192,173844,1,2,0:0:0:0:
448,192,173844,1,0,0:0:0:0:
192,192,173998,1,0,0:0:0:0:
64,192,173998,1,0,0:0:0:0:
320,192,174152,1,0,0:0:0:0:
448,192,174152,1,0,0:0:0:0:
64,192,174306,1,0,0:0:0:0:
320,192,174306,1,2,0:0:0:0:
192,192,174459,1,0,0:0:0:0:
448,192,174459,1,0,0:0:0:0:
320,192,174613,1,0,0:0:0:0:
64,192,174613,1,0,0:0:0:0:
64,192,174767,128,0,175075:0:0:0:0:
448,192,174767,128,2,175075:0:0:0:0:
320,192,174844,1,0,0:0:0:0:
192,192,174921,1,0,0:0:0:0:
192,192,175075,1,0,0:0:0:0:
320,192,175075,1,2,0:0:0:0:
64,192,175382,1,2,0:0:0:0:
448,192,175382,1,0,0:0:0:0:
320,192,175459,1,0,0:0:0:0:
192,192,175536,1,0,0:0:0:0:
448,192,175613,1,0,0:0:0:0:
64,192,175690,1,0,0:0:0:0:
320,192,175690,1,0,0:0:0:0:
64,192,175844,1,2,0:0:0:0:
448,192,175844,1,0,0:0:0:0:
192,192,175921,1,0,0:0:0:0:
320,192,175998,1,0,0:0:0:0:
64,192,176075,1,0,0:0:0:0:
192,192,176152,1,0,0:0:0:0:
448,192,176152,1,0,0:0:0:0:
64,192,176306,1,2,0:0:0:0:
448,192,176306,1,0,0:0:0:0:
320,192,176382,1,0,0:0:0:0:
192,192,176459,1,0,0:0:0:0:
448,192,176536,1,0,0:0:0:0:
192,192,176613,1,0,0:0:0:0:
64,192,176613,1,0,0:0:0:0:
64,192,176767,1,2,0:0:0:0:
448,192,176767,1,0,0:0:0:0:
192,192,176844,1,0,0:0:0:0:
320,192,176921,1,0,0:0:0:0:
64,192,176998,1,0,0:0:0:0:
320,192,177075,1,0,0:0:0:0:
448,192,177075,1,0,0:0:0:0:
64,192,177229,1,2,0:0:0:0:
192,192,177229,1,8,0:0:0:0:
448,192,177382,1,0,0:0:0:0:
320,192,177382,1,0,0:0:0:0:
320,192,177536,1,8,0:0:0:0:
192,192,177536,1,10,0:0:0:0:
64,192,177613,1,8,0:0:0:0:
448,192,177613,1,8,0:0:0:0:
192,192,177690,1,8,0:0:0:0:
320,192,177690,1,8,0:0:0:0:
64,192,177767,1,8,0:0:0:0:
448,192,177767,1,8,0:0:0:0:
192,192,177844,128,2,177998:0:0:0:0:
320,192,177844,1,4,0:0:0:0:
448,192,177998,128,2,178152:0:0:0:0:
64,192,177998,1,0,0:0:0:0:
64,192,178152,128,2,178306:0:0:0:0:
192,192,178152,1,0,0:0:0:0:
320,192,178306,128,2,178459:0:0:0:0:
448,192,178306,1,0,0:0:0:0:
192,192,178459,128,2,178613:0:0:0:0:
448,192,178459,1,0,0:0:0:0:
64,192,178613,1,0,0:0:0:0:
320,192,178613,128,2,178767:0:0:0:0:
64,192,178767,128,2,178921:0:0:0:0:
448,192,178767,1,0,0:0:0:0:
192,192,178921,128,0,179229:0:0:0:0:
320,192,178921,128,2,179229:0:0:0:0:
448,192,179229,128,2,179382:0:0:0:0:
64,192,179229,1,0,0:0:0:0:
448,192,179536,128,2,179690:0:0:0:0:
64,192,179536,1,0,0:0:0:0:
192,192,179613,1,0,0:0:0:0:
320,192,179690,1,2,0:0:0:0:
448,192,179767,1,2,0:0:0:0:
64,192,179767,1,0,0:0:0:0:
192,192,180306,128,2,180459:0:0:0:0:
320,192,180306,1,0,0:0:0:0:
448,192,180459,128,2,180613:0:0:0:0:
64,192,180459,1,0,0:0:0:0:
64,192,180613,128,2,180767:0:0:0:0:
192,192,180613,1,0,0:0:0:0:
320,192,180767,128,2,180921:0:0:0:0:
448,192,180767,1,0,0:0:0:0:
192,192,180921,128,2,181075:0:0:0:0:
448,192,180921,1,0,0:0:0:0:
64,192,181075,1,0,0:0:0:0:
320,192,181075,128,2,181229:0:0:0:0:
64,192,181229,128,2,181382:0:0:0:0:
448,192,181229,1,0,0:0:0:0:
448,192,181382,128,2,181536:0:0:0:0:
192,192,181382,1,0,0:0:0:0:
448,192,181690,128,2,181844:0:0:0:0:
192,192,181690,1,0,0:0:0:0:
320,192,181844,128,0,181921:0:0:0:0:
64,192,181844,1,0,0:0:0:0:
320,192,181998,128,0,182075:0:0:0:0:
64,192,181998,1,0,0:0:0:0:
448,192,182075,1,0,0:0:0:0:
192,192,182152,128,0,182229:0:0:0:0:
64,192,182152,1,8,0:0:0:0:
192,192,182306,128,0,182382:0:0:0:0:
320,192,182306,1,0,0:0:0:0:
448,192,182382,1,0,0:0:0:0:
64,192,182459,128,0,182536:0:0:0:0:
320,192,182459,1,8,0:0:0:0:
64,192,182613,128,0,182690:0:0:0:0:
192,192,182613,1,0,0:0:0:0:
320,192,182767,128,0,183075:0:0:0:0:
448,192,182767,128,6,183075:0:0:0:0:
192,192,182767,1,0,0:0:0:0:
64,192,182921,1,0,0:0:0:0:
192,192,183075,1,0,0:0:0:0:
320,192,183229,128,0,183382:0:0:0:0:
448,192,183229,128,2,183382:0:0:0:0:
192,192,183382,1,0,0:0:0:0:
448,192,183536,1,2,0:0:0:0:
64,192,183536,1,0,0:0:0:0:
320,192,183690,128,0,183998:0:0:0:0:
448,192,183690,128,2,183998:0:0:0:0:
64,192,183844,1,0,0:0:0:0:
192,192,183998,1,0,0:0:0:0:
320,192,184152,128,0,184459:0:0:0:0:
448,192,184152,128,2,184459:0:0:0:0:
192,192,184306,1,0,0:0:0:0:
64,192,184459,1,0,0:0:0:0:
320,192,184613,128,0,184767:0:0:0:0:
448,192,184613,128,2,184767:0:0:0:0:
64,192,184767,1,0,0:0:0:0:
192,192,184921,1,2,0:0:0:0:
448,192,184921,1,0,0:0:0:0:
320,192,185075,1,2,0:0:0:0:
64,192,185075,1,0,0:0:0:0:
192,192,185229,1,2,0:0:0:0:
320,192,185229,1,0,0:0:0:0:
448,192,185382,1,2,0:0:0:0:
320,192,185382,1,0,0:0:0:0:
64,192,185536,1,2,0:0:0:0:
192,192,185536,1,0,0:0:0:0:
320,192,185690,1,2,0:0:0:0:
192,192,185690,1,0,0:0:0:0:
64,192,185844,1,2,0:0:0:0:
192,192,185921,1,2,0:0:0:0:
448,192,185998,1,2,0:0:0:0:
320,192,185998,1,0,0:0:0:0:
64,192,186152,1,0,0:0:0:0:
192,192,186152,1,0,0:0:0:0:
448,192,186306,1,2,0:0:0:0:
320,192,186382,1,2,0:0:0:0:
192,192,186459,1,2,0:0:0:0:
64,192,186459,1,0,0:0:0:0:
448,192,186613,1,0,0:0:0:0:
320,192,186613,1,2,0:0:0:0:
64,192,186767,1,2,0:0:0:0:
192,192,186844,1,2,0:0:0:0:
320,192,186921,1,2,0:0:0:0:
448,192,186921,1,0,0:0:0:0:
192,192,187075,1,2,0:0:0:0:
64,192,187075,1,0,0:0:0:0:
448,192,187229,1,2,0:0:0:0:
320,192,187306,1,2,0:0:0:0:
192,192,187382,1,2,0:0:0:0:
64,192,187382,1,0,0:0:0:0:
192,192,187536,1,0,0:0:0:0:
320,192,187536,1,2,0:0:0:0:
64,192,187690,128,4,187844:0:0:0:0:
448,192,187690,128,0,187844:0:0:0:0:
192,192,187690,128,8,187844:0:0:0:0:
320,192,187690,128,8,187844:0:0:0:0:
320,192,187997,1,2,0:0:0:0:
448,192,187997,1,0,0:0:0:0:
192,192,188074,1,2,0:0:0:0:
64,192,188074,1,0,0:0:0:0:
320,192,188151,1,2,0:0:0:0:
448,192,188151,1,0,0:0:0:0:
192,192,188228,1,2,0:0:0:0:
64,192,188228,1,0,0:0:0:0:
320,192,188305,1,2,0:0:0:0:
448,192,188305,1,0,0:0:0:0:
192,192,188382,1,2,0:0:0:0:
64,192,188382,1,0,0:0:0:0:
320,192,188459,1,2,0:0:0:0:
448,192,188459,1,0,0:0:0:0:
192,192,188536,1,2,0:0:0:0:
64,192,188536,1,0,0:0:0:0:
320,192,188613,1,2,0:0:0:0:
448,192,188613,1,0,0:0:0:0:
192,192,188690,1,2,0:0:0:0:
64,192,188690,1,0,0:0:0:0:
320,192,188766,1,2,0:0:0:0:
448,192,188766,1,0,0:0:0:0:
64,192,188843,1,0,0:0:0:0:
192,192,188920,1,2,0:0:0:0:
448,192,188997,1,2,0:0:0:0:
320,192,189074,1,2,0:0:0:0:
64,192,189151,1,0,0:0:0:0:
192,192,189228,1,2,0:0:0:0:
448,192,189305,1,2,0:0:0:0:
320,192,189382,1,2,0:0:0:0:
192,192,189536,1,2,0:0:0:0:
64,192,189613,1,2,0:0:0:0:
448,192,189690,1,0,0:0:0:0:
192,192,189690,1,2,0:0:0:0:
320,192,189766,1,0,0:0:0:0:
64,192,189766,1,2,0:0:0:0:
192,192,189843,1,2,0:0:0:0:
448,192,189843,1,0,0:0:0:0:
64,192,189920,1,2,0:0:0:0:
320,192,189920,1,0,0:0:0:0:
192,192,189997,1,2,0:0:0:0:
64,192,190074,1,2,0:0:0:0:
192,192,190151,1,8,0:0:0:0:
320,192,190151,1,8,0:0:0:0:
448,192,190151,1,0,0:0:0:0:
64,192,190305,1,2,0:0:0:0:
448,192,190382,1,2,0:0:0:0:
320,192,190459,1,8,0:0:0:0:
192,192,190459,1,8,0:0:0:0:
64,192,190459,1,0,0:0:0:0:
448,192,190613,1,2,0:0:0:0:
64,192,190690,1,2,0:0:0:0:
192,192,190766,1,8,0:0:0:0:
320,192,190766,1,8,0:0:0:0:
448,192,190766,1,0,0:0:0:0:
64,192,190920,1,2,0:0:0:0:
448,192,190997,1,2,0:0:0:0:
320,192,191074,1,8,0:0:0:0:
192,192,191074,1,8,0:0:0:0:
64,192,191074,1,0,0:0:0:0:
448,192,191228,1,2,0:0:0:0:
320,192,191305,1,2,0:0:0:0:
192,192,191382,1,8,0:0:0:0:
64,192,191382,1,8,0:0:0:0:
448,192,191382,1,0,0:0:0:0:
320,192,191536,1,2,0:0:0:0:
192,192,191613,1,2,0:0:0:0:
64,192,191690,1,0,0:0:0:0:
320,192,191690,1,8,0:0:0:0:
448,192,191690,1,8,0:0:0:0:
192,192,191843,1,2,0:0:0:0:
64,192,191920,1,2,0:0:0:0:
448,192,191997,1,8,0:0:0:0:
320,192,191997,128,2,192151:0:0:0:0:
64,192,192151,1,8,0:0:0:0:
192,192,192151,128,2,192305:0:0:0:0:
320,192,192305,1,8,0:0:0:0:
448,192,192305,128,2,192459:0:0:0:0:
192,192,192459,1,8,0:0:0:0:
64,192,192459,128,2,192613:0:0:0:0:
320,192,192613,128,0,192920:0:0:0:0:
448,192,192613,128,0,192920:0:0:0:0:
64,192,192920,128,0,193074:0:0:0:0:
192,192,193074,1,0,0:0:0:0:
320,192,193074,1,0,0:0:0:0:
448,192,193074,1,4,0:0:0:0:
192,192,193228,1,0,0:0:0:0:
320,192,193382,1,0,0:0:0:0:
448,192,193536,1,0,0:0:0:0:
64,192,193613,1,0,0:0:0:0:
192,192,193689,1,0,0:0:0:0:
320,192,193766,1,0,0:0:0:0:
64,192,193843,128,0,193997:0:0:0:0:
448,192,193843,128,0,193997:0:0:0:0:
192,192,193997,128,0,194151:0:0:0:0:
320,192,193997,128,0,194151:0:0:0:0:
448,192,194151,128,0,194305:0:0:0:0:
64,192,194305,1,4,0:0:0:0:
192,192,194305,1,0,0:0:0:0:
320,192,194305,1,0,0:0:0:0:
320,192,194613,1,0,0:0:0:0:
192,192,194689,1,0,0:0:0:0:
64,192,194766,1,0,0:0:0:0:
448,192,194920,128,0,195074:0:0:0:0:
320,192,194920,1,0,0:0:0:0:
192,192,195074,128,0,195228:0:0:0:0:
64,192,195074,1,2,0:0:0:0:
320,192,195228,128,0,195382:0:0:0:0:
448,192,195228,1,0,0:0:0:0:
64,192,195382,128,0,195536:0:0:0:0:
192,192,195382,1,0,0:0:0:0:
448,192,195536,128,0,195689:0:0:0:0:
320,192,195536,1,2,0:0:0:0:
64,192,195689,128,0,195843:0:0:0:0:
192,192,195689,1,0,0:0:0:0:
192,192,195843,128,0,195997:0:0:0:0:
320,192,195843,1,0,0:0:0:0:
448,192,195997,128,0,196151:0:0:0:0:
64,192,195997,1,2,0:0:0:0:
320,192,196151,128,0,196305:0:0:0:0:
192,192,196151,1,0,0:0:0:0:
192,192,196305,128,0,196459:0:0:0:0:
64,192,196305,1,0,0:0:0:0:
448,192,196459,128,0,196613:0:0:0:0:
320,192,196459,1,2,0:0:0:0:
64,192,196613,128,0,196766:0:0:0:0:
192,192,196613,1,0,0:0:0:0:
192,192,196766,128,0,196920:0:0:0:0:
320,192,196766,1,0,0:0:0:0:
320,192,196920,128,0,197074:0:0:0:0:
448,192,196920,1,2,0:0:0:0:
64,192,197074,128,0,197228:0:0:0:0:
192,192,197074,1,0,0:0:0:0:
192,192,197228,128,0,197382:0:0:0:0:
320,192,197228,1,2,0:0:0:0:
448,192,197382,128,0,197536:0:0:0:0:
64,192,197382,1,0,0:0:0:0:
192,192,197536,128,4,197689:0:0:0:0:
64,192,197536,1,2,0:0:0:0:
320,192,197689,128,0,197843:0:0:0:0:
448,192,197689,1,0,0:0:0:0:
64,192,197843,128,0,197997:0:0:0:0:
192,192,197843,1,0,0:0:0:0:
448,192,197997,128,0,198151:0:0:0:0:
320,192,197997,1,2,0:0:0:0:
64,192,198151,128,0,198305:0:0:0:0:
192,192,198151,1,0,0:0:0:0:
192,192,198305,128,0,198459:0:0:0:0:
320,192,198305,1,0,0:0:0:0:
448,192,198459,128,0,198613:0:0:0:0:
64,192,198459,1,2,0:0:0:0:
320,192,198613,128,0,198766:0:0:0:0:
192,192,198613,1,0,0:0:0:0:
192,192,198766,128,0,198920:0:0:0:0:
64,192,198766,1,0,0:0:0:0:
448,192,198920,128,0,199074:0:0:0:0:
320,192,198920,1,2,0:0:0:0:
64,192,199074,128,0,199228:0:0:0:0:
192,192,199074,1,0,0:0:0:0:
192,192,199228,128,0,199382:0:0:0:0:
320,192,199228,1,0,0:0:0:0:
320,192,199382,128,0,199536:0:0:0:0:
448,192,199382,1,2,0:0:0:0:
64,192,199536,128,0,199689:0:0:0:0:
192,192,199536,1,0,0:0:0:0:
192,192,199689,128,0,199843:0:0:0:0:
320,192,199689,1,2,0:0:0:0:
448,192,199843,128,0,199997:0:0:0:0:
64,192,199843,1,0,0:0:0:0:
192,192,199997,128,4,200151:0:0:0:0:
64,192,199997,1,2,0:0:0:0:
448,192,200151,1,0,0:0:0:0:
320,192,200151,128,0,200305:0:0:0:0:
64,192,200305,1,0,0:0:0:0:
192,192,200382,1,0,0:0:0:0:
320,192,200459,1,0,0:0:0:0:
448,192,200459,128,4,200613:0:0:0:0:
192,192,200613,1,0,0:0:0:0:
64,192,200689,1,0,0:0:0:0:
320,192,200766,1,0,0:0:0:0:
192,192,200843,1,0,0:0:0:0:
64,192,200920,1,2,0:0:0:0:
448,192,200920,128,4,201074:0:0:0:0:
192,192,201074,1,0,0:0:0:0:
320,192,201151,1,0,0:0:0:0:
64,192,201228,1,0,0:0:0:0:
192,192,201305,1,0,0:0:0:0:
320,192,201382,1,2,0:0:0:0:
448,192,201382,128,4,201536:0:0:0:0:
192,192,201536,1,0,0:0:0:0:
64,192,201536,128,0,201689:0:0:0:0:
320,192,201689,1,0,0:0:0:0:
192,192,201689,128,0,201843:0:0:0:0:
448,192,201843,1,6,0:0:0:0:
320,192,201843,128,0,201997:0:0:0:0:
192,192,201997,1,0,0:0:0:0:
64,192,201997,128,0,202151:0:0:0:0:
192,192,202151,128,0,202305:0:0:0:0:
448,192,202151,1,6,0:0:0:0:
64,192,202305,1,0,0:0:0:0:
320,192,202305,128,0,202459:0:0:0:0:
448,192,202459,128,0,204766:0:0:0:0:
192,192,202459,1,8,0:0:0:0:
64,192,202459,1,4,0:0:0:0:
64,192,204920,128,0,206151:0:0:0:0:
192,192,205228,128,0,205843:0:0:0:0:
320,192,205536,128,8,205843:0:0:0:0:
448,192,206151,128,0,207382:0:0:0:0:
64,192,206459,128,0,207074:0:0:0:0:
192,192,206766,128,8,207074:0:0:0:0:
320,192,207382,128,0,208613:0:0:0:0:
64,192,207689,128,0,208305:0:0:0:0:
448,192,207997,128,8,208305:0:0:0:0:
192,192,208613,128,0,209843:0:0:0:0:
64,192,208920,128,0,209536:0:0:0:0:
320,192,209228,128,8,209536:0:0:0:0:
320,192,209843,1,0,0:0:0:0:
448,192,209843,1,2,0:0:0:0:
320,192,209997,1,0,0:0:0:0:
448,192,209997,1,2,0:0:0:0:
448,192,210151,1,2,0:0:0:0:
320,192,210151,1,0,0:0:0:0:
320,192,210305,1,0,0:0:0:0:
448,192,210305,1,2,0:0:0:0:
320,192,210459,1,0,0:0:0:0:
448,192,210459,1,2,0:0:0:0:
320,192,210613,1,0,0:0:0:0:
448,192,210613,1,2,0:0:0:0:
448,192,210766,1,2,0:0:0:0:
320,192,210766,1,0,0:0:0:0:
320,192,210920,1,0,0:0:0:0:
448,192,210920,1,2,0:0:0:0:
64,192,211074,1,0,0:0:0:0:
192,192,211074,1,2,0:0:0:0:
64,192,211228,1,0,0:0:0:0:
192,192,211228,1,2,0:0:0:0:
64,192,211382,1,0,0:0:0:0:
192,192,211382,1,2,0:0:0:0:
64,192,211536,1,0,0:0:0:0:
192,192,211536,1,2,0:0:0:0:
64,192,211689,1,0,0:0:0:0:
192,192,211689,1,2,0:0:0:0:
64,192,211843,1,0,0:0:0:0:
192,192,211843,1,2,0:0:0:0:
64,192,211997,1,0,0:0:0:0:
192,192,211997,1,2,0:0:0:0:
64,192,212151,1,0,0:0:0:0:
192,192,212151,1,2,0:0:0:0:
320,192,212305,1,8,0:0:0:0:
448,192,212305,1,8,0:0:0:0:
448,192,212459,1,0,0:0:0:0:
320,192,212536,1,0,0:0:0:0:
64,192,212613,1,8,0:0:0:0:
192,192,212613,1,8,0:0:0:0:
64,192,212766,1,0,0:0:0:0:
192,192,212843,1,0,0:0:0:0:
320,192,212920,1,8,0:0:0:0:
448,192,212920,1,8,0:0:0:0:
448,192,213074,1,0,0:0:0:0:
320,192,213151,1,0,0:0:0:0:
192,192,213228,1,8,0:0:0:0:
64,192,213228,1,8,0:0:0:0:
64,192,213382,1,0,0:0:0:0:
192,192,213459,1,0,0:0:0:0:
448,192,213536,1,2,0:0:0:0:
64,192,213536,1,0,0:0:0:0:
192,192,213689,1,0,0:0:0:0:
320,192,213689,1,2,0:0:0:0:
64,192,213843,1,0,0:0:0:0:
448,192,213843,1,2,0:0:0:0:
192,192,213997,1,0,0:0:0:0:
320,192,213997,1,2,0:0:0:0:
64,192,214151,1,0,0:0:0:0:
448,192,214151,1,2,0:0:0:0:
320,192,214305,1,2,0:0:0:0:
192,192,214382,1,2,0:0:0:0:
64,192,214459,1,2,0:0:0:0:
448,192,214536,1,2,0:0:0:0:
320,192,214613,1,2,0:0:0:0:
192,192,214689,1,2,0:0:0:0:
64,192,214689,1,0,0:0:0:0:
192,192,215074,1,8,0:0:0:0:
448,192,215074,1,0,0:0:0:0:
64,192,215074,1,0,0:0:0:0:
320,192,215074,1,8,0:0:0:0:
192,192,215227,1,2,0:0:0:0:
320,192,215381,1,8,0:0:0:0:
64,192,215381,1,0,0:0:0:0:
448,192,215535,1,0,0:0:0:0:
192,192,215689,1,8,0:0:0:0:
64,192,215689,1,2,0:0:0:0:
320,192,215843,1,0,0:0:0:0:
64,192,215997,1,0,0:0:0:0:
448,192,215997,1,8,0:0:0:0:
320,192,216170,1,2,0:0:0:0:
64,192,216324,1,0,0:0:0:0:
192,192,216324,1,8,0:0:0:0:
448,192,216478,1,0,0:0:0:0:
320,192,216555,1,0,0:0:0:0:
448,192,216632,1,8,0:0:0:0:
64,192,216632,1,2,0:0:0:0:
192,192,216786,1,0,0:0:0:0:
320,192,216940,1,8,0:0:0:0:
448,192,216940,1,2,0:0:0:0:
64,192,217093,1,0,0:0:0:0:
192,192,217170,1,0,0:0:0:0:
448,192,217247,1,2,0:0:0:0:
64,192,217247,1,8,0:0:0:0:
320,192,217401,1,0,0:0:0:0:
64,192,217555,1,0,0:0:0:0:
192,192,217555,1,8,0:0:0:0:
320,192,217709,1,2,0:0:0:0:
192,192,217863,1,0,0:0:0:0:
448,192,217863,1,8,0:0:0:0:
64,192,218017,1,0,0:0:0:0:
320,192,218170,1,8,0:0:0:0:
448,192,218170,1,2,0:0:0:0:
192,192,218324,1,0,0:0:0:0:
320,192,218401,1,0,0:0:0:0:
64,192,218478,1,8,0:0:0:0:
448,192,218478,1,0,0:0:0:0:
192,192,218632,1,2,0:0:0:0:
448,192,218786,1,8,0:0:0:0:
320,192,218786,1,0,0:0:0:0:
64,192,218940,1,0,0:0:0:0:
192,192,219017,1,0,0:0:0:0:
448,192,219093,1,2,0:0:0:0:
64,192,219093,1,8,0:0:0:0:
320,192,219247,1,0,0:0:0:0:
64,192,219401,1,2,0:0:0:0:
192,192,219401,1,8,0:0:0:0:
448,192,219555,1,0,0:0:0:0:
192,192,219632,1,0,0:0:0:0:
320,192,219709,1,12,0:0:0:0:
64,192,219709,1,2,0:0:0:0:
192,192,219863,1,0,0:0:0:0:
320,192,220017,1,8,0:0:0:0:
448,192,220017,1,0,0:0:0:0:
192,192,220170,1,2,0:0:0:0:
320,192,220324,1,8,0:0:0:0:
64,192,220324,1,0,0:0:0:0:
448,192,220478,1,0,0:0:0:0:
192,192,220632,1,8,0:0:0:0:
64,192,220632,1,2,0:0:0:0:
320,192,220786,1,0,0:0:0:0:
192,192,220863,1,0,0:0:0:0:
64,192,220940,1,0,0:0:0:0:
448,192,220940,1,8,0:0:0:0:
320,192,221093,1,2,0:0:0:0:
64,192,221247,1,0,0:0:0:0:
192,192,221247,1,8,0:0:0:0:
320,192,221401,1,0,0:0:0:0:
448,192,221555,1,8,0:0:0:0:
64,192,221555,1,2,0:0:0:0:
192,192,221709,1,0,0:0:0:0:
320,192,221863,1,8,0:0:0:0:
448,192,221863,1,2,0:0:0:0:
64,192,222017,1,0,0:0:0:0:
192,192,222093,1,0,0:0:0:0:
448,192,222170,1,2,0:0:0:0:
64,192,222170,1,8,0:0:0:0:
320,192,222324,1,0,0:0:0:0:
64,192,222478,1,0,0:0:0:0:
192,192,222478,1,8,0:0:0:0:
320,192,222632,1,2,0:0:0:0:
192,192,222786,1,0,0:0:0:0:
448,192,222786,1,8,0:0:0:0:
64,192,222940,1,0,0:0:0:0:
320,192,223093,1,8,0:0:0:0:
448,192,223093,1,2,0:0:0:0:
192,192,223247,1,0,0:0:0:0:
320,192,223324,1,0,0:0:0:0:
64,192,223401,1,8,0:0:0:0:
448,192,223401,1,0,0:0:0:0:
192,192,223555,1,2,0:0:0:0:
448,192,223709,1,8,0:0:0:0:
320,192,223709,1,0,0:0:0:0:
64,192,223863,1,0,0:0:0:0:
192,192,223940,1,0,0:0:0:0:
448,192,224017,1,2,0:0:0:0:
64,192,224017,1,8,0:0:0:0:
320,192,224170,1,0,0:0:0:0:
64,192,224324,1,2,0:0:0:0:
192,192,224324,1,8,0:0:0:0:
320,192,224478,1,0,0:0:0:0:
64,192,224612,1,12,0:0:0:0:
192,192,224612,1,8,0:0:0:0:
448,192,224612,1,2,0:0:0:0:
64,192,224765,1,0,0:0:0:0:
320,192,224765,1,0,0:0:0:0:
192,192,224919,1,0,0:0:0:0:
64,192,224919,1,0,0:0:0:0:
64,192,225073,1,2,0:0:0:0:
320,192,225073,1,8,0:0:0:0:
448,192,225073,1,12,0:0:0:0:
448,192,225227,1,0,0:0:0:0:
192,192,225227,1,0,0:0:0:0:
448,192,225381,1,0,0:0:0:0:
320,192,225381,1,0,0:0:0:0:
64,192,225535,1,12,0:0:0:0:
192,192,225535,1,8,0:0:0:0:
448,192,225535,1,2,0:0:0:0:
320,192,225688,1,0,0:0:0:0:
192,192,225765,1,0,0:0:0:0:
448,192,225842,1,8,0:0:0:0:
64,192,225842,1,0,0:0:0:0:
192,192,225996,1,2,0:0:0:0:
448,192,225996,1,12,0:0:0:0:
320,192,225996,1,8,0:0:0:0:
64,192,226304,1,0,0:0:0:0:
192,192,226304,1,0,0:0:0:0:
192,192,226458,1,8,0:0:0:0:
64,192,226458,1,2,0:0:0:0:
448,192,226458,1,0,0:0:0:0:
448,192,226612,1,0,0:0:0:0:
320,192,226612,1,0,0:0:0:0:
448,192,226765,1,8,0:0:0:0:
192,192,226765,1,2,0:0:0:0:
320,192,226765,1,8,0:0:0:0:
192,192,227073,1,0,0:0:0:0:
448,192,227073,1,6,0:0:0:0:
64,192,227073,1,0,0:0:0:0:
64,192,227227,1,0,0:0:0:0:
320,192,227227,1,0,0:0:0:0:
64,192,227381,1,0,0:0:0:0:
192,192,227381,1,0,0:0:0:0:
448,192,227535,1,2,0:0:0:0:
64,192,227535,1,4,0:0:0:0:
320,192,227535,1,0,0:0:0:0:
192,192,227688,1,0,0:0:0:0:
448,192,227688,1,0,0:0:0:0:
448,192,227842,1,0,0:0:0:0:
320,192,227842,1,0,0:0:0:0:
64,192,227996,1,2,0:0:0:0:
192,192,227996,128,0,228150:0:0:0:0:
320,192,228150,128,0,228304:0:0:0:0:
64,192,228304,128,0,228458:0:0:0:0:
448,192,228458,128,0,228612:0:0:0:0:
192,192,228612,128,0,228765:0:0:0:0:
320,192,228765,128,0,228919:0:0:0:0:
64,192,228919,128,0,229073:0:0:0:0:
192,192,228996,1,0,0:0:0:0:
448,192,229073,128,0,229227:0:0:0:0:
192,192,229227,128,0,229381:0:0:0:0:
320,192,229381,128,0,229535:0:0:0:0:
64,192,229535,1,12,0:0:0:0:
192,192,229535,1,8,0:0:0:0:
448,192,229535,1,2,0:0:0:0:
64,192,229688,1,0,0:0:0:0:
320,192,229688,1,0,0:0:0:0:
192,192,229842,1,0,0:0:0:0:
64,192,229842,1,0,0:0:0:0:
64,192,229996,1,2,0:0:0:0:
320,192,229996,1,8,0:0:0:0:
448,192,229996,1,12,0:0:0:0:
448,192,230150,1,0,0:0:0:0:
192,192,230150,1,0,0:0:0:0:
448,192,230304,1,0,0:0:0:0:
320,192,230304,1,0,0:0:0:0:
64,192,230458,1,12,0:0:0:0:
192,192,230458,1,8,0:0:0:0:
448,192,230458,1,2,0:0:0:0:
320,192,230612,1,0,0:0:0:0:
192,192,230688,1,0,0:0:0:0:
64,192,230765,1,0,0:0:0:0:
448,192,230765,1,0,0:0:0:0:
192,192,230919,1,2,0:0:0:0:
448,192,230919,1,12,0:0:0:0:
320,192,230919,1,8,0:0:0:0:
64,192,231227,1,0,0:0:0:0:
192,192,231227,1,0,0:0:0:0:
192,192,231381,1,8,0:0:0:0:
64,192,231381,1,2,0:0:0:0:
448,192,231381,1,0,0:0:0:0:
448,192,231535,1,0,0:0:0:0:
320,192,231535,1,0,0:0:0:0:
448,192,231688,1,8,0:0:0:0:
192,192,231688,1,2,0:0:0:0:
320,192,231688,1,8,0:0:0:0:
192,192,231996,1,0,0:0:0:0:
448,192,231996,1,2,0:0:0:0:
64,192,231996,1,4,0:0:0:0:
64,192,232150,1,0,0:0:0:0:
320,192,232150,1,0,0:0:0:0:
64,192,232304,1,0,0:0:0:0:
192,192,232304,1,0,0:0:0:0:
448,192,232458,1,6,0:0:0:0:
64,192,232458,1,0,0:0:0:0:
320,192,232458,1,0,0:0:0:0:
192,192,232612,1,0,0:0:0:0:
448,192,232612,1,0,0:0:0:0:
448,192,232765,1,0,0:0:0:0:
320,192,232765,1,0,0:0:0:0:
192,192,232919,1,8,0:0:0:0:
448,192,232919,1,2,0:0:0:0:
64,192,232919,128,4,234150:0:0:0:0:
448,192,233842,1,0,0:0:0:0:
320,192,233919,1,0,0:0:0:0:
448,192,233996,1,0,0:0:0:0:
320,192,234073,1,0,0:0:0:0:
448,192,234150,1,0,0:0:0:0:
192,192,234150,1,0,0:0:0:0:
448,192,234458,1,12,0:0:0:0:
64,192,234458,1,2,0:0:0:0:
192,192,234612,1,0,0:0:0:0:
448,192,234765,1,0,0:0:0:0:
320,192,234765,1,8,0:0:0:0:
192,192,234919,1,2,0:0:0:0:
64,192,235073,1,0,0:0:0:0:
320,192,235073,1,8,0:0:0:0:
448,192,235227,1,0,0:0:0:0:
64,192,235381,1,2,0:0:0:0:
192,192,235381,1,8,0:0:0:0:
320,192,235535,1,0,0:0:0:0:
192,192,235612,1,0,0:0:0:0:
448,192,235688,1,8,0:0:0:0:
64,192,235688,1,0,0:0:0:0:
320,192,235842,1,2,0:0:0:0:
192,192,235996,1,8,0:0:0:0:
64,192,235996,1,0,0:0:0:0:
448,192,236150,1,0,0:0:0:0:
320,192,236227,1,0,0:0:0:0:
64,192,236304,1,2,0:0:0:0:
448,192,236304,1,8,0:0:0:0:
192,192,236458,1,0,0:0:0:0:
448,192,236612,1,2,0:0:0:0:
320,192,236612,1,8,0:0:0:0:
64,192,236765,1,0,0:0:0:0:
192,192,236842,1,0,0:0:0:0:
64,192,236919,1,8,0:0:0:0:
448,192,236919,1,2,0:0:0:0:
320,192,237073,1,0,0:0:0:0:
192,192,237227,1,8,0:0:0:0:
64,192,237227,1,0,0:0:0:0:
320,192,237381,1,2,0:0:0:0:
448,192,237535,1,8,0:0:0:0:
192,192,237535,1,0,0:0:0:0:
64,192,237688,1,0,0:0:0:0:
448,192,237842,1,2,0:0:0:0:
320,192,237842,1,8,0:0:0:0:
192,192,237996,1,0,0:0:0:0:
320,192,238073,1,0,0:0:0:0:
448,192,238150,1,0,0:0:0:0:
64,192,238150,1,8,0:0:0:0:
192,192,238304,1,2,0:0:0:0:
320,192,238458,1,0,0:0:0:0:
448,192,238458,1,8,0:0:0:0:
64,192,238612,1,0,0:0:0:0:
192,192,238688,1,0,0:0:0:0:
64,192,238765,1,8,0:0:0:0:
448,192,238765,1,2,0:0:0:0:
320,192,238919,1,0,0:0:0:0:
192,192,239073,1,8,0:0:0:0:
64,192,239073,1,2,0:0:0:0:
448,192,239227,1,0,0:0:0:0:
192,192,239304,1,0,0:0:0:0:
64,192,239381,1,2,0:0:0:0:
320,192,239381,1,8,0:0:0:0:
192,192,239535,1,0,0:0:0:0:
448,192,239688,1,0,0:0:0:0:
320,192,239688,1,8,0:0:0:0:
192,192,239842,1,2,0:0:0:0:
64,192,239996,1,0,0:0:0:0:
320,192,239996,1,8,0:0:0:0:
448,192,240150,1,0,0:0:0:0:
64,192,240304,1,2,0:0:0:0:
192,192,240304,1,8,0:0:0:0:
320,192,240458,1,0,0:0:0:0:
192,192,240535,1,0,0:0:0:0:
448,192,240612,1,8,0:0:0:0:
64,192,240612,1,0,0:0:0:0:
320,192,240765,1,2,0:0:0:0:
192,192,240919,1,8,0:0:0:0:
64,192,240919,1,0,0:0:0:0:
448,192,241073,1,0,0:0:0:0:
320,192,241150,1,0,0:0:0:0:
64,192,241227,1,2,0:0:0:0:
448,192,241227,1,8,0:0:0:0:
192,192,241381,1,0,0:0:0:0:
448,192,241535,1,2,0:0:0:0:
320,192,241535,1,8,0:0:0:0:
64,192,241688,1,0,0:0:0:0:
192,192,241765,1,0,0:0:0:0:
64,192,241842,1,8,0:0:0:0:
448,192,241842,1,2,0:0:0:0:
320,192,241996,1,0,0:0:0:0:
192,192,242150,1,8,0:0:0:0:
64,192,242150,1,0,0:0:0:0:
320,192,242304,1,2,0:0:0:0:
448,192,242458,1,8,0:0:0:0:
192,192,242458,1,0,0:0:0:0:
64,192,242612,1,0,0:0:0:0:
448,192,242765,1,2,0:0:0:0:
320,192,242765,1,8,0:0:0:0:
192,192,242919,1,0,0:0:0:0:
320,192,242996,1,0,0:0:0:0:
448,192,243073,1,0,0:0:0:0:
64,192,243073,1,8,0:0:0:0:
192,192,243227,1,2,0:0:0:0:
320,192,243381,1,0,0:0:0:0:
448,192,243381,1,8,0:0:0:0:
64,192,243535,1,0,0:0:0:0:
192,192,243612,1,0,0:0:0:0:
64,192,243688,1,8,0:0:0:0:
448,192,243688,1,2,0:0:0:0:
320,192,243842,1,0,0:0:0:0:
192,192,243996,1,8,0:0:0:0:
64,192,243996,1,2,0:0:0:0:
448,192,244150,1,0,0:0:0:0:
320,192,244227,1,0,0:0:0:0:
64,192,244304,1,6,0:0:0:0:
448,192,244304,1,8,0:0:0:0:
192,192,244458,1,0,0:0:0:0:
64,192,244535,1,0,0:0:0:0:
320,192,244612,1,8,0:0:0:0:
448,192,244612,1,0,0:0:0:0:
192,192,244765,1,2,0:0:0:0:
448,192,244842,1,0,0:0:0:0:
320,192,244919,1,8,0:0:0:0:
64,192,244919,1,0,0:0:0:0:
448,192,245073,1,0,0:0:0:0:
320,192,245150,1,0,0:0:0:0:
192,192,245227,1,8,0:0:0:0:
64,192,245227,1,2,0:0:0:0:
320,192,245381,1,0,0:0:0:0:
192,192,245458,1,0,0:0:0:0:
64,192,245535,1,0,0:0:0:0:
448,192,245535,1,8,0:0:0:0:
320,192,245688,1,2,0:0:0:0:
448,192,245765,1,0,0:0:0:0:
64,192,245842,1,0,0:0:0:0:
192,192,245842,1,8,0:0:0:0:
448,192,245996,1,0,0:0:0:0:
320,192,246073,1,0,0:0:0:0:
448,192,246150,1,8,0:0:0:0:
64,192,246150,1,2,0:0:0:0:
192,192,246304,1,0,0:0:0:0:
64,192,246381,1,0,0:0:0:0:
320,192,246458,1,8,0:0:0:0:
448,192,246458,1,2,0:0:0:0:
64,192,246612,1,0,0:0:0:0:
192,192,246688,1,0,0:0:0:0:
448,192,246765,1,6,0:0:0:0:
64,192,246765,1,8,0:0:0:0:
320,192,246919,1,0,0:0:0:0:
448,192,246996,1,0,0:0:0:0:
64,192,247073,1,0,0:0:0:0:
192,192,247073,1,8,0:0:0:0:
320,192,247227,1,2,0:0:0:0:
64,192,247304,1,0,0:0:0:0:
192,192,247381,1,0,0:0:0:0:
448,192,247381,1,8,0:0:0:0:
64,192,247535,1,0,0:0:0:0:
192,192,247612,1,0,0:0:0:0:
320,192,247688,1,8,0:0:0:0:
448,192,247688,1,2,0:0:0:0:
192,192,247842,1,0,0:0:0:0:
320,192,247919,1,0,0:0:0:0:
64,192,247996,1,8,0:0:0:0:
448,192,247996,1,0,0:0:0:0:
192,192,248150,1,2,0:0:0:0:
64,192,248227,1,0,0:0:0:0:
448,192,248304,1,8,0:0:0:0:
320,192,248304,1,0,0:0:0:0:
64,192,248458,1,0,0:0:0:0:
192,192,248535,1,0,0:0:0:0:
448,192,248612,1,2,0:0:0:0:
64,192,248612,1,8,0:0:0:0:
320,192,248765,1,0,0:0:0:0:
448,192,248842,1,0,0:0:0:0:
64,192,248919,1,2,0:0:0:0:
192,192,248919,1,8,0:0:0:0:
448,192,249073,1,0,0:0:0:0:
320,192,249150,1,0,0:0:0:0:
192,192,249227,1,2,0:0:0:0:
64,192,249227,1,0,0:0:0:0:
448,192,249304,1,0,0:0:0:0:
320,192,249381,1,0,0:0:0:0:
192,192,249458,1,0,0:0:0:0:
64,192,249535,1,0,0:0:0:0:
192,192,249612,1,0,0:0:0:0:
320,192,249688,1,2,0:0:0:0:
448,192,249688,1,0,0:0:0:0:
64,192,249765,1,0,0:0:0:0:
192,192,249842,1,0,0:0:0:0:
320,192,249919,1,0,0:0:0:0:
448,192,249996,1,0,0:0:0:0:
320,192,250073,1,0,0:0:0:0:
64,192,250150,1,0,0:0:0:0:
192,192,250150,1,2,0:0:0:0:
448,192,250227,1,0,0:0:0:0:
320,192,250304,1,0,0:0:0:0:
192,192,250381,1,0,0:0:0:0:
64,192,250458,1,0,0:0:0:0:
192,192,250535,1,0,0:0:0:0:
320,192,250612,1,2,0:0:0:0:
448,192,250612,1,0,0:0:0:0:
64,192,250688,1,0,0:0:0:0:
192,192,250765,1,0,0:0:0:0:
320,192,250842,1,0,0:0:0:0:
448,192,250919,1,0,0:0:0:0:
320,192,250996,1,0,0:0:0:0:
192,192,251073,1,2,0:0:0:0:
64,192,251073,1,0,0:0:0:0:
448,192,251150,1,0,0:0:0:0:
64,192,251227,1,0,0:0:0:0:
192,192,251304,1,0,0:0:0:0:
320,192,251381,1,2,0:0:0:0:
448,192,251458,1,0,0:0:0:0:
64,192,251535,1,0,0:0:0:0:
192,192,251612,1,0,0:0:0:0:
320,192,251688,1,0,0:0:0:0:
448,192,251688,1,2,0:0:0:0:
64,192,251765,1,0,0:0:0:0:
192,192,251842,1,0,0:0:0:0:
320,192,251919,1,0,0:0:0:0:
448,192,251996,1,0,0:0:0:0:
320,192,252073,1,0,0:0:0:0:
192,192,252150,1,0,0:0:0:0:
64,192,252150,1,2,0:0:0:0:
448,192,252227,1,0,0:0:0:0:
320,192,252304,1,0,0:0:0:0:
192,192,252381,1,0,0:0:0:0:
64,192,252458,1,0,0:0:0:0:
192,192,252535,1,0,0:0:0:0:
320,192,252612,1,0,0:0:0:0:
448,192,252612,1,2,0:0:0:0:
64,192,252688,1,0,0:0:0:0:
192,192,252765,1,0,0:0:0:0:
320,192,252842,1,0,0:0:0:0:
448,192,252919,1,2,0:0:0:0:
64,192,252919,1,0,0:0:0:0:
320,192,252996,1,2,0:0:0:0:
192,192,252996,1,0,0:0:0:0:
64,192,253073,1,0,0:0:0:0:
448,192,253073,1,2,0:0:0:0:
320,192,253150,1,2,0:0:0:0:
192,192,253227,1,2,0:0:0:0:
64,192,253227,1,0,0:0:0:0:
320,192,253304,1,2,0:0:0:0:
448,192,253304,1,0,0:0:0:0:
64,192,253381,1,0,0:0:0:0:
192,192,253381,1,2,0:0:0:0:
320,192,253535,1,8,0:0:0:0:
448,192,253535,1,8,0:0:0:0:
192,192,253688,1,8,0:0:0:0:
64,192,253688,1,8,0:0:0:0:
192,192,253842,1,8,0:0:0:0:
320,192,253842,1,8,0:0:0:0:
320,192,253996,1,8,0:0:0:0:
448,192,253996,1,8,0:0:0:0:
64,192,254150,128,0,256150:0:0:0:0:
192,192,254150,1,4,0:0:0:0:
320,192,254310,1,0,0:0:0:0:
192,192,254464,1,0,0:0:0:0:
448,192,254618,1,0,0:0:0:0:
320,192,254772,1,0,0:0:0:0:
192,192,254926,1,0,0:0:0:0:
320,192,255080,1,0,0:0:0:0:
448,192,255233,1,0,0:0:0:0:
192,192,255387,1,0,0:0:0:0:
448,192,255541,1,0,0:0:0:0:
320,192,255695,1,0,0:0:0:0:
192,192,255849,1,0,0:0:0:0:
448,192,256003,1,8,0:0:0:0:
320,192,256003,1,8,0:0:0:0:
192,192,256003,1,0,0:0:0:0:
320,192,256157,1,8,0:0:0:0:
192,192,256157,1,0,0:0:0:0:
448,192,256157,1,8,0:0:0:0:
