osu file format v14

[General]
AudioFilename: audio.mp3
AudioLeadIn: 0
PreviewTime: 52842
Countdown: 0
SampleSet: Normal
StackLeniency: 0.7
Mode: 0
LetterboxInBreaks: 0
WidescreenStoryboard: 0

[Editor]
Bookmarks: 1775,11622,21468,31314,41160,53468,63304,73150,78073,89929
DistanceSpacing: 1
BeatDivisor: 4
GridSize: 32
TimelineZoom: 1.8

[Metadata]
Title:Valkyrie-Ikusa Otome-
TitleUnicode:Valkyrie-戦乙女-
Artist:Wagakki Band
ArtistUnicode:和楽器バンド
Creator:Shiro
Version:Insane
Source:双星の陰陽師
Tags:Odaril opening op akali twin star exorcists Sousei no Onmyoji
BeatmapID:975963
BeatmapSetID:452310

[Difficulty]
HPDrainRate:6
CircleSize:4
OverallDifficulty:8
ApproachRate:8.5
SliderMultiplier:1.8
SliderTickRate:2

[Events]
//Background and Video events
0,0,"background.jpg",0,0
//Break Periods
//Storyboard Layer 0 (Background)
//Storyboard Layer 1 (Fail)
//Storyboard Layer 2 (Pass)
//Storyboard Layer 3 (Foreground)
//Storyboard Sound Samples

[TimingPoints]
1746,307.692307692308,4,1,9,55,1,0
1976,-100,4,1,9,55,0,0
4169,-100,4,1,8,55,0,0
4246,-100,4,1,9,55,0,0
6630,-100,4,1,8,55,0,0
6707,-100,4,1,9,55,0,0
9092,-100,4,1,8,55,0,0
11612,307.692307692308,4,2,9,55,1,0
19996,-100,4,2,8,55,0,0
21535,-100,4,2,9,55,0,0
53458,-100,4,2,9,70,0,1
73150,-100,4,2,9,70,0,0
78073,-100,4,2,8,70,0,0
87919,-100,4,2,8,70,0,0

[Colours]
Combo1 : 0,64,128
Combo2 : 128,0,0
Combo3 : 192,192,192
Combo4 : 133,208,85

[HitObjects]
499,295,1745,6,0,L|486:196,1,90,0|0,1:0|2:0,0:0:0:0:
415,260,2053,1,0,2:0:0:0:
343,314,2207,2,0,L|330:215,1,90,0|0,1:0|2:0,0:0:0:0:
259,279,2515,1,0,2:0:0:0:
187,333,2669,2,0,L|174:234,1,90,0|0,1:0|2:0,0:0:0:0:
103,298,2977,1,0,2:0:0:0:
31,352,3130,2,0,L|18:253,1,90,0|0,1:0|2:0,0:0:0:0:
91,208,3438,1,0,2:0:0:0:
52,126,3592,2,0,L|70:34,1,90,0|0,1:0|2:0,0:0:0:0:
182,67,3899,2,0,L|164:159,1,90,0|0,1:0|2:0,0:0:0:0:
300,158,4207,6,0,L|389:129,1,90,0|0,1:0|2:0,0:0:0:0:
367,218,4515,1,0,0:0:0:0:
385,306,4669,2,0,L|299:278,1,90,0|0,1:0|2:0,0:0:0:0:
213,305,4976,1,0,0:0:0:0:
146,244,5130,2,0,L|235:215,1,90,0|0,1:0|2:0,0:0:0:0:
164,155,5438,1,0,0:0:0:0:
182,66,5592,2,0,L|97:94,1,90,0|0,1:0|2:0,0:0:0:0:
78,182,5899,1,0,0:0:0:0:
41,307,6053,1,0,0:0:0:0:
62,314,6130,1,0,0:0:0:0:
83,321,6206,1,0,0:0:0:0:
171,323,6360,1,0,0:0:0:0:
192,313,6438,1,0,0:0:0:0:
213,305,6515,1,0,0:0:0:0:
297,150,6669,6,0,L|310:49,1,90,0|0,0:0|2:0,0:0:0:0:
379,115,6976,1,0,0:0:0:0:
368,204,7130,2,0,L|355:305,1,90,0|0,0:0|2:0,0:0:0:0:
284,238,7438,1,0,0:0:0:0:
214,180,7592,2,0,L|225:90,1,90,0|0,0:0|2:0,0:0:0:0:
141,124,7899,1,0,0:0:0:0:
127,213,8053,2,0,L|114:314,1,90,0|0,0:0|2:0,0:0:0:0:
198,266,8361,1,0,0:0:0:0:
284,238,8515,2,0,L|297:137,1,90,0|0,0:0|2:0,0:0:0:0:
432,69,8822,2,0,L|419:170,1,90,0|0,0:0|2:0,0:0:0:0:
399,325,9130,5,0,0:0:0:0:
309,341,9284,2,0,L|195:348,1,90,0|0,0:0|2:0,0:0:0:0:
108,271,9592,2,0,L|222:264,1,90,0|0,0:0|2:0,0:0:0:0:
296,166,9899,1,0,0:0:0:0:
206,182,10053,2,0,L|92:189,1,90,0|0,0:0|2:0,0:0:0:0:
5,112,10361,2,0,L|119:105,1,90,0|0,0:0|2:0,0:0:0:0:
195,13,10669,1,0,0:0:0:0:
195,13,10822,1,0,0:0:0:0:
375,4,10976,1,0,0:0:0:0:
294,164,11130,1,0,0:0:0:0:
54,312,11612,6,0,P|50:269|60:217,1,90
132,172,11919,2,0,P|171:190|211:224,1,90,2|0,0:0|0:0,0:0:0:0:
214,310,12227,2,0,P|178:334|128:352,1,90,2|0,0:0|0:0,0:0:0:0:
54,312,12535,1,10,0:0:0:0:
59,142,12688,2,0,P|99:100|210:132,1,180,2|0,0:0|0:0,0:0:0:0:
281,182,13150,6,0,P|318:207|360:222,1,90,2|0,0:0|0:0,0:0:0:0:
443,191,13458,2,0,P|447:146|440:102,1,90,2|0,0:0|0:0,0:0:0:0:
368,45,13765,2,0,P|327:64|292:93,1,90,10|0,0:0|0:0,0:0:0:0:
209,256,14073,2,0,P|149:317|61:294,1,180,2|0,0:0|0:0,0:0:0:0:
191,165,14535,2,0,P|275:191|299:275,1,180,2|0,0:0|0:0,0:0:0:0:
122,226,14996,2,0,P|99:143|167:78,1,180,10|0,0:0|0:0,0:0:0:0:
337,59,15612,1,0,0:0:0:0:
393,229,15919,6,0,P|419:264|469:301,1,90,2|0,0:0|0:0,0:0:0:0:
320,227,16227,2,0,P|321:270|340:329,1,90,10|0,0:0|0:0,0:0:0:0:
261,183,16535,2,0,P|237:219|229:364,1,180,2|0,0:0|0:0,0:0:0:0:
152,202,16996,2,0,P|200:128|279:85,1,180,2|0,0:0|0:0,0:0:0:0:
114,110,17458,2,0,P|90:146|82:291,1,180,10|0,0:0|0:0,0:0:0:0:
23,107,18073,1,2,0:0:0:0:
23,107,18381,1,0,0:0:0:0:
188,37,18688,5,10,0:0:0:0:
313,165,18996,2,0,P|398:193|447:175,1,135
479,159,19304,1,2,0:0:0:0:
403,289,19458,2,0,L|358:367,1,90,2|0,0:0|0:0,0:0:0:0:
293,280,19765,2,0,L|248:358,1,90,2|0,0:0|0:0,0:0:0:0:
183,271,20073,6,0,L|83:291,1,90,0|0,1:0|1:0,1:0:0:0:
115,136,20381,2,0,L|110:46,1,90,0|0,1:0|0:0,0:0:0:0:
265,144,20688,1,0,1:0:0:0:
415,152,20842,1,0,1:0:0:0:
298,66,20996,1,0,1:0:0:0:
381,229,21150,1,0,1:0:0:0:
399,56,21304,1,0,1:0:0:0:
280,239,21458,6,0,P|206:288|111:306,1,180,4|8,1:2|0:0,0:0:0:0:
176,135,22073,1,0,1:0:0:0:
176,135,22227,1,0,1:0:0:0:
30,35,22381,2,0,P|25:80|31:124,1,90,8|0,0:0|0:0,0:0:0:0:
160,41,22688,6,0,P|249:29|341:42,1,180,0|8,1:0|0:0,0:0:0:0:
420,78,23150,1,0,0:0:0:0:
406,213,23304,1,0,1:0:0:0:
406,213,23458,1,0,1:0:0:0:
228,220,23612,2,0,P|219:265|223:318,1,90,8|0,0:0|0:0,0:0:0:0:
318,190,23919,6,0,P|237:199|139:175,1,180,0|8,1:0|0:0,0:0:0:0:
71,119,24381,1,0,0:0:0:0:
45,247,24535,1,0,1:0:0:0:
45,247,24688,1,0,1:0:0:0:
152,88,24842,2,0,P|189:65|241:52,1,90,8|0,0:0|0:0,0:0:0:0:
388,37,25150,6,0,L|382:143,1,90,0|0,1:0|0:0,0:0:0:0:
426,206,25458,2,0,L|432:312,1,90,8|0,0:0|0:0,0:0:0:0:
318,190,25765,1,0,1:0:0:0:
318,190,25919,1,0,1:0:0:0:
221,340,26073,2,0,P|177:337|129:318,1,90,8|0,0:0|0:0,0:0:0:0:
40,195,26381,6,0,P|93:143|189:90,1,180,0|8,1:0|0:0,0:0:0:0:
272,113,26842,1,0,0:0:0:0:
193,223,26996,1,0,1:0:0:0:
193,223,27150,1,0,1:0:0:0:
361,137,27304,2,0,P|405:149|448:174,1,90,8|0,0:0|0:0,0:0:0:0:
407,321,27612,6,0,L|313:308,1,90,0|0,1:0|0:0,0:0:0:0:
231,335,27919,2,0,L|137:348,1,90,8|0,0:0|0:0,0:0:0:0:
27,245,28227,1,0,0:0:0:0:
27,245,28381,1,0,0:0:0:0:
165,185,28535,2,0,P|180:142|179:98,1,90,8|0,0:0|0:0,0:0:0:0:
49,94,28842,5,0,1:0:0:0:
116,261,28996,1,0,0:0:0:0:
259,152,29150,1,8,0:0:0:0:
330,318,29304,1,0,0:0:0:0:
438,173,29458,1,0,1:0:0:0:
438,173,29612,1,0,1:0:0:0:
367,8,29765,2,0,P|322:23|275:28,1,90,8|0,0:0|0:0,1:0:0:0:
130,93,30073,6,0,L|113:189,1,90,0|0,1:0|0:0,0:0:0:0:
216,79,30381,1,8,0:0:0:0:
165,290,30535,1,0,1:0:0:0:
165,290,30612,1,0,1:0:0:0:
165,290,30688,1,0,1:0:0:0:
300,130,30842,1,0,1:0:0:0:
259,318,30996,1,0,1:0:0:0:
384,181,31150,1,0,1:0:0:0:
353,345,31304,5,4,1:2:0:0:
353,345,31765,2,0,L|370:255,1,90,0|8,0:0|0:0,0:0:0:0:
194,211,32227,2,0,P|140:165|287:157,1,360,0|8,0:0|0:0,0:0:0:0:
165,276,33150,2,0,P|93:226|63:136,1,180,0|8,0:0|0:0,0:0:0:0:
328,242,33765,5,0,0:0:0:0:
328,242,34227,2,0,L|422:206,1,90,0|8,0:0|0:0,0:0:0:0:
243,272,34688,1,0,0:0:0:0:
497,182,35150,1,0,0:0:0:0:
430,121,35304,2,8,L|387:137,3,45,8|8|0|0,0:0|0:0|0:0|0:0,0:0:0:0:
342,136,35612,2,0,L|230:129,2,90,0|0|8,0:0|0:0|0:0,0:0:0:0:
114,50,36227,5,0,0:0:0:0:
43,106,36381,1,0,0:0:0:0:
98,177,36535,2,0,P|127:240|88:351,1,180,0|8,0:0|0:0,0:0:0:0:
276,334,37150,1,0,0:0:0:0:
359,299,37304,1,0,0:0:0:0:
443,329,37458,2,0,P|465:241|454:147,1,180,0|8,0:0|0:0,0:0:0:0:
396,85,37919,1,0,0:0:0:0:
396,85,37996,1,0,0:0:0:0:
396,85,38073,2,0,P|308:99|215:87,1,180,8|8,0:0|0:0,0:0:0:0:
27,269,38688,5,0,0:0:0:0:
96,326,38842,1,0,0:0:0:0:
172,279,38996,2,0,P|256:251|340:279,1,180,0|8,0:0|0:0,0:0:0:0:
181,192,39612,1,0,0:0:0:0:
94,167,39765,1,0,0:0:0:0:
159,105,39919,2,0,P|245:66|331:66,1,180,0|8,0:0|0:0,0:0:0:0:
466,153,40381,1,8,0:0:0:0:
316,221,40535,2,0,L|265:245,3,45
232,227,40842,2,0,L|181:203,3,45
150,228,41150,5,4,1:0:0:0:
286,345,41458,1,0,1:0:0:0:
268,166,41765,1,0,1:0:0:0:
404,283,42073,1,0,1:0:0:0:
386,104,42381,1,0,1:0:0:0:
212,59,42688,1,0,1:0:0:0:
150,228,42996,1,0,1:0:0:0:
324,273,43304,1,0,1:0:0:0:
91,110,43612,5,4,1:0:0:0:
36,281,43919,1,0,1:0:0:0:
207,335,44227,1,0,1:0:0:0:
268,166,44535,1,0,1:0:0:0:
130,281,44842,1,0,1:0:0:0:
310,277,45150,1,0,1:0:0:0:
160,176,45458,1,0,1:0:0:0:
340,172,45765,1,0,1:0:0:0:
48,47,46073,6,0,L|12:151,1,90,0|0,1:0|0:0,0:0:0:0:
131,91,46381,2,0,L|167:195,1,90,0|0,1:0|0:0,0:0:0:0:
270,39,46688,2,0,L|234:143,1,90,0|0,1:0|0:0,0:0:0:0:
353,83,46996,2,0,L|389:187,1,90,0|0,1:0|0:0,0:0:0:0:
421,311,47304,2,0,L|331:298,1,90,0|0,1:0|0:0,0:0:0:0:
179,342,47612,2,0,L|289:358,1,90,0|0,1:0|0:0,0:0:0:0:
154,246,47919,2,0,L|243:258,1,90,0|0,1:0|0:0,0:0:0:0:
90,302,48227,2,0,L|0:289,1,90,0|0,1:0|0:0,0:0:0:0:
37,117,48535,6,0,P|82:119|130:112,1,90,0|0,1:0|0:0,0:0:0:0:
269,50,48842,2,0,P|314:48|362:55,1,90,0|0,1:0|0:0,0:0:0:0:
439,191,49150,2,0,P|394:193|346:186,1,90,0|0,1:0|0:0,0:0:0:0:
192,200,49458,2,0,P|147:198|99:205,1,90,0|0,1:0|0:0,0:0:0:0:
212,317,49765,2,0,L|254:302,5,45,0|0|0|0|0|0,1:0|1:0|1:0|1:0|1:0|1:0,1:0:0:0:
291,328,50227,2,0,L|333:313,5,45,0|0|0|0|0|0,1:0|1:0|1:0|1:0|1:0|1:0,1:0:0:0:
376,325,50688,1,0,1:0:0:0:
398,322,50765,1,0,1:0:0:0:
419,316,50842,1,0,1:0:0:0:
439,306,50919,1,0,1:0:0:0:
459,297,50996,6,0,P|470:257|477:189,2,90,4|0|0,0:0|0:0|0:0,0:0:0:0:
395,152,51458,2,0,L|395:55,2,90,4|0|0,0:0|0:0|0:0,0:0:0:0:
259,232,51919,2,0,P|248:189|242:144,1,90,4|0,0:0|0:0,0:0:0:0:
360,267,52227,2,0,L|342:359,1,90
169,355,52535,2,0,L|152:267,1,90
120,91,52842,5,0,0:0:0:0:
194,40,52996,1,0,0:0:0:0:
256,104,53150,1,0,0:0:0:0:
318,40,53304,1,0,0:0:0:0:
392,91,53458,6,0,P|410:177|397:271,1,180,4|8,0:0|0:0,0:0:0:0:
333,330,53919,1,0,0:0:0:0:
194,321,54073,2,0,L|105:328,2,90,8|0|8,0:0|0:0|0:0,0:0:0:0:
313,242,54535,1,0,0:0:0:0:
313,242,54612,1,0,0:0:0:0:
313,242,54688,2,0,L|300:146,1,90,8|0,0:0|0:0,0:0:0:0:
178,193,54996,6,0,L|191:97,1,90,8|0,0:0|0:0,0:0:0:0:
91,67,55304,1,8,0:0:0:0:
0,209,55458,1,0,0:0:0:0:
104,145,55612,1,8,0:0:0:0:
102,315,55766,1,0,0:0:0:0:
102,315,55842,1,0,0:0:0:0:
102,315,55919,2,0,P|188:339|280:331,1,180,8|8,0:0|0:0,0:0:0:0:
363,302,56381,1,0,0:0:0:0:
429,165,56535,6,0,L|506:107,2,90,8|0|8,0:0|0:0|0:0,0:0:0:0:
278,176,56996,1,0,0:0:0:0:
278,176,57073,1,0,0:0:0:0:
278,176,57150,2,0,L|178:188,1,90,8|0,0:0|0:0,0:0:0:0:
79,71,57458,6,0,L|179:83,1,90,8|0,0:0|0:0,0:0:0:0:
70,191,57765,1,8,0:0:0:0:
177,314,57919,1,0,0:0:0:0:
177,314,57996,1,0,0:0:0:0:
177,314,58073,1,8,0:0:0:0:
335,314,58227,1,0,0:0:0:0:
335,314,58304,1,0,0:0:0:0:
335,314,58381,2,0,P|362:263|378:143,1,180,8|8,0:0|0:0,0:0:0:0:
217,62,58996,5,8,0:0:0:0:
155,183,59150,1,0,0:0:0:0:
81,68,59304,1,8,0:0:0:0:
291,177,59458,1,0,0:0:0:0:
291,177,59535,1,0,0:0:0:0:
291,177,59612,2,0,P|281:226|258:267,1,90,8|0,0:0|0:0,0:0:0:0:
126,267,59919,6,0,P|136:218|159:177,1,90,8|0,0:0|0:0,0:0:0:0:
299,93,60227,2,0,P|348:103|389:126,1,90,8|0,0:0|0:0,0:0:0:0:
402,268,60535,1,8,0:0:0:0:
264,352,60688,1,0,0:0:0:0:
264,352,60765,1,0,0:0:0:0:
264,352,60842,2,0,L|163:359,1,90,8|0,0:0|0:0,0:0:0:0:
36,273,61150,6,0,L|137:266,1,90,8|0,0:0|0:0,0:0:0:0:
257,171,61458,2,0,L|156:178,1,90,8|0,0:0|0:0,0:0:0:0:
29,92,61765,2,0,L|130:85,1,90,8|0,0:0|0:0,0:0:0:0:
298,45,62073,1,8,0:0:0:0:
298,45,62150,1,0,1:0:0:0:
298,45,62227,2,0,L|399:52,1,90,0|8,1:0|0:0,0:0:0:0:
213,86,62535,5,8,0:0:0:0:
213,86,62612,1,0,0:0:0:0:
213,86,62688,1,8,0:0:0:0:
371,155,62842,1,0,0:0:0:0:
167,177,62996,1,0,0:0:0:0:
400,249,63150,1,0,0:0:0:0:
121,268,63304,6,0,P|68:199|94:107,1,180,4|8,0:0|0:0,0:0:0:0:
167,177,63765,1,0,0:0:0:0:
287,276,63919,2,0,L|267:365,2,90,8|0|8,0:0|0:0|0:0,0:0:0:0:
313,122,64381,1,0,0:0:0:0:
313,122,64458,1,0,0:0:0:0:
313,122,64535,2,0,L|412:112,1,90,8|0,0:0|0:0,0:0:0:0:
332,199,64842,6,0,L|242:189,1,90,8|0,0:0|0:0,0:0:0:0:
88,114,65150,1,8,0:0:0:0:
150,210,65304,1,0,0:0:0:0:
201,107,65458,1,8,0:0:0:0:
37,218,65612,1,0,0:0:0:0:
37,218,65688,1,0,0:0:0:0:
37,218,65765,2,0,P|76:296|165:323,1,180,8|8,0:0|0:0,0:0:0:0:
225,261,66227,1,0,0:0:0:0:
379,235,66381,6,0,L|391:334,2,90,8|0|8,0:0|0:0|0:0,0:0:0:0:
280,115,66842,1,0,0:0:0:0:
280,115,66919,1,0,0:0:0:0:
280,115,66996,2,0,P|239:92|192:80,1,90,8|0,0:0|0:0,0:0:0:0:
49,128,67304,6,0,L|37:218,1,90,8|0,0:0|0:0,0:0:0:0:
169,305,67612,1,8,0:0:0:0:
327,224,67765,1,0,1:0:0:0:
327,224,67842,1,0,1:0:0:0:
327,224,67919,1,8,0:0:0:0:
141,202,68073,1,0,1:0:0:0:
141,202,68150,1,0,1:0:0:0:
141,202,68227,2,0,P|172:309|225:357,1,180,4|8,0:0|0:0,0:0:0:0:
397,320,68842,6,0,L|418:231,1,90,8|0,0:0|0:0,0:0:0:0:
397,143,69150,1,8,0:0:0:0:
228,157,69304,1,0,0:0:0:0:
228,157,69381,1,0,0:0:0:0:
228,157,69458,2,0,L|128:150,1,90,8|0,0:0|0:0,0:0:0:0:
246,69,69765,6,0,L|346:76,1,90,8|0,0:0|0:0,0:0:0:0:
290,232,70073,2,0,L|296:333,1,90,8|0,0:0|0:0,0:0:0:0:
142,298,70381,1,8,0:0:0:0:
57,169,70535,1,0,0:0:0:0:
57,169,70612,1,0,0:0:0:0:
57,169,70688,6,0,L|71:68,1,90,8|0,0:0|0:0,0:0:0:0:
72,251,70996,1,8,0:0:0:0:
150,139,71150,2,0,L|164:38,1,90,0|8,0:0|0:0,0:0:0:0:
165,221,71458,1,0,0:0:0:0:
243,109,71612,1,8,0:0:0:0:
300,232,71765,1,0,0:0:0:0:
300,232,71842,1,0,0:0:0:0:
300,232,71919,5,8,0:0:0:0:
400,130,72073,1,0,0:0:0:0:
436,267,72227,1,0,0:0:0:0:
321,152,72381,1,8,0:0:0:0:
458,188,72535,1,0,0:0:0:0:
356,287,72688,1,0,1:2:0:0:
332,296,72764,1,0,1:2:0:0:
307,303,72841,1,8,1:2:0:0:
282,308,72918,1,0,1:2:0:0:
256,310,72995,1,0,1:2:0:0:
230,310,73072,1,0,1:2:0:0:
200,308,73150,6,0,L|100:293,1,90,0|0,1:0|0:0,0:0:0:0:
21,277,73458,1,0,0:0:0:0:
198,225,73612,2,0,L|298:210,1,90,0|0,1:0|0:0,0:0:0:0:
377,194,73919,1,0,0:0:0:0:
200,142,74073,2,0,L|100:127,1,90,0|0,1:0|0:0,0:0:0:0:
21,111,74381,1,0,0:0:0:0:
198,59,74535,2,0,L|298:44,1,90,0|0,1:0|0:0,0:0:0:0:
377,28,74843,1,0,0:0:0:0:
377,194,74996,6,0,L|369:304,1,90,0|0,1:0|0:0,0:0:0:0:
192,315,75304,2,0,L|200:205,1,90,0|0,1:0|0:0,0:0:0:0:
287,45,75612,2,0,L|382:59,2,90,0|0|0,1:0|0:0|0:0,0:0:0:0:
186,132,76073,2,0,L|91:146,2,90,0|0|0,1:0|0:0|0:0,0:0:0:0:
287,220,76535,1,8,0:0:0:0:
256,192,76688,12,8,77765,0:0:0:0:
407,46,78073,6,0,L|310:58,1,90,0|0,1:0|0:0,0:0:0:0:
227,67,78381,1,0,0:0:0:0:
403,135,78535,2,0,L|306:147,1,90,0|0,1:0|0:0,0:0:0:0:
223,156,78843,1,0,0:0:0:0:
399,224,78996,2,0,L|302:236,1,90,0|0,1:0|0:0,0:0:0:0:
219,245,79304,5,0,1:0:0:0:
395,313,79458,1,0,1:0:0:0:
215,334,79612,1,0,1:0:0:0:
136,173,79765,1,0,1:0:0:0:
136,173,79842,1,0,1:0:0:0:
136,173,79919,2,0,L|122:80,1,90,0|0,1:0|0:0,0:0:0:0:
300,57,80227,2,0,L|314:150,1,90,0|0,1:0|0:0,0:0:0:0:
219,245,80535,5,0,1:0:0:0:
76,297,80688,2,0,P|42:328|19:365,1,90,0|0,1:0|0:0,0:0:0:0:
85,226,80996,2,0,P|39:231|0:249,1,90,0|0,1:0|0:0,0:0:0:0:
125,368,81304,1,0,1:0:0:0:
269,290,81458,1,0,1:0:0:0:
136,173,81612,2,0,P|95:151|52:142,1,90,0|0,1:0|0:0,0:0:0:0:
205,157,81919,2,0,P|183:116|154:84,1,90,0|0,1:0|0:0,0:0:0:0:
367,162,82227,5,0,1:0:0:0:
166,272,82381,1,0,1:0:0:0:
287,139,82535,1,0,1:0:0:0:
341,310,82688,1,0,1:0:0:0:
166,272,82842,1,0,1:0:0:0:
342,234,82996,6,0,L|436:244,1,90,0|0,1:0|0:0,0:0:0:0:
509,289,83304,1,0,0:0:0:0:
497,91,83458,2,0,L|407:81,1,90,0|0,1:0|0:0,0:0:0:0:
367,162,83765,1,0,0:0:0:0:
206,82,83919,2,0,L|116:91,1,90,0|0,1:0|0:0,0:0:0:0:
55,158,84227,5,0,1:0:0:0:
230,251,84381,1,0,1:0:0:0:
56,329,84535,1,0,1:0:0:0:
246,341,84688,1,0,1:0:0:0:
246,341,84765,1,0,1:0:0:0:
246,341,84842,1,0,1:0:0:0:
409,264,84996,5,0,0:0:0:0:
422,174,85150,1,0,0:0:0:0:
400,86,85304,2,0,P|365:54|319:36,1,90,0|0,1:0|0:0,0:0:0:0:
339,210,85612,1,0,0:0:0:0:
298,128,85766,1,0,0:0:0:0:
229,69,85919,2,0,P|181:62|133:74,1,90,0|0,1:0|0:0,0:0:0:0:
250,205,86227,5,0,1:0:0:0:
79,153,86381,1,0,1:0:0:0:
205,279,86535,1,0,0:0:0:0:
34,227,86689,1,0,1:0:0:0:
34,227,86842,1,0,0:0:0:0:
205,279,86996,2,0,L|302:294,1,90,0|0,1:0|0:0,0:0:0:0:
206,104,87304,2,0,L|144:180,1,90,0|0,1:0|0:0,0:0:0:0:
356,192,87612,2,0,L|321:101,1,90,0|0,1:0|0:0,0:0:0:0:
256,192,87919,12,4,89919,0:0:0:0:
