osu file format v14

[General]
AudioFilename: Tengaku.mp3
AudioLeadIn: 0
PreviewTime: 134193
Countdown: 0
SampleSet: Soft
StackLeniency: 0.3
Mode: 0
LetterboxInBreaks: 1
WidescreenStoryboard: 1

[Editor]
Bookmarks: 19885,31223,34950,47816,64367,80919,89195,102966,105747,122298,134712,155402,171953,188505,196781,213333,229884,242298,251609,262988,267643,288190,288529,301739
DistanceSpacing: 2.5
BeatDivisor: 4
GridSize: 16
TimelineZoom: 2.32

[Metadata]
Title:Tengaku
TitleUnicode:天樂
Artist:Wagakki Band
ArtistUnicode:和楽器バンド
Creator:Shiro
Version:Uncompressed Fury of a Raging Japanese God
Source:
Tags:Vocaloid Cover Traditional Japanese Instruments Metal Vocalo Zanmai
BeatmapID:816327
BeatmapSetID:336414

[Difficulty]
HPDrainRate:6
CircleSize:4
OverallDifficulty:9.5
ApproachRate:10
SliderMultiplier:2
SliderTickRate:1

[Events]
//Background and Video events
0,0,"TGBG.jpg",0,0
//Break Periods
//Storyboard Layer 0 (Background)
//Storyboard Layer 1 (Fail)
//Storyboard Layer 2 (Pass)
//Storyboard Layer 3 (Foreground)
//Storyboard Sound Samples

[TimingPoints]
1265,258.620689655172,4,2,1,20,1,0
1265,-133.333333333333,4,2,1,20,0,0
1782,-200,4,2,1,20,0,0
3646,258.620689655172,4,2,1,20,1,0
3646,-200,4,2,1,20,0,0
4782,258.620689655172,4,2,1,20,1,0
4782,-200,4,2,1,20,0,0
4913,280.373831775701,4,2,1,20,1,0
4913,-185.185185185185,4,2,1,20,0,0
6034,-185.185185185185,4,2,1,20,0,0
6202,258.620689655172,4,2,1,20,1,0
6202,-200,4,2,1,20,0,0
7365,-200,4,2,1,5,0,0
7533,283.018867924528,4,2,1,20,1,0
7533,-200,4,2,1,20,0,0
7850,324.324324324324,4,2,1,20,1,0
7850,-158.730158730159,4,2,1,20,0,0
9983,329.67032967033,4,2,1,20,1,0
9983,-158.730158730159,4,2,1,20,0,0
10379,258.620689655172,4,2,1,20,1,0
10379,-200,4,2,1,20,0,0
13588,258.620689655172,4,2,1,20,1,0
13588,-175.438596491228,4,2,1,20,0,0
13814,258.620689655172,4,2,1,20,1,0
13814,-200,4,2,1,20,0,0
15494,-200,4,2,1,5,0,0
17959,258.620689655172,4,2,1,5,1,0
19877,258.620689655172,4,2,1,30,1,0
19877,-133.333333333333,4,2,1,30,0,0
20060,258.620689655172,4,2,1,30,1,0
20060,-133.333333333333,4,2,1,30,0,0
21945,258.620689655172,4,2,1,30,1,0
21945,-133.333333333333,4,2,1,30,0,0
22463,285.714285714286,4,2,1,5,1,0
22534,303.030303030303,4,2,1,30,1,0
22685,370.37037037037,4,2,1,30,1,0
22870,454.545454545455,4,2,1,30,1,0
23097,582.52427184466,4,2,1,30,1,0
23388,600,4,2,1,30,1,0
23688,-200,4,2,1,15,0,0
25351,600,4,2,1,15,1,0
28801,-100,4,2,1,15,0,0
28951,-100,4,2,1,14,0,0
29101,-100,4,2,1,13,0,0
29251,-100,4,2,1,12,0,0
29401,-100,4,2,1,11,0,0
29551,-100,4,2,1,10,0,0
29701,-100,4,2,1,9,0,0
29851,-100,4,2,1,8,0,0
30001,-100,4,2,1,7,0,0
30151,-100,4,2,1,6,0,0
30301,-100,4,2,1,5,0,0
31284,258.620689655172,4,2,1,100,1,0
31329,-100,4,2,1,5,0,0
31458,-100,4,2,1,100,0,0
31717,-100,4,2,1,5,0,0
31846,-100,4,2,1,100,0,0
32105,-100,4,2,1,5,0,0
32234,-100,4,2,1,100,0,0
32310,258.620689655172,4,2,2,100,1,0
33338,258.620689655172,4,2,2,100,1,0
33463,-100,4,2,1,30,0,0
34170,258.620689655172,4,2,1,30,1,0
34386,258.620689655172,4,2,1,30,1,0
34789,258.620689655172,4,2,1,30,1,0
35102,258.620689655172,4,2,1,30,1,0
35295,258.620689655172,4,2,1,100,1,0
35467,-100,4,2,1,5,0,0
35639,258.620689655172,4,2,1,100,1,0
35855,-100,4,2,1,5,0,0
36032,258.620689655172,4,2,1,100,1,0
36243,-100,4,2,1,5,0,0
36456,258.620689655172,4,2,2,60,1,0
37264,-100,4,2,1,30,0,0
37439,-100,4,2,2,60,0,0
37924,-100,4,2,1,60,0,0
38183,-100,4,2,2,60,0,0
38571,-100,4,2,1,60,0,0
39042,315.789473684211,4,2,1,30,1,0
39042,-81.9672131147541,4,2,1,30,0,0
39548,285.714285714286,4,2,1,30,1,0
39833,267.857142857143,4,2,1,60,1,0
39966,254.237288135593,4,2,1,60,1,0
40220,240.963855421687,4,2,1,60,1,0
40340,258.620689655172,4,2,1,60,1,0
40833,-100,4,2,2,60,0,0
41623,254.237288135593,4,2,1,60,1,0
42894,252.100840336134,4,2,1,60,1,0
43563,258.620689655172,4,2,1,60,1,0
43743,-100,4,2,1,5,0,0
43872,-100,4,2,1,60,0,0
44131,-100,4,2,1,5,0,0
44260,-100,4,2,1,60,0,0
44519,-100,4,2,1,5,0,0
44984,258.620689655172,4,2,1,60,1,0
45496,258.620689655172,4,2,1,60,1,0
45766,258.620689655172,4,2,1,60,1,0
47317,262.008733624454,4,2,1,60,1,0
47841,255.31914893617,4,2,9,60,1,0
47841,-101.317122593718,4,2,9,60,0,0
51926,260.869565217391,4,2,9,60,1,0
51926,-99.2063492063492,4,2,9,60,0,0
54012,258.620689655172,4,2,9,60,1,0
62492,-100,4,2,9,5,0,0
62622,-100,4,2,9,100,0,0
62880,-100,4,2,9,5,0,0
63009,-100,4,2,9,100,0,0
63268,-100,4,2,9,5,0,0
63397,-100,4,2,9,100,0,0
63656,-100,4,2,9,5,0,0
63785,-100,4,2,9,100,0,0
64432,-100,4,2,7,70,0,0
64625,258.620689655172,4,2,7,70,1,0
65400,258.620689655172,4,2,7,70,1,0
80919,-100,4,2,9,100,0,0
88613,-100,4,2,7,85,0,0
105744,-100,4,1,8,100,0,1
122296,-100,4,1,8,100,0,0
122361,-100,4,2,8,100,0,0
134710,-90.9090909090909,4,2,9,100,0,1
140854,-90.9090909090909,4,2,1,100,0,1
142923,-90.9090909090909,4,2,9,100,0,1
147061,-90.9090909090909,4,2,1,100,0,1
147512,-133.333333333333,4,2,1,100,0,1
148158,-90.9090909090909,4,2,1,100,0,1
148546,-133.333333333333,4,2,1,100,0,1
149193,-90.9090909090909,4,2,1,100,0,1
149581,-133.333333333333,4,2,1,100,0,1
150227,-90.9090909090909,4,2,1,100,0,1
150615,-133.333333333333,4,2,1,100,0,1
151262,-90.9090909090909,4,2,1,100,0,1
153201,-100,4,2,1,100,0,0
155272,-100,4,2,9,100,0,0
155402,-100,4,2,9,100,0,0
169852,-100,4,2,8,100,0,0
171372,-100,4,2,1,100,0,0
172212,-133.333333333333,4,2,1,75,0,0
179259,-133.333333333333,4,2,8,75,0,0
179389,-133.333333333333,4,2,1,75,0,0
179971,-100,4,2,7,100,0,0
188505,-100,4,2,7,70,0,0
193096,-100,4,2,8,70,0,0
193225,-100,4,2,7,70,0,0
195811,-100,4,2,8,100,0,0
196781,-100,4,2,8,70,0,0
209130,-100,4,2,1,70,0,0
212234,-100,4,2,7,100,0,0
213331,-100,4,1,8,100,0,1
229882,-100,4,2,8,100,0,0
242296,-100,4,2,9,100,0,1
248440,-100,4,2,1,100,0,1
250509,-100,4,2,9,100,0,1
254647,-100,4,2,1,100,0,1
255098,-133.333333333333,4,2,1,100,0,1
255744,-100,4,2,1,100,0,1
256132,-133.333333333333,4,2,1,100,0,1
256779,-100,4,2,1,100,0,1
257167,-133.333333333333,4,2,1,100,0,1
257813,-100,4,2,1,100,0,1
258201,-133.333333333333,4,2,1,100,0,1
258848,-100,4,2,1,100,0,1
260787,-100,4,2,1,100,0,0
260917,255.31914893617,4,2,1,100,1,0
261682,266.666666666667,4,2,1,100,1,0
261948,279.06976744186,4,2,1,100,1,0
262506,272.727272727273,4,2,1,100,1,0
262608,-100,4,1,1,100,0,0
262744,-100,4,2,9,100,0,0
262993,258.620689655172,4,2,8,100,1,0
266576,-100,4,2,9,100,0,0
267648,-100,4,2,9,100,0,1
271258,258.620689655172,4,2,9,100,1,1
273268,-100,4,2,1,100,0,1
275337,-100,4,2,9,100,0,1
279475,-100,4,2,1,100,0,1
279921,-133.333333333333,4,2,1,100,0,1
280568,-100,4,2,1,100,0,1
280956,-133.333333333333,4,2,1,100,0,1
281602,-100,4,2,1,100,0,1
281990,-133.333333333333,4,2,1,100,0,1
282637,-100,4,2,1,100,0,1
283025,-133.333333333333,4,2,1,100,0,1
283671,-100,4,2,1,100,0,1
285611,-100,4,2,1,100,0,0
286522,258.620689655172,3,2,9,100,1,0
287815,375,4,2,9,75,1,0
288565,258.620689655172,4,2,9,100,1,0
289340,258.620689655172,4,2,9,100,1,0
293737,244.897959183673,4,2,9,100,1,0
294471,283.018867924528,4,2,9,100,1,0
294754,239.043824701195,4,2,9,100,1,0
295231,357.142857142857,4,2,9,100,1,0
295588,333.333333333333,4,2,9,100,1,0
295754,342.857142857143,4,2,9,100,1,0
296334,400,4,2,9,100,1,0
297049,500,4,2,9,100,1,0
301034,288.461538461538,5,2,9,100,1,0
301610,315.789473684211,5,2,9,100,1,0
301767,600,5,2,9,85,1,0
301917,-100,5,2,9,75,0,0
302067,-100,5,2,9,65,0,0
302217,-100,5,2,9,55,0,0
302367,-100,5,2,9,45,0,0
302517,-100,5,2,9,35,0,0
302667,-100,5,2,9,25,0,0
302817,-100,5,2,9,15,0,0
302967,-100,5,2,9,5,0,0

[Colours]
Combo1 : 128,0,255
Combo2 : 0,128,255
Combo3 : 176,98,255
Combo4 : 0,0,255

[HitObjects]
97,144,1265,6,0,P|154:139|211:108,1,112.500004291535
231,90,1523,2,0,P|289:65|343:93,1,112.500004291535
352,100,1782,2,0,B|365:174|434:222|434:222|432:272|432:272|389:301|351:258|308:204|297:178|287:141|287:141|255:178|206:210|161:225|103:220|75:214,1,650
131,341,3646,6,0,L|149:289,1,50
80,216,3839,2,0,B|59:118|59:118|124:156|177:142|231:111|237:72,1,300
488,64,4782,6,0,L|483:96,1,25
473,179,4913,2,0,B|431:143|346:128|328:201|304:267|238:252|184:220,1,324.000007910156
38,53,6034,6,0,L|38:81,1,18.0000004394531
145,52,6202,2,0,B|160:100|138:130|132:168|42:199|42:199|22:228|20:278|58:311|91:329|128:332|128:332|223:333,1,475
308,328,7533,2,0,L|288:273,1,33.3333333333333
259,145,7850,2,0,P|314:113|326:163,1,125.999996154785
247,331,9983,6,0,P|318:310|376:321,1,125.999996154785
220,339,10443,1,0,0:0:0:0:
197,349,10508,2,0,B|155:370|107:389|42:354|5:326|-16:278|-21:205|2:165|38:126|38:126|95:68|211:68|156:192|295:197|354:134,1,750
366,36,12577,2,0,B|424:41|459:86|468:146|437:189|437:189|462:220|477:265|461:338,1,350
340,342,13588,6,0,B|295:319|295:319|243:320,1,100
220,322,13878,1,0,0:0:0:0:
194,324,13943,1,0,0:0:0:0:
365,350,14072,2,0,B|374:251|350:151|350:151|283:160|283:160|202:146|202:146|104:164|104:164|55:172|19:141|16:104,1,550
20,123,15624,1,0,0:0:0:0:
256,192,17959,12,0,19511,0:0:0:0:
294,140,19877,5,2,0:0:0:0:
153,85,20060,2,0,B|137:161|66:205|66:205|125:244|136:328|136:328|216:298|285:324|285:324,1,450.000017166138,2|0,0:0|0:0,0:0:0:0:
299,146,22009,5,0,0:0:0:0:
307,135,22074,2,0,B|337:109|337:109|391:112|423:143|451:182|427:262,1,225.000008583069,2|0,0:0|0:0,0:0:0:0:
406,279,22534,1,2,0:0:0:0:
206,250,22685,2,0,L|285:338,1,100
0,219,23097,2,0,L|79:307,1,100
313,237,23688,2,0,B|309:218|309:218|294:207|294:207|293:190|293:190|275:180|275:180|286:161|286:161|244:121|271:57,1,200,2|0,0:0|0:0,0:0:0:0:
406,279,25188,1,2,0:0:0:0:
256,192,25351,12,0,30751,0:0:0:0:
28,141,31284,6,0,L|156:149,1,100,0|0,1:0|0:0,0:0:0:0:
127,147,31542,1,0,1:0:0:0:
142,296,31671,2,0,L|267:270,1,100,0|0,1:0|0:0,0:0:0:0:
240,276,31930,1,0,1:0:0:0:
101,222,32059,2,0,L|-27:230,1,100,0|0,1:0|0:0,0:0:0:0:
416,244,32569,5,0,1:0:0:0:
416,244,32633,1,0,2:1:0:0:
416,244,32698,1,0,2:1:0:0:
347,171,32827,1,0,1:0:0:0:
136,92,33085,1,0,1:0:0:0:
174,314,33338,2,0,P|122:326|132:252,1,150,0|0,1:0|0:0,0:0:0:0:
198,246,33596,5,4,2:1:0:0:
316,246,33725,1,4,2:1:0:0:
328,298,33984,1,4,2:1:0:0:
328,298,34049,1,4,2:1:0:0:
328,298,34113,1,4,2:1:0:0:
185,193,34234,1,4,2:1:0:0:
226,152,34515,1,4,2:1:0:0:
287,339,34644,1,4,2:1:0:0:
241,372,34918,1,4,2:1:0:0:
241,372,34983,1,4,2:1:0:0:
241,372,35046,1,4,2:1:0:0:
271,118,35166,1,4,2:1:0:0:
330,198,35295,5,0,1:0:0:0:
184,218,35424,2,0,B|154:236|154:236|144:268|144:268|108:294,1,100
329,245,35703,1,0,1:0:0:0:
184,170,35832,2,0,B|146:168|146:168|117:190|117:190|68:191,1,100
298,286,36096,1,0,1:0:0:0:
215,129,36225,2,0,B|183:103|183:103|142:105|142:105|98:75,1,100
171,337,36585,5,0,0:0:0:0:
171,337,36649,1,0,0:0:0:0:
171,337,36714,1,0,1:0:0:0:
18,208,36973,1,0,1:0:0:0:
171,79,37231,1,0,1:2:0:0:
171,79,37295,1,4,0:1:0:0:
171,79,37360,1,4,0:1:0:0:
171,79,37425,1,4,0:1:0:0:
171,79,37489,5,0,1:1:0:0:
364,132,37749,1,0,2:1:0:0:
41,248,38007,1,8,2:1:0:0:
226,138,38265,5,0,1:0:0:0:
74,281,38394,1,0,1:1:0:0:
355,85,38524,1,0,1:0:0:0:
31,288,38783,1,0,1:1:0:0:
341,162,39042,2,0,L|275:193,2,60.9999974868775,0|0|0,1:0|1:0|1:0,0:0:0:0:
368,218,39278,2,0,L|437:184,2,60.9999974868775,0|0|0,1:0|1:0|1:0,0:0:0:0:
390,277,39548,6,0,L|355:374,1,100,4|0,1:1|0:0,0:0:0:0:
454,353,39833,1,0,1:0:0:0:
225,193,39966,2,0,L|260:96,1,100,0|0,1:1|0:0,0:0:0:0:
322,176,40220,1,0,1:0:0:0:
63,131,40340,2,0,L|28:228,1,100,0|0,1:1|0:0,0:0:0:0:
292,294,40857,5,0,1:0:0:0:
292,294,40922,1,0,0:0:0:0:
292,294,40986,1,0,0:0:0:0:
258,98,41115,1,0,1:0:0:0:
63,131,41374,1,0,1:0:0:0:
97,327,41623,5,4,2:1:0:0:
97,327,41686,1,4,2:1:0:0:
97,327,41750,1,4,2:1:0:0:
197,330,41877,1,4,1:1:0:0:
151,243,42004,1,0,0:0:0:0:
292,294,42131,1,4,2:1:0:0:
246,207,42258,1,0,0:0:0:0:
389,279,42385,1,4,2:1:0:0:
389,279,42449,1,4,2:1:0:0:
389,279,42512,1,4,2:1:0:0:
403,181,42639,2,0,B|404:109|351:88|351:88|321:129,1,150
507,234,42894,1,4,2:1:0:0:
483,242,43146,5,4,2:1:0:0:
459,250,43209,1,4,2:1:0:0:
436,259,43272,1,4,2:1:0:0:
412,268,43335,1,0,0:0:0:0:
389,277,43398,1,4,2:1:0:0:
377,378,43563,1,0,1:0:0:0:
217,280,43692,2,0,B|181:254|144:260|144:260|142:296,1,100
157,383,43950,1,0,1:0:0:0:
243,193,44080,2,0,B|279:167|315:173|315:173|317:209,1,100
303,296,44338,1,0,1:0:0:0:
164,139,44468,2,0,B|128:113|91:119|91:119|89:155,1,100
257,96,44984,6,0,L|336:92,3,66.6666666666667
423,267,45496,1,0,0:0:0:0:
91,267,45766,5,4,2:1:0:0:
91,267,46024,1,4,2:1:0:0:
50,61,46283,2,0,L|64:114,1,50,8|0,2:1|1:0,0:0:0:0:
423,267,46800,5,4,2:1:0:0:
423,267,47059,1,4,2:1:0:0:
464,61,47316,1,12,2:1:0:0:
455,70,47382,1,2,0:0:0:0:
447,79,47448,1,2,0:0:0:0:
438,88,47513,1,2,0:0:0:0:
430,98,47579,1,2,0:0:0:0:
422,107,47644,1,2,0:0:0:0:
413,116,47710,1,2,0:0:0:0:
405,126,47775,1,2,0:0:0:0:
397,135,47841,6,0,P|352:169|296:198,1,98.6999992017975,6|0,2:2|0:0,0:0:0:0:
244,261,48096,1,0,0:0:0:0:
149,89,48223,1,2,0:0:0:0:
315,189,48351,2,0,P|349:234|377:293,1,98.6999992017975
384,370,48606,1,2,0:0:0:0:
135,375,48734,6,0,P|116:277|121:174,1,197.399998403595,4|2,2:1|0:0,0:0:0:0:
193,109,49117,1,0,0:0:0:0:
315,189,49245,1,0,0:0:0:0:
215,209,49372,1,2,0:0:0:0:
291,89,49500,2,0,P|344:71|389:68,1,98.6999992017975,2|0,0:0|0:0,0:0:0:0:
283,282,49755,1,4,0:0:0:0:
87,268,49883,1,2,0:0:0:0:
295,84,50011,2,0,P|348:100|386:123,1,98.6999992017975,2|0,0:0|0:0,0:0:0:0:
211,197,50266,6,0,P|154:200|111:192,1,98.6999992017975,2|0,0:0|0:0,0:0:0:0:
299,80,50521,1,0,0:0:0:0:
203,205,50649,2,0,P|146:212|102:208,1,98.6999992017975,2|4,0:0|0:0,0:0:0:0:
307,72,50904,1,0,0:0:0:0:
195,213,51032,2,0,P|139:225|95:225,1,98.6999992017975,2|0,0:0|0:0,0:0:0:0:
315,64,51287,1,0,0:0:0:0:
100,293,51415,5,2,2:2:0:0:
412,341,51543,1,2,0:2:0:0:
96,297,51670,1,2,2:2:0:0:
416,337,51798,1,2,0:2:0:0:
92,301,51926,6,0,P|56:256|38:214,1,100,6|0,0:0|0:0,0:0:0:0:
34,117,52186,1,0,0:0:0:0:
211,38,52317,2,0,P|260:51|303:77,1,100,2|0,0:0|0:0,0:0:0:0:
432,180,52578,1,0,0:0:0:0:
408,345,52708,1,0,0:0:0:0:
93,195,52839,6,0,P|53:153|32:113,1,100,6|0,0:0|0:0,0:0:0:0:
372,101,53099,2,0,P|411:142|431:180,1,100.799996923828,2|0,0:0|0:0,0:0:0:0:
256,352,53360,2,0,P|216:310|196:271,1,100.799996923828,2|0,0:0|0:0,0:0:0:0:
139,150,53621,5,0,0:0:0:0:
373,150,53752,1,2,0:0:0:0:
256,352,53882,1,4,0:0:0:0:
139,150,54012,2,0,P|119:96|116:51,1,100,2|0,0:0|0:0,0:0:0:0:
355,48,54270,2,0,L|381:163,1,100,2|0,0:0|0:0,0:0:0:0:
229,122,54529,2,0,L|208:25,1,100,2|0,0:0|0:0,0:0:0:0:
450,82,54787,5,2,0:0:0:0:
450,82,54852,1,2,0:0:0:0:
450,82,54917,1,6,0:0:0:0:
465,180,55046,1,0,0:0:0:0:
236,131,55175,2,0,L|185:216,1,100,2|0,0:0|0:0,0:0:0:0:
1,131,55434,1,0,0:0:0:0:
244,139,55563,5,2,0:0:0:0:
20,347,55693,1,0,0:0:0:0:
248,143,55822,1,2,0:0:0:0:
24,351,55951,1,0,0:0:0:0:
252,147,56080,6,0,L|231:50,1,100,6|0,0:0|0:0,0:0:0:0:
131,34,56339,1,0,0:0:0:0:
342,98,56468,2,0,L|363:195,1,100,2|0,0:0|0:0,0:0:0:0:
467,211,56727,1,0,0:0:0:0:
256,240,56856,6,0,L|235:337,1,100,6|0,0:0|0:0,0:0:0:0:
45,211,57115,2,0,L|24:308,1,100,2|0,0:0|0:0,0:0:0:0:
256,240,57374,1,2,0:0:0:0:
256,240,57438,1,0,0:0:0:0:
256,240,57503,2,0,L|277:337,1,100,2|0,0:0|0:0,0:0:0:0:
467,211,57761,2,0,L|488:308,1,100,2|0,0:0|0:0,0:0:0:0:
458,90,58020,5,6,0:0:0:0:
236,79,58149,1,2,0:0:0:0:
362,226,58279,1,2,0:0:0:0:
454,94,58408,1,0,0:0:0:0:
232,84,58537,6,0,P|177:79|116:88,1,100,2|0,0:0|0:0,0:0:0:0:
450,98,58796,1,0,0:0:0:0:
228,88,58925,2,0,P|173:88|113:102,1,100,6|0,0:0|0:0,0:0:0:0:
446,102,59184,1,0,0:0:0:0:
224,92,59313,2,0,P|170:97|111:116,1,100,2|0,0:0|0:0,0:0:0:0:
442,106,59572,1,2,0:0:0:0:
220,96,59701,5,2,0:0:0:0:
137,307,59830,1,2,0:0:0:0:
329,185,59960,1,0,0:0:0:0:
101,170,60089,1,2,0:0:0:0:
278,316,60218,6,0,P|330:326|378:329,2,100,6|0|0,0:0|0:0|0:0,0:0:0:0:
213,214,60606,1,2,0:0:0:0:
329,185,60736,2,0,P|381:189|428:200,1,100
213,214,60994,1,2,0:0:0:0:
126,26,61124,1,2,0:0:0:0:
332,44,61253,1,4,0:0:0:0:
213,214,61382,2,0,P|210:267|213:315,1,100,2|0,0:0|0:0,0:0:0:0:
190,86,61641,5,0,0:0:0:0:
211,73,61705,1,0,0:0:0:0:
234,63,61770,1,0,0:0:0:0:
258,54,61835,1,0,0:0:0:0:
282,48,61899,1,0,0:0:0:0:
307,45,61964,1,0,0:0:0:0:
332,44,62029,2,0,P|388:90|415:166,1,150,2|0,0:0|0:0,0:0:0:0:
411,186,62287,5,0,1:2:0:0:
213,214,62417,2,0,L|111:232,1,100,0|0,1:0|0:0,0:0:0:0:
428,219,62675,1,0,1:0:0:0:
193,250,62805,2,0,L|91:268,1,100,0|0,1:0|0:0,0:0:0:0:
445,252,63063,1,0,1:0:0:0:
173,286,63193,2,0,L|71:304,1,100,0|0,1:0|0:0,0:0:0:0:
462,285,63451,1,0,1:0:0:0:
153,322,63580,2,0,L|51:340,1,100,0|0,1:0|0:0,0:0:0:0:
479,318,63839,1,0,1:0:0:0:
435,322,63904,1,0,1:0:0:0:
392,327,63968,1,0,1:0:0:0:
350,331,64033,1,0,1:0:0:0:
306,337,64098,1,0,1:0:0:0:
264,342,64162,1,0,1:0:0:0:
222,346,64227,1,0,1:0:0:0:
179,351,64292,1,0,2:0:0:0:
136,356,64356,1,0,1:0:0:0:
26,226,64625,5,2,0:0:0:0:
162,80,64882,1,2,0:0:0:0:
256,115,65012,1,2,0:0:0:0:
350,80,65141,1,8,0:0:0:0:
162,80,65270,2,0,P|137:126|134:183,1,100,2|0,0:0|0:0,0:0:0:0:
338,181,65529,1,2,0:0:0:0:
242,217,65659,1,8,0:0:0:0:
435,138,65788,2,0,P|443:192|438:240,1,100,2|0,0:0|0:0,0:0:0:0:
323,284,66046,1,0,0:0:0:0:
315,34,66175,6,0,P|284:73|255:114,1,100,10|0,0:0|0:0,0:0:0:0:
433,33,66434,1,2,0:0:0:0:
330,349,66693,2,0,P|286:344|223:333,1,100,10|0,0:0|0:0,0:0:0:0:
174,175,66951,2,0,P|215:191|273:218,1,100,2|0,0:0|0:0,0:0:0:0:
100,304,67210,1,10,0:0:0:0:
31,115,67339,2,0,P|55:69|85:26,1,100,2|0,0:0|0:0,0:0:0:0:
100,304,67598,1,2,0:0:0:0:
123,103,67727,2,0,P|165:72|211:48,1,100,10|0,0:0|0:0,0:0:0:0:
100,304,67986,1,0,0:0:0:0:
174,175,68115,1,0,0:0:0:0:
308,126,68245,2,0,P|359:120|411:120,1,100,8|0,0:0|0:0,0:0:0:0:
424,351,68503,2,8,P|339:322|257:284,1,150,0|0,1:0|0:0,0:0:0:0:
277,247,68762,6,0,P|225:256|180:286,1,100,10|0,0:0|0:0,0:0:0:0:
227,86,69020,2,0,P|174:84|124:106,1,100,2|0,0:0|0:0,0:0:0:0:
76,191,69279,1,8,0:0:0:0:
251,80,69408,2,0,P|200:67|147:77,1,100,2|0,0:0|0:0,0:0:0:0:
80,231,69667,1,0,0:0:0:0:
277,80,69796,2,0,P|230:56|175:53,1,100,10|0,0:0|0:0,0:0:0:0:
93,270,70055,1,0,0:0:0:0:
301,86,70184,2,0,P|261:52|209:37,1,100,2|8,0:0|0:0,0:0:0:0:
115,304,70443,5,0,0:0:0:0:
326,97,70572,2,0,P|393:70|476:69,1,150,2|0,0:0|0:0,0:0:0:0:
312,177,70831,2,0,P|255:131|212:59,1,150,10|0,0:0|0:0,0:0:0:0:
389,149,71089,2,0,P|377:221|337:293,1,150,2|0,0:0|0:0,0:0:0:0:
253,80,71348,1,10,0:0:0:0:
429,157,71477,2,0,P|423:210|400:269,1,100
215,66,71736,1,0,0:0:0:0:
467,165,71865,2,0,P|461:218|438:277,1,100,8|0,0:0|0:0,0:0:0:0:
185,50,72124,5,0,0:0:0:0:
378,145,72253,1,0,0:0:0:0:
102,160,72382,1,8,0:0:0:0:
448,39,72512,1,8,0:0:0:0:
185,50,72641,1,0,1:2:0:0:
185,50,72900,6,0,P|133:65|91:88,1,100,10|0,0:0|0:0,0:0:0:0:
116,234,73158,2,0,P|167:218|210:196,1,100,2|0,0:0|0:0,0:0:0:0:
324,101,73417,1,8,0:0:0:0:
222,227,73546,2,0,P|177:249|129:263,1,100,2|0,0:0|0:0,0:0:0:0:
79,57,73805,2,0,P|123:34|171:20,1,100,2|8,0:0|0:0,0:0:0:0:
235,256,74063,2,0,P|190:278|142:292,1,100,2|0,0:0|0:0,0:0:0:0:
92,86,74322,1,2,0:0:0:0:
324,101,74451,5,8,0:0:0:0:
370,282,74581,1,2,0:0:0:0:
147,168,74710,2,0,P|115:129|92:86,1,100
324,101,74969,2,0,P|356:139|379:183,1,100,10|0,0:0|0:0,0:0:0:0:
119,187,75227,2,0,P|86:148|63:104,1,100,2|0,0:0|0:0,0:0:0:0:
352,82,75486,1,10,0:0:0:0:
235,256,75615,2,0,P|196:288|152:311,1,100,2|0,0:0|0:0,0:0:0:0:
380,63,75874,1,2,0:0:0:0:
370,282,76003,1,10,0:0:0:0:
152,311,76132,2,0,P|101:314|52:308,1,100,2|0,0:0|0:0,0:0:0:0:
91,85,76391,5,8,1:2:0:0:
352,82,76520,1,8,0:0:0:0:
79,57,76650,1,8,0:0:0:0:
380,63,76779,1,4,1:2:0:0:
380,63,77038,6,0,P|420:104|438:143,1,100,10|0,0:0|0:0,0:0:0:0:
292,176,77296,2,0,P|252:217|234:256,1,100,2|0,0:0|0:0,0:0:0:0:
370,282,77555,1,10,0:0:0:0:
263,156,77684,2,0,P|223:197|205:236,1,100,2|0,0:0|0:0,0:0:0:0:
401,300,77943,5,10,0:0:0:0:
232,137,78072,1,2,0:0:0:0:
235,303,78201,1,8,0:0:0:0:
398,134,78330,1,2,0:0:0:0:
79,57,78460,1,8,0:0:0:0:
61,85,78524,1,8,0:0:0:0:
47,115,78589,1,10,0:0:0:0:
39,147,78653,1,8,0:0:0:0:
37,181,78718,1,10,0:0:0:0:
39,214,78783,1,8,0:0:0:0:
44,246,78848,5,8,0:0:0:0:
301,326,78977,1,0,0:0:0:0:
243,63,79107,2,0,B|170:86|110:138,1,150,6|0,0:0|0:0,0:0:0:0:
58,278,79365,1,8,0:0:0:0:
334,311,79494,1,0,0:0:0:0:
225,55,79624,2,0,B|152:78|91:130,1,150,6|0,0:0|0:0,0:0:0:0:
44,246,79882,5,8,0:0:0:0:
253,266,80012,1,0,0:0:0:0:
96,126,80140,1,14,0:0:0:0:
140,330,80270,1,8,0:0:0:0:
140,330,80335,1,0,0:0:0:0:
140,330,80400,1,10,0:0:0:0:
226,139,80529,1,2,0:0:0:0:
44,246,80658,1,6,0:0:0:0:
238,375,80788,1,0,0:0:0:0:
466,163,80917,6,0,P|396:88|304:41,1,200,4|8,1:1|0:0,0:0:0:0:
275,271,81305,1,0,0:0:0:0:
96,126,81434,1,0,0:0:0:0:
310,43,81563,1,0,0:0:0:0:
155,237,81693,1,8,0:0:0:0:
314,39,81822,6,0,P|401:85|469:158,1,200,4|0,1:1|0:0,0:0:0:0:
275,271,82210,2,0,P|225:298|159:311,1,100,8|0,0:0|0:0,0:0:0:0:
92,122,82469,1,0,0:0:0:0:
318,35,82598,1,0,0:0:0:0:
151,241,82727,1,8,0:0:0:0:
322,31,82857,6,0,P|409:77|477:150,1,200,4|0,1:1|0:0,0:0:0:0:
183,308,83245,2,0,P|127:321|60:316,1,100,8|0,0:0|0:0,0:0:0:0:
88,118,83503,1,0,0:0:0:0:
326,27,83632,1,0,0:0:0:0:
147,245,83762,1,8,0:0:0:0:
330,23,83891,6,0,P|417:69|485:142,1,200,4|0,1:1|0:0,0:0:0:0:
179,312,84279,1,8,0:0:0:0:
84,122,84408,1,0,0:0:0:0:
334,19,84538,1,2,0:0:0:0:
116,184,84667,1,2,0:0:0:0:
421,65,84796,1,10,0:0:0:0:
147,245,84925,1,2,0:0:0:0:
489,138,85055,5,6,1:2:0:0:
256,133,85184,1,2,0:0:0:0:
495,164,85313,1,8,0:0:0:0:
252,129,85443,2,0,P|200:132|151:142,1,100,2|0,0:0|0:0,0:0:0:0:
348,355,85701,1,0,0:0:0:0:
248,125,85831,2,0,P|195:123|146:129,1,100,10|4,0:0|1:0,0:0:0:0:
344,351,86089,1,0,0:0:0:0:
244,121,86219,2,0,P|192:114|142:116,1,100,2|8,0:0|0:0,0:0:0:0:
340,347,86477,5,0,0:0:0:0:
240,117,86607,1,2,0:0:0:0:
81,296,86736,1,2,0:0:0:0:
336,343,86865,1,8,0:0:0:0:
490,159,86995,2,0,P|452:108|387:68,1,100,4|0,1:1|0:0,0:0:0:0:
377,70,87188,1,0,0:0:0:0:
330,54,87253,5,0,1:0:0:0:
271,256,87382,1,0,1:0:0:0:
326,50,87512,1,0,1:0:0:0:
253,274,87641,1,0,1:0:0:0:
322,46,87770,1,0,1:0:0:0:
227,286,87900,1,0,1:0:0:0:
318,42,88029,6,0,P|218:48|121:96,1,200,4|0,1:1|0:0,0:0:0:0:
108,230,88417,1,8,0:0:0:0:
108,230,88482,1,0,0:0:0:0:
108,230,88546,1,0,0:0:0:0:
294,340,88676,1,8,0:0:0:0:
404,154,88805,1,8,0:0:0:0:
218,44,88934,1,8,0:0:0:0:
108,230,89063,1,8,0:0:0:0:
404,154,89451,5,4,0:0:0:0:
276,308,89710,1,2,0:0:0:0:
211,231,89839,1,0,0:0:0:0:
108,230,89969,1,10,0:0:0:0:
276,308,90098,2,0,P|334:313|385:307,1,100,2|0,0:0|0:0,0:0:0:0:
404,154,90357,2,0,P|346:149|295:155,1,100,2|8,0:0|0:0,0:0:0:0:
272,312,90615,2,0,P|330:317|381:311,1,100,2|0,0:0|0:0,0:0:0:0:
408,150,90874,1,2,0:0:0:0:
168,153,91003,2,0,P|130:185|107:230,1,100,10|0,0:0|0:0,0:0:0:0:
412,146,91262,6,0,P|440:187|460:232,1,100,2|0,0:0|0:0,0:0:0:0:
291,147,91520,2,0,P|307:193|315:243,1,100,10|0,0:0|0:0,0:0:0:0:
172,149,91779,2,0,P|176:198|171:248,1,100,2|0,0:0|0:0,0:0:0:0:
53,151,92038,1,10,0:0:0:0:
295,143,92167,2,0,P|311:189|319:239,1,100,2|0,0:0|0:0,0:0:0:0:
464,228,92426,1,2,0:0:0:0:
356,59,92555,1,10,0:0:0:0:
176,145,92684,2,0,P|159:191|151:241,1,100
288,310,92943,1,2,0:0:0:0:
468,224,93072,1,8,0:0:0:0:
235,92,93201,1,0,0:0:0:0:
88,320,93331,1,0,1:1:0:0:
88,320,93589,6,0,P|151:347|230:355,1,150,10|0,0:0|0:0,0:0:0:0:
288,310,93848,2,0,P|334:304|388:315,1,100,2|0,0:0|0:0,0:0:0:0:
184,137,94107,1,10,0:0:0:0:
108,323,94236,2,0,P|173:344|253:345,1,150,2|0,0:0|0:0,0:0:0:0:
306,297,94495,1,2,0:0:0:0:
306,297,94624,2,0,P|351:287|406:293,1,100,10|0,0:0|0:0,0:0:0:0:
128,326,94882,2,0,P|72:284|26:220,1,150,2|0,0:0|0:0,0:0:0:0:
10,148,95141,1,10,0:0:0:0:
227,367,95270,1,0,0:0:0:0:
192,129,95400,6,0,P|139:112|90:109,1,100,2|0,0:0|0:0,0:0:0:0:
292,150,95658,2,0,P|333:112|360:71,1,100,10|0,0:0|0:0,0:0:0:0:
223,226,95917,2,0,P|234:280|256:324,1,100,2|0,0:0|0:0,0:0:0:0:
409,330,96176,1,10,0:0:0:0:
219,222,96305,2,0,P|164:209|115:210,1,100,2|0,0:0|0:0,0:0:0:0:
26,327,96563,1,2,0:0:0:0:
296,146,96693,2,0,P|351:138|399:144,1,100,10|0,0:0|0:0,0:0:0:0:
304,327,96951,2,0,P|256:338|208:327,1,100
82,159,97210,1,8,0:0:0:0:
369,56,97339,1,8,0:0:0:0:
315,358,97469,1,0,1:1:0:0:
315,358,97727,6,0,P|368:350|417:326,1,100,10|0,0:0|0:0,0:0:0:0:
405,230,97986,2,0,P|352:238|303:262,1,100,2|0,0:0|0:0,0:0:0:0:
223,308,98245,1,10,0:0:0:0:
409,330,98374,2,0,P|458:308|499:272,1,100
492,179,98632,1,0,0:0:0:0:
311,154,98762,6,0,P|261:175|220:211,1,100,10|0,0:0|0:0,0:0:0:0:
186,94,99020,2,0,P|162:138|153:187,1,100,2|0,0:0|0:0,0:0:0:0:
59,62,99279,2,0,P|64:115|85:165,1,100,10|0,0:0|0:0,0:0:0:0:
223,308,99538,2,0,P|299:344|368:353,1,150,2|0,0:0|0:0,0:0:0:0:
409,330,99796,2,0,P|447:298|493:278,1,100,8|0,0:0|0:0,0:0:0:0:
311,154,100055,6,0,P|260:158|204:182,1,100,2|0,0:0|0:0,0:0:0:0:
23,362,100313,2,0,P|28:300|39:256,1,100,10|0,0:0|0:0,0:0:0:0:
214,176,100572,2,0,P|209:238|198:282,1,100
36,263,100831,6,0,P|46:201|61:158,1,100,10|0,0:0|0:0,0:0:0:0:
352,250,101089,2,0,P|336:202|314:157,1,100,2|0,0:0|0:0,0:0:0:0:
32,267,101348,2,0,P|42:205|57:162,1,100,10|0,0:0|0:0,0:0:0:0:
356,254,101607,2,0,P|340:206|318:161,1,100,2|0,0:0|0:0,0:0:0:0:
200,274,101865,2,0,P|215:321|237:366,1,100,10|0,0:0|0:0,0:0:0:0:
486,228,102124,6,0,P|470:180|448:135,1,100,2|0,0:0|0:0,0:0:0:0:
170,178,102382,2,0,P|181:226|199:273,1,100,8|0,0:0|0:0,0:0:0:0:
360,258,102641,1,0,0:0:0:0:
113,59,102770,2,0,P|90:103|74:150,1,100,10|0,0:0|0:0,0:0:0:0:
399,59,103029,2,0,P|421:103|437:150,1,100,8|0,0:0|0:0,0:0:0:0:
148,262,103288,1,8,0:0:0:0:
364,262,103417,1,8,0:0:0:0:
144,266,103546,1,8,0:0:0:0:
368,266,103676,5,4,0:0:0:0:
182,340,103805,1,0,0:0:0:0:
230,141,103934,2,0,B|262:101|262:101|311:129|329:188,1,150,2|0,0:0|0:0,0:0:0:0:
372,270,104193,1,4,0:0:0:0:
186,344,104322,1,0,0:0:0:0:
195,135,104451,2,0,B|220:89|220:89|273:108|300:163,1,150,2|0,0:0|0:0,0:0:0:0:
376,274,104710,1,4,0:0:0:0:
190,348,104839,1,0,0:0:0:0:
154,132,104969,2,0,B|171:82|171:82|226:92|262:141,1,150,2|0,0:0|0:0,0:0:0:0:
380,278,105227,1,4,0:0:0:0:
194,352,105357,1,8,0:0:0:0:
124,146,105486,1,8,0:0:0:0:
310,72,105615,1,8,0:0:0:0:
380,278,105745,6,0,P|289:297|187:272,1,200,0|8,0:0|0:0,0:0:0:0:
314,67,106132,2,0,P|350:102|382:145,2,100,0|0|0,0:0|2:0|0:0,0:0:0:0:
120,142,106520,1,8,0:0:0:0:
384,282,106650,1,0,0:0:0:0:
414,86,106779,2,0,P|366:70|317:63,1,100,0|0,0:0|2:0,0:0:0:0:
116,142,107038,5,8,0:0:0:0:
384,286,107167,1,0,0:0:0:0:
112,142,107296,1,0,0:0:0:0:
384,290,107426,1,0,0:0:0:0:
108,142,107555,1,8,0:0:0:0:
384,294,107684,1,0,0:0:0:0:
104,142,107813,6,0,P|48:220|18:323,1,200,0|8,0:0|0:0,0:0:0:0:
210,259,108201,2,0,P|236:214|266:175,2,100,0|0|0,0:0|2:0|0:0,0:0:0:0:
383,297,108589,2,0,P|410:254|431:209,1,100,8|0,0:0|2:0,0:0:0:0:
321,59,108848,5,0,0:0:0:0:
290,311,108977,1,0,0:0:0:0:
325,55,109107,1,8,0:0:0:0:
126,228,109235,1,0,0:0:0:0:
329,51,109365,1,0,0:0:0:0:
290,315,109494,1,0,0:0:0:0:
333,47,109624,1,8,0:0:0:0:
122,232,109753,1,0,0:0:0:0:
337,43,109882,6,0,P|411:95|481:188,1,200,0|8,0:0|0:0,0:0:0:0:
288,138,110270,2,0,P|240:122|178:124,1,100,0|0,0:0|2:0,0:0:0:0:
183,322,110529,1,0,0:0:0:0:
288,138,110658,2,0,P|333:160|375:205,1,100,8|0,0:0|2:0,0:0:0:0:
183,322,110917,6,0,P|132:329|72:316,1,100,0|0,0:0|2:0,0:0:0:0:
189,137,111176,2,0,P|239:129|299:142,1,100,8|0,0:0|2:0,0:0:0:0:
399,323,111434,1,0,0:0:0:0:
179,326,111563,1,0,0:0:0:0:
372,190,111693,1,8,0:0:0:0:
152,193,111822,1,0,0:0:0:0:
345,57,111951,6,0,P|431:68|501:159,1,200,0|8,0:0|0:0,0:0:0:0:
298,134,112339,2,0,P|277:176|300:242,1,100,0|0,0:0|2:0,0:0:0:0:
477,284,112598,1,0,0:0:0:0:
298,130,112727,1,8,0:0:0:0:
65,181,112857,2,0,P|77:241|112:273,1,100
349,328,113115,5,0,0:0:0:0:
374,330,113180,1,0,0:0:0:0:
399,327,113245,1,8,0:0:0:0:
432,74,113374,1,0,0:0:0:0:
399,327,113503,1,0,0:0:0:0:
345,53,113632,1,0,0:0:0:0:
374,330,113762,1,8,0:0:0:0:
256,50,113891,1,0,0:0:0:0:
349,328,114020,6,0,P|482:277|511:218,1,200,4|8,0:0|0:0,0:0:0:0:
287,226,114408,2,0,P|236:236|182:262,1,100,0|0,0:0|2:0,0:0:0:0:
349,328,114667,1,0,1:0:0:0:
202,134,114796,1,8,0:0:0:0:
41,345,114925,2,0,P|88:351|148:348,1,100,0|0,0:0|2:0,0:0:0:0:
325,323,115184,5,0,0:0:0:0:
402,167,115313,2,0,P|354:146|295:136,1,100,8|0,0:0|2:0,0:0:0:0:
301,313,115572,1,0,0:0:0:0:
345,53,115701,2,0,P|293:45|234:50,1,100,0|8,0:0|2:1,0:0:0:0:
280,299,115960,1,0,0:0:0:0:
24,193,116089,6,0,P|78:273|164:334,1,200,0|8,0:0|0:0,0:0:0:0:
126,136,116477,2,0,P|159:184|197:219,1,100,0|0,0:0|2:0,0:0:0:0:
380,326,116736,1,0,0:0:0:0:
236,81,116865,2,0,P|255:136|283:179,1,100,8|0,0:0|2:0,0:0:0:0:
349,328,117124,5,0,0:0:0:0:
345,53,117253,1,0,0:0:0:0:
326,323,117382,1,8,0:0:0:0:
236,81,117512,1,0,0:0:0:0:
301,313,117640,1,0,0:0:0:0:
124,133,117770,1,0,0:0:0:0:
280,299,117899,1,8,0:0:0:0:
24,193,118029,1,0,0:0:0:0:
263,278,118158,6,0,P|347:328|438:288,1,200,0|8,0:0|0:0,0:0:0:0:
464,61,118546,2,0,P|478:120|467:171,1,100,0|0,0:0|2:0,0:0:0:0:
344,327,118805,1,8,0:0:0:0:
166,57,118934,1,0,0:0:0:0:
32,233,119063,1,0,0:0:0:0:
32,233,119128,1,0,0:0:0:0:
32,233,119193,2,0,P|26:283|40:331,1,100,0|0,0:0|2:0,0:0:0:0:
479,150,119451,2,0,P|485:100|472:53,1,100,8|0,0:0|2:0,0:0:0:0:
222,61,119710,1,0,0:0:0:0:
226,85,119775,1,0,0:0:0:0:
230,109,119839,1,0,0:0:0:0:
233,134,119904,1,0,0:0:0:0:
236,159,119969,1,8,0:0:0:0:
240,183,120033,1,0,0:0:0:0:
243,208,120098,1,0,0:0:0:0:
246,233,120162,1,0,0:0:0:0:
252,258,120227,5,0,0:0:0:0:
386,36,120357,2,0,L|327:134,1,100,0|8,0:0|2:1,0:0:0:0:
248,282,120615,1,0,0:0:0:0:
402,52,120745,2,0,L|335:144,1,100,0|0,0:0|2:0,0:0:0:0:
245,307,121003,1,8,0:0:0:0:
417,70,121132,2,0,L|342:156,1,100,0|0,0:0|2:0,0:0:0:0:
242,332,121391,1,0,0:0:0:0:
430,89,121520,2,0,L|348:169,1,100,8|0,0:0|2:0,0:0:0:0:
239,355,121779,5,2,0:0:0:0:
68,49,121908,1,2,0:0:0:0:
240,343,122037,1,10,0:0:0:0:
64,53,122167,1,2,0:0:0:0:
242,332,122296,5,2,0:0:0:0:
390,134,122426,1,0,0:0:0:0:
201,66,122555,2,0,L|87:59,1,100,8|0,2:1|0:0,0:0:0:0:
300,38,122813,2,0,L|414:45,1,100
448,243,123072,1,8,2:1:0:0:
180,365,123201,2,0,P|155:296|185:176,1,200
205,62,123589,6,0,L|91:55,1,100,8|0,2:1|0:0,0:0:0:0:
304,34,123847,2,0,L|418:41,1,100
452,239,124106,1,8,2:1:0:0:
185,360,124236,2,0,P|160:291|192:160,1,200
209,58,124624,6,0,L|95:51,1,100,8|0,2:1|0:0,0:0:0:0:
308,30,124882,2,0,L|422:37,1,100
456,235,125141,1,8,2:1:0:0:
188,357,125270,2,0,P|163:288|193:168,1,200
379,109,125658,5,10,2:1:0:0:
379,109,125723,1,2,2:1:0:0:
379,109,125788,1,2,2:1:0:0:
109,51,125917,1,2,2:1:0:0:
396,143,126046,1,2,2:1:0:0:
77,93,126176,1,10,2:1:0:0:
404,181,126305,1,2,2:1:0:0:
58,143,126434,5,0,0:0:0:0:
95,288,126563,1,0,0:0:0:0:
311,343,126693,2,0,L|410:347,1,100,8|0,2:1|0:0,0:0:0:0:
194,292,126951,2,0,L|94:287,1,100
58,143,127210,1,8,2:1:0:0:
310,57,127339,2,0,P|395:133|398:231,1,200
315,339,127727,6,0,L|414:343,1,100,8|0,2:1|0:0,0:0:0:0:
190,296,127985,2,0,L|90:291,1,100
54,147,128245,2,0,P|54:97|71:50,1,100,8|0,0:0|0:0,0:0:0:0:
390,113,128503,2,0,P|406:159|407:209,1,100
319,335,128762,6,0,L|418:339,1,100,8|0,2:1|0:0,0:0:0:0:
186,300,129020,2,0,L|86:295,1,100
50,151,129279,1,8,2:1:0:0:
318,49,129408,2,0,P|403:125|406:223,1,200
323,339,129796,6,0,L|422:343,1,100,8|0,2:1|0:0,0:0:0:0:
182,304,130055,1,0,0:0:0:0:
322,45,130184,1,0,0:0:0:0:
178,308,130313,1,8,2:1:0:0:
394,109,130443,1,0,0:0:0:0:
174,312,130572,5,0,1:0:0:0:
170,316,130831,1,0,1:0:0:0:
322,45,131089,1,8,2:1:0:0:
322,45,131219,1,0,0:0:0:0:
322,45,131348,1,0,0:0:0:0:
170,316,131477,6,0,P|87:315|49:218,1,200,0|0,1:0|0:0,0:0:0:0:
326,337,131865,1,0,1:0:0:0:
410,205,132124,1,8,1:1:0:0:
410,205,132253,1,0,0:0:0:0:
410,205,132382,1,0,0:0:0:0:
410,205,132512,1,0,0:0:0:0:
166,320,132641,2,0,P|83:319|43:237,1,150,0|0,1:0|0:0,0:0:0:0:
44,193,132900,5,2,2:1:0:0:
410,205,133029,1,2,2:1:0:0:
40,189,133158,1,2,2:1:0:0:
394,109,133288,1,2,2:1:0:0:
36,185,133417,1,2,2:1:0:0:
359,14,133546,1,2,2:1:0:0:
32,181,134193,5,2,2:0:0:0:
32,181,134710,2,0,L|79:68,1,110.000003356934,6|0,0:0|0:0,0:0:0:0:
303,238,134969,2,0,P|294:289|261:347,1,110.000003356934,8|0,0:0|0:0,0:0:0:0:
209,146,135227,2,0,P|218:95|251:37,1,110.000003356934
480,203,135486,2,0,L|438:312,1,110.000003356934,10|0,0:0|0:0,0:0:0:0:
207,299,135745,6,0,L|90:292,1,110.000003356934,2|0,0:0|0:0,0:0:0:0:
305,85,136003,1,10,0:0:0:0:
360,88,136067,1,0,0:0:0:0:
415,91,136132,2,0,P|452:118|481:184,2,110.000003356934,2|0|0,0:0|0:0|0:0,0:0:0:0:
256,21,136520,2,0,P|195:47|160:81,1,110.000003356934,10|0,0:0|0:0,0:0:0:0:
394,277,136779,6,0,L|481:349,1,110.000003356934,2|0,0:0|0:0,0:0:0:0:
497,238,137038,1,8,0:0:0:0:
205,150,137167,2,0,L|139:242,1,110.000003356934,2|0,0:0|0:0,0:0:0:0:
96,138,137426,1,0,0:0:0:0:
388,50,137555,2,0,L|453:142,1,110.000003356934,10|0,0:0|0:0,0:0:0:0:
124,50,137813,6,0,L|59:142,1,110.000003356934,2|0,0:0|0:0,0:0:0:0:
416,138,138072,2,0,L|481:230,1,110.000003356934,10|0,0:0|0:0,0:0:0:0:
124,140,138331,2,0,L|61:229,1,110.000003356934,2|0,0:0|0:0,0:0:0:0:
416,228,138590,2,0,L|480:317,1,110.000003356934,10|0,0:0|0:0,0:0:0:0:
124,230,138848,2,0,L|61:319,1,110.000003356934,2|0,0:0|0:0,0:0:0:0:
205,150,139107,5,8,0:0:0:0:
317,168,139236,1,0,0:0:0:0:
245,257,139365,1,2,0:0:0:0:
271,97,139495,1,0,0:0:0:0:
329,252,139624,1,8,0:0:0:0:
166,225,139753,1,0,0:0:0:0:
397,139,139882,6,0,P|449:164|481:210,1,110.000003356934,2|0,0:0|0:0,0:0:0:0:
256,368,140141,2,0,P|204:343|172:297,1,110.000003356934,8|0,0:0|0:0,0:0:0:0:
256,16,140400,2,0,P|307:40|339:86,1,110.000003356934,2|0,0:0|0:0,0:0:0:0:
103,250,140658,2,0,P|51:225|19:179,1,110.000003356934,8|0,0:0|0:0,0:0:0:0:
365,148,140917,5,2,2:1:0:0:
146,235,141046,1,2,2:1:0:0:
356,116,141176,1,2,2:1:0:0:
153,265,141305,1,2,2:1:0:0:
337,88,141434,5,2,2:1:0:0:
173,294,141563,1,2,2:1:0:0:
310,67,141693,1,2,2:1:0:0:
200,315,141822,1,2,2:1:0:0:
276,57,141951,5,2,2:1:0:0:
235,326,142080,1,2,2:1:0:0:
321,42,142210,1,2,2:1:0:0:
190,341,142339,1,2,2:1:0:0:
377,38,142469,5,2,2:1:0:0:
134,345,142598,1,2,2:1:0:0:
444,52,142727,1,2,2:1:0:0:
67,331,142856,1,2,2:1:0:0:
512,91,142986,6,0,L|475:199,1,110.000003356934,6|0,0:0|0:0,0:0:0:0:
235,326,143245,2,0,P|205:284|159:244,1,110.000003356934,8|0,0:0|0:0,0:0:0:0:
277,58,143503,2,0,P|307:100|353:140,1,110.000003356934
0,293,143762,2,0,L|37:185,1,110.000003356934,10|0,0:0|0:0,0:0:0:0:
277,58,144020,6,0,L|388:40,1,110.000003356934,2|0,0:0|0:0,0:0:0:0:
511,90,144279,1,10,0:0:0:0:
289,317,144408,2,0,L|177:334,1,110.000003356934,2|0,0:0|0:0,0:0:0:0:
54,277,144667,1,0,0:0:0:0:
114,83,144796,2,0,L|225:65,1,110.000003356934,10|0,0:0|0:0,0:0:0:0:
454,185,145055,6,0,P|462:279|401:318,1,165.000005035401,2|0,0:0|0:0,0:0:0:0:
331,340,145313,1,10,0:0:0:0:
144,284,145443,2,0,L|94:187,1,110.000003356934,2|0,0:0|0:0,0:0:0:0:
181,44,145701,1,0,0:0:0:0:
403,87,145831,6,0,L|453:184,1,110.000003356934,10|0,0:0|0:0,0:0:0:0:
112,300,146089,2,0,L|62:203,1,110.000003356934,2|0,0:0|0:0,0:0:0:0:
298,61,146348,2,0,L|348:158,1,110.000003356934,10|0,0:0|0:0,0:0:0:0:
203,265,146607,2,0,L|153:168,1,110.000003356934,2|0,0:0|0:0,0:0:0:0:
176,28,146865,2,0,L|226:125,1,110.000003356934,10|0,0:0|0:0,0:0:0:0:
358,341,147124,5,4,1:1:0:0:
385,342,147210,1,4,1:1:0:0:
413,343,147296,1,4,1:1:0:0:
440,344,147382,1,4,1:1:0:0:
496,192,147512,1,0,0:0:0:0:
440,40,147641,2,0,P|369:40|348:117,1,150.000005722046,0|0,1:0|1:0,0:0:0:0:
440,344,148158,5,4,2:1:0:0:
407,342,148244,1,4,2:1:0:0:
374,341,148331,1,4,2:1:0:0:
341,339,148417,1,4,2:1:0:0:
272,192,148546,1,0,0:0:0:0:
328,40,148675,2,0,P|393:60|405:133,1,150.000005722046,0|0,1:0|1:0,0:0:0:0:
321,338,149193,5,4,2:1:0:0:
361,340,149279,1,4,2:1:0:0:
400,341,149365,1,4,2:1:0:0:
440,344,149451,1,4,2:1:0:0:
512,192,149581,1,0,0:0:0:0:
456,40,149710,2,0,P|385:40|364:117,1,150.000005722046,0|0,1:0|1:0,0:0:0:0:
440,344,150227,5,4,2:1:0:0:
392,340,150313,1,4,2:1:0:0:
345,339,150399,1,4,2:1:0:0:
297,337,150486,1,4,2:1:0:0:
256,192,150615,1,0,0:0:0:0:
312,40,150744,2,0,P|377:60|389:133,1,150.000005722046,0|0,1:0|1:0,0:0:0:0:
214,335,151262,5,4,2:1:0:0:
269,336,151326,1,0,2:1:0:0:
326,338,151391,1,0,2:1:0:0:
383,341,151455,1,0,2:1:0:0:
440,344,151520,1,4,2:1:0:0:
476,122,151650,1,0,2:1:0:0:
383,339,151780,5,4,2:1:0:0:
334,94,151908,1,0,2:1:0:0:
326,338,152038,1,4,2:1:0:0:
404,108,152167,1,0,2:1:0:0:
269,336,152296,5,4,2:1:0:0:
193,66,152426,1,0,2:1:0:0:
214,335,152555,1,4,2:1:0:0:
263,80,152684,1,0,2:1:0:0:
155,330,152813,5,4,2:1:0:0:
51,38,152943,1,0,2:1:0:0:
98,328,153071,1,4,2:1:0:0:
122,52,153201,1,4,2:1:0:0:
256,192,153331,12,0,154882,0:0:0:0:
137,64,155400,6,0,P|121:107|140:170,1,100,6|0,0:2|0:0,0:0:0:0:
375,320,155658,2,0,P|391:277|372:214,1,100,2|0,0:0|0:0,0:0:0:0:
212,117,155917,1,2,0:0:0:0:
300,267,156046,1,0,0:0:0:0:
322,79,156176,1,2,0:0:0:0:
190,304,156305,6,0,P|129:286|68:171,1,200,6|0,0:0|0:0,0:0:0:0:
322,79,156693,2,0,P|383:98|416:130,1,100,2|0,0:0|0:0,0:0:0:0:
208,113,156951,1,2,0:0:0:0:
304,271,157081,1,0,0:0:0:0:
326,75,157210,1,2,0:0:0:0:
157,285,157339,6,0,P|102:252|73:125,1,200,6|0,0:0|0:0,0:0:0:0:
348,100,157727,2,0,P|403:134|426:173,1,100,2|0,0:0|0:0,0:0:0:0:
230,103,157985,1,2,0:0:0:0:
312,279,158115,1,0,0:0:0:0:
353,97,158244,1,2,0:0:0:0:
131,259,158374,6,0,P|88:213|92:83,1,200,6|0,0:0|0:0,0:0:0:0:
374,124,158762,2,0,P|418:171|430:215,1,100,2|0,0:0|0:0,0:0:0:0:
258,98,159020,2,0,P|255:122|243:144,1,50,2|0,0:0|0:0,0:0:0:0:
131,259,159150,2,0,P|118:280|115:305,1,50,2|0,0:0|0:0,0:0:0:0:
131,259,159538,6,0,P|155:213|161:158,1,100,6|0,0:0|0:0,0:0:0:0:
374,124,159796,2,0,P|350:170|344:225,1,100,2|0,0:0|0:0,0:0:0:0:
408,302,160055,1,2,0:0:0:0:
207,146,160184,1,0,0:0:0:0:
443,48,160313,1,2,0:0:0:0:
408,302,160443,6,0,P|316:295|198:322,1,200,6|0,0:0|0:0,0:0:0:0:
104,82,160831,2,0,P|161:89|211:87,1,100,2|0,0:0|0:0,0:0:0:0:
443,48,161089,1,2,0:0:0:0:
217,230,161219,1,0,0:0:0:0:
443,48,161348,1,2,0:0:0:0:
373,341,161477,6,0,P|286:310|165:306,1,200,6|0,0:0|0:0,0:0:0:0:
138,42,161865,2,0,P|191:64|240:75,1,100,2|0,0:0|0:0,0:0:0:0:
477,102,162123,1,2,0:0:0:0:
204,217,162253,1,0,0:0:0:0:
478,102,162382,1,2,0:0:0:0:
328,370,162512,6,0,P|252:318|136:282,1,200,6|0,0:0|0:0,0:0:0:0:
183,13,162900,2,0,P|229:48|273:71,1,100,2|0,0:0|0:0,0:0:0:0:
497,165,163158,1,2,0:0:0:0:
204,217,163288,1,2,0:0:0:0:
411,2,163417,1,2,0:0:0:0:
369,297,163546,1,2,0:0:0:0:
229,33,163676,6,0,P|182:38|127:54,1,100,2|0,0:0|0:0,0:0:0:0:
20,270,163934,1,0,0:0:0:0:
148,134,164063,2,0,P|193:120|250:113,1,100,2|0,0:0|0:0,0:0:0:0:
20,114,164321,1,0,0:0:0:0:
151,344,164451,5,2,0:0:0:0:
492,270,164581,1,4,0:0:0:0:
372,101,164710,2,0,P|325:98|268:104,1,100,2|0,0:0|0:0,0:0:0:0:
250,270,164969,2,0,P|300:275|350:273,1,100,2|0,0:0|0:0,0:0:0:0:
228,32,165228,2,0,P|178:27|129:30,1,100,2|0,0:0|0:0,0:0:0:0:
20,114,165486,1,0,0:0:0:0:
67,235,165615,5,4,0:0:0:0:
445,149,165744,1,2,0:0:0:0:
247,136,165874,2,0,P|189:133|123:134,1,100,2|0,0:0|0:0,0:0:0:0:
114,356,166132,2,0,P|172:359|238:358,1,100
392,266,166391,1,0,0:0:0:0:
248,131,166520,5,2,0:0:0:0:
213,358,166649,1,4,0:0:0:0:
396,270,166779,1,0,0:0:0:0:
250,126,166908,2,0,P|193:112|128:102,1,100,2|0,0:0|0:0,0:0:0:0:
400,274,167167,1,0,0:0:0:0:
32,126,167296,5,2,0:0:0:0:
110,360,167426,1,2,0:0:0:0:
28,122,167555,1,2,0:0:0:0:
106,364,167684,1,2,0:0:0:0:
24,118,167813,6,0,L|17:43,2,50,6|2|0,0:0|0:0|0:0,0:0:0:0:
143,288,168072,2,0,P|218:279|291:290,1,150,2|0,0:0|0:0,0:0:0:0:
288,255,168331,2,0,P|214:243|140:253,1,150,2|0,0:0|0:0,0:0:0:0:
135,217,168589,2,0,P|210:208|264:217,1,100,2|4,0:0|0:0,0:0:0:0:
256,199,168783,1,0,0:0:0:0:
277,186,168848,1,0,0:0:0:0:
152,83,168977,5,0,0:0:0:0:
268,331,169107,2,0,P|366:314|440:249,1,200,2|0,0:0|0:0,0:0:0:0:
444,236,169431,1,0,0:0:0:0:
449,224,169495,1,0,0:0:0:0:
453,212,169560,1,0,0:0:0:0:
458,201,169625,1,0,0:0:0:0:
462,189,169689,1,0,0:0:0:0:
467,177,169754,1,0,0:0:0:0:
471,166,169819,1,0,0:0:0:0:
476,154,169883,5,2,1:2:0:0:
196,294,170012,2,0,L|77:305,1,100,2|0,1:2|0:0,0:0:0:0:
35,154,170270,1,2,1:2:0:0:
316,294,170400,2,0,L|435:305,1,100,2|0,1:2|0:0,0:0:0:0:
480,142,170658,5,2,1:2:0:0:
192,306,170788,2,0,L|73:317,1,100,2|0,1:2|0:0,0:0:0:0:
32,142,171046,1,2,1:2:0:0:
320,306,171176,2,0,L|439:317,1,100,2|0,1:2|0:0,0:0:0:0:
485,130,171434,5,4,1:1:0:0:
256,272,171563,1,0,0:0:0:0:
27,130,171693,1,4,1:1:0:0:
256,268,171822,1,0,0:0:0:0:
256,264,171887,1,0,0:0:0:0:
256,260,171951,1,4,0:0:0:0:
441,269,172210,5,2,0:0:0:0:
489,126,172469,1,2,0:0:0:0:
349,72,172727,1,0,0:0:0:0:
277,48,172857,2,0,P|219:59|159:132,2,150.000005722046,2|0|2,0:0|0:0|0:0,0:0:0:0:
421,100,173632,1,2,0:0:0:0:
409,174,173762,2,0,P|391:201|349:218,1,75.0000028610231
278,220,174020,5,2,0:0:0:0:
130,191,174279,1,0,0:0:0:0:
278,220,174538,1,2,0:0:0:0:
130,191,174796,1,0,0:0:0:0:
58,214,174926,2,0,P|37:285|66:355,1,150.000005722046,2|0,0:0|0:0,0:0:0:0:
136,329,175313,2,0,P|157:258|128:188,1,150.000005722046,2|0,0:0|0:0,0:0:0:0:
33,73,175831,1,0,0:0:0:0:
104,49,175960,1,0,0:0:0:0:
176,68,176089,1,0,0:0:0:0:
202,215,176348,5,2,0:0:0:0:
317,119,176607,1,2,0:0:0:0:
461,158,176865,1,0,0:0:0:0:
441,230,176995,2,0,L|415:307,1,75.0000028610231,2|0,0:0|0:0,0:0:0:0:
388,141,177253,1,0,0:0:0:0:
368,213,177383,2,0,L|342:290,1,75.0000028610231,2|0,0:0|0:0,0:0:0:0:
317,119,177641,1,0,0:0:0:0:
297,191,177771,2,0,L|271:268,1,75.0000028610231,2|0,0:0|0:0,0:0:0:0:
243,98,178028,1,0,0:0:0:0:
219,169,178158,6,0,P|203:207|109:268,2,150.000005722046,2|2|0,0:0|0:0|0:0,0:0:0:0:
15,74,178934,1,0,0:0:0:0:
72,123,179063,2,0,L|95:195,1,75.0000028610231,2|0,0:0|0:0,0:0:0:0:
86,51,179322,1,0,1:0:0:0:
143,100,179451,1,2,0:0:0:0:
371,122,179710,1,2,0:0:0:0:
143,100,179969,1,2,0:0:0:0:
371,122,180227,1,4,0:0:0:0:
394,320,180486,5,10,0:0:0:0:
214,240,180745,1,2,0:0:0:0:
174,331,180874,1,2,0:0:0:0:
106,259,181003,1,8,0:0:0:0:
100,161,181132,6,0,P|102:108|123:58,1,100,2|0,0:0|0:0,0:0:0:0:
338,114,181391,2,0,P|336:167|315:217,1,100,2|8,0:0|0:0,0:0:0:0:
193,210,181650,2,0,P|175:163|174:113,1,100,2|0,0:0|0:0,0:0:0:0:
338,114,181908,1,0,0:0:0:0:
412,223,182038,2,0,P|410:272|393:319,1,100,10|0,0:0|0:0,0:0:0:0:
174,331,182296,6,0,L|86:380,1,100,2|0,0:0|0:0,0:0:0:0:
193,210,182555,2,0,L|280:160,1,100,10|0,0:0|0:0,0:0:0:0:
88,126,182813,2,0,L|0:175,1,100,2|0,0:0|0:0,0:0:0:0:
174,331,183072,1,10,0:0:0:0:
185,112,183201,6,0,L|272:62,1,100,2|0,0:0|0:0,0:0:0:0:
378,231,183460,1,2,0:0:0:0:
174,335,183589,1,10,0:0:0:0:
181,108,183719,2,0,L|268:58,1,100,2|0,0:0|0:0,0:0:0:0:
289,304,183977,1,0,0:0:0:0:
177,104,184107,2,0,L|89:153,1,100,10|0,0:0|0:0,0:0:0:0:
53,322,184365,2,0,P|115:338|237:317,1,150,6|0,0:0|0:0,0:0:0:0:
285,308,184624,5,10,0:0:0:0:
299,130,184753,1,0,0:0:0:0:
437,283,184882,2,0,P|394:323|355:343,1,100,2|0,0:0|0:0,0:0:0:0:
295,126,185141,1,10,0:0:0:0:
441,287,185270,2,0,P|398:327|359:347,1,100,2|0,0:0|0:0,0:0:0:0:
435,143,185529,5,10,0:0:0:0:
281,312,185658,1,2,0:0:0:0:
287,118,185788,1,8,0:0:0:0:
449,295,185917,1,2,0:0:0:0:
283,114,186046,1,10,0:0:0:0:
255,91,186111,1,8,0:0:0:0:
226,73,186175,1,8,0:0:0:0:
195,62,186240,1,8,0:0:0:0:
162,56,186304,1,10,0:0:0:0:
129,56,186369,1,8,0:0:0:0:
96,62,186434,5,8,0:0:0:0:
72,282,186563,1,0,0:0:0:0:
310,284,186693,2,0,B|396:255|394:163,1,150,6|0,0:0|0:0,0:0:0:0:
416,62,186951,1,8,0:0:0:0:
440,282,187080,1,0,0:0:0:0:
202,284,187210,2,0,B|116:255|118:163,1,150,6|0,0:0|0:0,0:0:0:0:
96,62,187468,1,8,0:0:0:0:
32,262,187598,1,0,0:0:0:0:
219,380,187727,6,0,B|309:397|383:324,1,150,6|0,0:0|0:0,0:0:0:0:
480,262,187986,1,8,0:0:0:0:
162,48,188115,1,8,0:0:0:0:
32,262,188245,1,8,0:0:0:0:
352,48,188374,1,8,0:0:0:0:
415,373,188503,5,10,0:0:0:0:
97,11,188762,1,10,0:0:0:0:
395,247,189020,1,0,0:0:0:0:
117,137,189408,5,8,0:0:0:0:
395,247,189667,1,0,0:0:0:0:
117,137,189796,1,8,0:0:0:0:
395,247,190055,1,8,0:0:0:0:
443,243,190141,1,8,0:0:0:0:
480,275,190227,1,8,0:0:0:0:
482,324,190313,1,8,0:0:0:0:
449,359,190399,1,8,0:0:0:0:
400,361,190486,1,8,0:0:0:0:
365,327,190572,5,8,0:0:0:0:
155,28,190831,1,8,0:0:0:0:
226,329,191089,1,8,0:0:0:0:
286,55,191477,5,8,0:0:0:0:
226,329,191736,1,0,0:0:0:0:
286,55,191865,1,8,0:0:0:0:
226,329,192124,1,8,0:0:0:0:
187,359,192210,1,8,0:0:0:0:
138,365,192296,1,8,0:0:0:0:
93,345,192382,1,8,0:0:0:0:
65,304,192468,1,8,0:0:0:0:
62,255,192555,1,8,0:0:0:0:
84,211,192641,5,8,0:0:0:0:
427,169,192900,1,8,2:0:0:0:
176,160,193158,1,8,0:0:0:0:
427,169,193546,5,8,0:0:0:0:
87,111,193805,1,0,0:0:0:0:
427,169,193934,1,8,0:0:0:0:
87,111,194193,1,8,0:0:0:0:
68,151,194279,1,8,0:0:0:0:
65,195,194365,1,8,0:0:0:0:
76,237,194451,1,8,0:0:0:0:
102,274,194537,1,8,0:0:0:0:
138,299,194624,1,8,0:0:0:0:
181,310,194710,5,8,0:0:0:0:
256,144,194969,1,2,0:0:0:0:
390,347,195227,2,0,P|460:298|469:231,1,150,10|0,0:0|0:0,0:0:0:0:
427,169,195486,1,2,0:0:0:0:
256,368,195615,2,0,L|227:259,1,100,2|0,0:0|0:0,0:0:0:0:
110,288,195874,5,0,1:0:0:0:
99,268,195939,1,0,1:0:0:0:
94,247,196004,1,0,1:0:0:0:
417,136,196132,1,0,1:2:0:0:
95,224,196262,1,0,1:2:0:0:
418,210,196391,1,0,1:2:0:0:
102,203,196520,1,0,1:2:0:0:
386,272,196650,1,0,1:2:0:0:
114,184,196779,6,0,L|47:140,2,66.6666666666667
130,66,197037,2,0,L|201:29,2,66.6666666666667,8|0|0,0:0|0:0|0:0,0:0:0:0:
210,150,197296,2,0,L|208:203,1,50
13,281,197426,2,0,L|35:327,1,50
220,296,197555,2,0,L|198:342,1,50,8|0,0:0|0:0,0:0:0:0:
58,147,197727,6,0,L|58:228,2,66.6666666666667
210,150,197986,2,0,L|268:184,2,66.6666666666667,0|8|0,0:0|0:0|0:0,0:0:0:0:
188,311,198244,2,0,L|131:345,2,66.6666666666667
266,264,198503,1,0,0:0:0:0:
314,253,198589,1,8,0:0:0:0:
363,262,198675,1,0,0:0:0:0:
404,290,198761,1,0,0:0:0:0:
430,333,198848,2,0,B|479:313|479:313|499:260,1,100,0|0,1:0|0:0,0:0:0:0:
468,174,199107,5,8,0:0:0:0:
234,319,199236,1,0,1:0:0:0:
468,174,199365,2,0,B|488:126|488:126|465:74,1,100,0|0,1:0|0:0,0:0:0:0:
382,36,199624,1,8,0:0:0:0:
183,174,199753,1,0,1:0:0:0:
382,36,199882,2,0,B|394:87|394:87|363:134,1,100,0|0,1:0|0:0,0:0:0:0:
288,187,200141,5,8,0:0:0:0:
87,322,200270,1,0,1:0:0:0:
288,187,200400,2,0,B|290:134|290:134|250:94,1,100,0|0,1:0|0:0,0:0:0:0:
171,48,200658,1,8,0:0:0:0:
22,240,200788,1,0,1:0:0:0:
171,48,200917,2,0,B|213:17|213:17|269:29,1,100,0|0,1:0|0:0,0:0:0:0:
368,255,201176,5,10,1:2:0:0:
256,176,201305,1,0,0:0:0:0:
144,255,201434,1,2,0:0:0:0:
100,57,201563,2,0,P|143:88|164:130,1,100,2|8,1:2|0:0,0:0:0:0:
40,175,201822,1,0,1:0:0:0:
431,327,201951,2,0,P|388:296|367:254,1,100,2|0,1:2|0:0,0:0:0:0:
416,53,202210,1,8,0:0:0:0:
256,180,202339,1,0,1:0:0:0:
96,53,202469,2,0,L|7:109,1,100,0|0,1:0|0:0,0:0:0:0:
144,255,202727,1,8,0:0:0:0:
256,176,202857,5,0,1:0:0:0:
368,255,202986,2,0,L|449:176,1,100,0|0,1:0|0:0,0:0:0:0:
256,172,203245,1,8,1:0:0:0:
140,259,203374,1,0,1:0:0:0:
372,259,203503,2,0,L|453:180,1,100,0|0,1:0|0:0,0:0:0:0:
256,168,203762,1,8,1:0:0:0:
136,263,203891,1,0,1:0:0:0:
376,263,204020,2,0,L|475:207,1,100,0|0,1:0|0:0,0:0:0:0:
256,164,204279,1,8,1:0:0:0:
132,267,204408,1,0,1:0:0:0:
380,267,204537,2,0,L|490:239,1,100,0|0,1:0|0:0,0:0:0:0:
256,160,204796,1,8,1:0:0:0:
129,271,204926,1,0,1:0:0:0:
384,271,205055,6,0,L|439:271,3,50,0|0|0|0,1:0|0:0|0:0|0:0,0:0:0:0:
334,329,205313,2,0,L|276:323,1,50,8|0,0:0|0:0,0:0:0:0:
262,250,205443,2,0,L|204:256,1,50
125,275,205572,1,0,0:0:0:0:
121,279,205637,1,0,0:0:0:0:
117,283,205701,1,0,0:0:0:0:
113,287,205766,1,0,0:0:0:0:
109,291,205831,1,8,0:0:0:0:
85,262,205895,1,0,0:0:0:0:
68,228,205960,1,0,0:0:0:0:
61,191,206024,1,0,0:0:0:0:
62,154,206089,1,0,0:0:0:0:
72,118,206154,1,0,0:0:0:0:
90,85,206218,1,0,0:0:0:0:
116,58,206283,1,0,0:0:0:0:
147,38,206348,5,8,0:0:0:0:
182,25,206412,1,0,0:0:0:0:
220,22,206477,1,0,0:0:0:0:
257,27,206542,1,0,0:0:0:0:
291,41,206606,1,0,0:0:0:0:
322,63,206671,1,0,0:0:0:0:
346,92,206736,1,0,0:0:0:0:
364,124,206800,1,0,0:0:0:0:
397,142,206865,1,8,0:0:0:0:
434,142,206929,1,0,0:0:0:0:
466,123,206994,2,0,P|483:96|488:64,1,50
313,100,207124,6,0,P|298:145|306:201,1,100,0|0,1:0|0:0,0:0:0:0:
474,347,207382,1,8,0:0:0:0:
245,284,207512,1,0,1:0:0:0:
245,284,207641,2,0,L|151:320,1,100,0|0,1:0|0:0,0:0:0:0:
467,314,207900,1,8,0:0:0:0:
224,238,208029,1,0,1:0:0:0:
224,238,208158,6,0,L|130:273,1,100,0|0,1:0|0:0,0:0:0:0:
463,310,208417,1,8,0:0:0:0:
204,193,208546,1,0,1:0:0:0:
204,193,208675,2,0,L|110:228,1,100,0|0,1:0|0:0,0:0:0:0:
459,306,208934,1,8,1:2:0:0:
183,143,209063,1,0,0:0:0:0:
455,302,209193,5,4,2:1:0:0:
419,130,209322,1,0,2:1:0:0:
451,298,209451,1,12,2:1:0:0:
399,109,209580,1,0,2:1:0:0:
447,294,209710,5,4,2:1:0:0:
375,87,209839,1,0,2:1:0:0:
443,290,209969,1,12,2:1:0:0:
345,63,210098,1,0,2:1:0:0:
199,256,210227,5,4,2:1:0:0:
429,210,210357,1,0,0:0:0:0:
174,248,210486,1,12,2:1:0:0:
453,217,210616,1,0,2:0:0:0:
145,236,210745,5,4,2:1:0:0:
482,229,210875,1,0,2:0:0:0:
119,225,211003,1,12,2:1:0:0:
511,240,211133,1,0,2:0:0:0:
94,213,211262,6,0,L|64:111,1,100,4|0,2:1|0:0,0:0:0:0:
400,114,211520,2,0,L|430:216,1,100,12|0,2:1|0:0,0:0:0:0:
334,336,211779,2,0,L|232:366,1,100,4|0,2:1|0:0,0:0:0:0:
178,48,212038,2,0,L|280:18,1,100,12|0,2:1|0:0,0:0:0:0:
256,192,212296,1,4,2:1:0:0:
407,294,212426,5,8,0:0:0:0:
105,90,212684,1,8,0:0:0:0:
105,294,212943,1,8,0:0:0:0:
407,90,213072,1,8,0:0:0:0:
407,294,213201,1,8,0:0:0:0:
105,90,213331,6,0,L|2:80,1,100,4|0,2:0|2:2,0:0:0:0:
105,294,213589,2,0,P|132:333|189:353,1,100,8|0,1:2|2:0,0:0:0:0:
316,205,213848,2,0,P|289:166|232:146,1,100,0|0,1:0|2:0,0:0:0:0:
119,169,214107,1,8,1:2:0:0:
302,332,214236,2,0,L|405:322,1,100,0|0,1:0|2:0,0:0:0:0:
411,86,214495,5,0,1:2:0:0:
407,294,214624,1,8,1:2:0:0:
415,82,214753,1,0,1:2:0:0:
298,299,214882,1,0,1:2:0:0:
419,78,215012,1,0,1:2:0:0:
206,238,215141,1,8,1:2:0:0:
419,78,215270,1,0,1:2:0:0:
150,142,215400,6,0,P|109:166|67:224,1,100,0|0,1:0|2:0,0:0:0:0:
407,294,215658,2,0,P|451:267|489:221,1,100,8|0,1:0|2:0,0:0:0:0:
253,151,215917,2,0,P|224:189|204:243,1,100,0|0,1:0|2:0,0:0:0:0:
281,366,216176,1,8,1:2:0:0:
423,74,216305,2,0,P|385:45|331:25,1,100,0|0,1:0|2:0,0:0:0:0:
146,48,216563,5,0,1:2:0:0:
244,250,216693,1,8,1:2:0:0:
98,70,216822,1,0,1:2:0:0:
248,254,216951,1,0,1:2:0:0:
53,107,217081,1,0,1:2:0:0:
252,258,217210,1,8,1:2:0:0:
16,160,217339,1,0,1:2:0:0:
256,262,217469,6,0,P|300:283|357:291,1,100,0|0,0:0|2:0,0:0:0:0:
490,239,217727,1,8,0:0:0:0:
253,151,217857,1,0,0:0:0:0:
494,243,217986,2,0,P|504:299|495:353,1,100,0|0,0:0|2:0,0:0:0:0:
264,364,218245,2,0,P|254:308|263:254,1,100,8|0,1:0|2:0,0:0:0:0:
249,147,218503,5,0,0:0:0:0:
469,136,218632,1,0,0:0:0:0:
245,143,218762,1,8,0:0:0:0:
473,132,218891,1,0,0:0:0:0:
241,139,219020,2,0,P|194:159|156:192,1,100,0|0,0:0|2:0,0:0:0:0:
46,277,219279,2,0,P|59:326|86:368,1,100,8|0,0:0|2:0,0:0:0:0:
427,367,219538,6,0,P|454:323|467:275,1,100,0|0,0:0|2:0,0:0:0:0:
225,123,219797,2,0,P|178:143|140:176,1,100,8|0,0:0|2:0,0:0:0:0:
287,261,220055,2,0,P|334:241|372:208,1,100,0|0,0:0|2:0,0:0:0:0:
85,17,220314,2,0,P|58:61|45:109,1,100,8|0,0:0|2:0,0:0:0:0:
158,260,220572,5,0,0:0:0:0:
164,268,220637,1,0,0:0:0:0:
171,275,220701,1,0,0:0:0:0:
400,338,220831,1,8,0:0:0:0:
340,108,220960,1,0,0:0:0:0:
267,372,221089,1,0,0:0:0:0:
207,143,221219,1,0,0:0:0:0:
437,206,221348,2,0,P|471:243|498:285,1,100,8|0,0:0|2:0,0:0:0:0:
154,256,221607,6,0,L|93:177,1,100,0|0,0:0|2:0,0:0:0:0:
340,108,221865,2,0,P|401:101|448:116,1,100,8|0,0:0|2:0,0:0:0:0:
251,258,222124,2,0,P|190:265|143:250,1,100,0|0,0:0|2:0,0:0:0:0:
192,116,222382,1,8,1:2:0:0:
406,264,222512,2,0,P|442:313|453:361,1,100,0|0,0:0|2:0,0:0:0:0:
278,349,222770,5,0,0:0:0:0:
192,116,222900,1,8,0:0:0:0:
196,340,223029,1,0,0:0:0:0:
266,112,223158,1,0,0:0:0:0:
114,331,223288,1,0,0:0:0:0:
340,108,223417,1,8,0:0:0:0:
32,322,223546,1,0,0:0:0:0:
414,104,223676,6,0,P|474:114|515:142,1,100,0|0,0:0|2:0,0:0:0:0:
192,116,223934,2,0,P|135:140|102:176,1,100,8|0,0:0|2:0,0:0:0:0:
278,349,224193,2,0,P|334:324|367:288,1,100,0|0,0:0|2:0,0:0:0:0:
340,108,224451,5,8,0:0:0:0:
183,259,224581,2,0,L|114:331,1,100,0|0,0:0|2:0,0:0:0:0:
266,112,224839,1,0,0:0:0:0:
101,249,224969,2,0,L|32:321,1,100,8|0,0:0|2:0,0:0:0:0:
192,116,225227,1,0,0:0:0:0:
278,349,225357,1,0,0:0:0:0:
188,112,225486,1,8,0:0:0:0:
282,353,225615,1,0,0:0:0:0:
188,112,225745,6,0,L|83:79,1,100,0|0,0:0|2:0,0:0:0:0:
324,272,226003,2,0,P|366:294|429:305,1,100,8|0,0:0|2:0,0:0:0:0:
433,140,226262,2,0,P|391:118|328:107,1,100,0|0,0:0|2:0,0:0:0:0:
79,244,226520,2,0,L|184:277,1,100,8|0,0:0|2:0,0:0:0:0:
437,136,226779,5,0,0:0:0:0:
184,108,226908,1,0,0:0:0:0:
328,276,227038,1,8,0:0:0:0:
180,104,227167,1,0,0:0:0:0:
441,132,227296,1,0,0:0:0:0:
176,100,227426,1,0,0:0:0:0:
332,280,227555,1,8,0:0:0:0:
172,96,227684,1,0,0:0:0:0:
445,128,227813,5,0,0:0:0:0:
454,305,227943,2,0,P|418:337|370:358,1,100,0|8,0:0|2:0,0:0:0:0:
449,124,228201,1,0,0:0:0:0:
332,280,228331,2,0,P|287:297|234:301,1,100,0|0,0:0|2:0,0:0:0:0:
453,119,228589,1,8,0:0:0:0:
225,214,228719,2,0,P|176:215|126:200,1,100,0|0,0:0|2:0,0:0:0:0:
457,115,228977,1,0,0:0:0:0:
147,115,229107,2,0,P|101:99|59:68,1,100,8|0,0:0|2:0,0:0:0:0:
461,111,229365,1,0,0:0:0:0:
145,137,229494,1,0,0:0:0:0:
141,161,229559,1,0,0:0:0:0:
138,186,229624,1,8,0:0:0:0:
134,210,229688,1,0,0:0:0:0:
131,235,229753,1,0,0:0:0:0:
128,260,229817,1,0,0:0:0:0:
125,285,229882,6,0,B|159:322|159:322|222:341,1,100,0|0,0:0|2:0,0:0:0:0:
225,214,230141,2,0,B|274:223|336:202,1,100,8|0,2:0|2:0,2:0:0:0:
264,97,230400,2,0,B|309:76|347:22,1,100,0|0,2:0|2:0,2:0:0:0:
170,14,230658,1,8,0:0:0:0:
461,111,230787,6,0,P|483:184|416:302,1,200
319,219,231176,2,0,B|269:232|221:218,1,100,8|0,2:0|2:0,2:0:0:0:
270,104,231435,2,0,B|317:87|359:36,1,100,0|0,2:0|2:0,2:0:0:0:
183,13,231693,1,8,0:0:0:0:
465,135,231822,6,0,P|481:210|403:321,1,200
315,231,232210,2,0,B|263:240|217:222,1,100,8|0,2:0|2:0,2:0:0:0:
275,112,232469,2,0,B|323:99|369:52,1,100,0|0,2:0|2:0,2:0:0:0:
197,14,232727,1,8,0:0:0:0:
467,160,232857,1,0,0:0:0:0:
408,331,232986,5,2,2:1:0:0:
404,335,233051,1,2,2:1:0:0:
400,339,233115,1,2,2:1:0:0:
275,112,233245,1,10,2:1:0:0:
412,327,233374,1,2,2:1:0:0:
271,108,233503,1,2,2:1:0:0:
416,323,233632,1,2,2:1:0:0:
267,104,233762,1,10,2:1:0:0:
420,319,233891,1,2,2:1:0:0:
263,100,234020,6,0,B|217:85|217:85|154:100,1,100
69,238,234279,2,0,B|79:285|123:332,1,100,8|0,0:0|0:0,0:0:0:0:
286,337,234537,2,0,B|321:304|340:242,1,100
434,114,234796,1,8,0:0:0:0:
207,212,234926,6,0,P|114:173|73:88,1,200
40,249,235313,2,0,B|45:296|85:347,1,100,8|0,0:0|0:0,0:0:0:0:
324,353,235571,2,0,B|361:323|386:263,1,100
473,115,235831,2,0,P|450:63|410:23,1,100,8|0,0:0|0:0,0:0:0:0:
132,31,236089,6,0,P|97:65|74:110,1,100
383,31,236348,2,0,P|418:65|441:109,1,100,8|0,0:0|0:0,0:0:0:0:
96,31,236607,2,0,P|60:65|37:109,1,100
351,33,236865,1,8,0:0:0:0:
256,256,236995,5,2,2:1:0:0:
256,256,237059,1,2,2:1:0:0:
256,256,237124,1,2,2:1:0:0:
65,109,237253,1,2,2:1:0:0:
256,260,237382,1,10,2:1:0:0:
447,109,237512,1,2,2:1:0:0:
256,264,237641,1,2,2:1:0:0:
61,109,237770,1,2,2:1:0:0:
256,268,237900,1,10,2:1:0:0:
451,109,238029,1,0,2:1:0:0:
256,272,238158,5,0,1:1:0:0:
256,276,238417,1,0,1:0:0:0:
468,338,238676,1,0,0:0:0:0:
468,338,238805,1,0,0:0:0:0:
468,338,238934,1,0,0:0:0:0:
256,276,239063,2,0,P|171:281|65:343,1,200,0|0,1:0|0:0,0:0:0:0:
468,338,239451,5,0,1:0:0:0:
455,109,239710,1,0,1:1:0:0:
468,338,239969,1,0,0:0:0:0:
468,338,240098,1,0,0:0:0:0:
256,216,240227,5,2,2:1:0:0:
49,319,240357,1,2,2:1:0:0:
260,220,240486,1,2,2:1:0:0:
21,237,240616,1,2,2:1:0:0:
264,224,240745,1,2,2:1:0:0:
21,147,240874,1,2,2:1:0:0:
268,228,241003,1,2,2:1:0:0:
49,65,241133,1,2,2:1:0:0:
49,65,241779,5,0,2:2:0:0:
49,65,242296,2,0,L|153:43,1,100,6|0,0:0|0:0,0:0:0:0:
325,262,242555,2,0,P|278:289|224:287,1,100,8|0,0:0|0:0,0:0:0:0:
186,121,242813,2,0,P|233:94|287:96,1,100
463,319,243072,2,0,L|359:341,1,100,10|0,0:0|0:0,0:0:0:0:
384,192,243331,6,0,L|401:79,1,100,2|0,0:0|0:0,0:0:0:0:
128,191,243589,1,10,0:0:0:0:
120,240,243653,1,0,0:0:0:0:
113,290,243719,2,0,P|95:340|59:368,1,100,2|0,0:0|0:0,0:0:0:0:
25,193,243977,1,0,0:0:0:0:
208,51,244107,2,0,P|256:38|304:51,1,100,10|0,0:0|0:0,0:0:0:0:
463,319,244365,6,0,L|369:357,1,100,2|0,0:0|0:0,0:0:0:0:
270,343,244624,1,8,0:0:0:0:
49,65,244753,2,0,L|143:27,1,100,2|0,0:0|0:0,0:0:0:0:
242,41,245012,1,0,0:0:0:0:
431,224,245141,6,0,L|462:318,1,100,10|0,0:0|0:0,0:0:0:0:
80,224,245400,2,0,L|49:318,1,100,2|0,0:0|0:0,0:0:0:0:
452,170,245658,2,0,L|483:264,1,100,10|0,0:0|0:0,0:0:0:0:
60,170,245917,2,0,L|28:264,1,100,2|0,0:0|0:0,0:0:0:0:
399,129,246176,2,0,L|430:223,1,100,10|0,0:0|0:0,0:0:0:0:
113,129,246434,6,0,L|81:223,1,100,2|0,0:0|0:0,0:0:0:0:
201,332,246693,1,8,0:0:0:0:
366,294,246822,1,0,0:0:0:0:
399,129,246951,2,0,L|367:34,1,100,2|0,0:0|0:0,0:0:0:0:
301,168,247210,1,8,0:0:0:0:
366,294,247339,1,0,0:0:0:0:
113,129,247469,6,0,L|144:34,1,100,2|0,0:0|0:0,0:0:0:0:
211,168,247728,1,8,0:0:0:0:
146,294,247857,1,0,0:0:0:0:
399,129,247986,2,0,L|430:223,1,100,2|0,0:0|0:0,0:0:0:0:
113,129,248245,2,0,L|81:223,1,100,8|0,0:0|0:0,0:0:0:0:
368,119,248503,5,2,2:1:0:0:
350,267,248632,1,2,2:1:0:0:
143,119,248762,1,2,2:1:0:0:
161,267,248891,1,2,2:1:0:0:
397,116,249020,5,2,2:1:0:0:
360,290,249149,1,2,2:1:0:0:
113,117,249279,1,2,2:1:0:0:
150,291,249408,1,2,2:1:0:0:
432,116,249538,5,2,2:1:0:0:
370,321,249667,1,2,2:1:0:0:
78,116,249796,1,2,2:1:0:0:
140,321,249925,1,2,2:1:0:0:
475,121,250055,5,2,2:1:0:0:
379,359,250184,1,2,2:1:0:0:
36,121,250313,1,2,2:1:0:0:
132,359,250442,1,2,2:1:0:0:
84,63,250572,6,0,L|171:13,1,100,6|0,0:0|0:0,0:0:0:0:
297,278,250831,2,0,P|247:286|199:277,1,100,8|0,0:0|0:0,0:0:0:0:
214,104,251089,2,0,P|264:98|313:107,1,100
240,379,251348,6,0,L|144:353,1,100,10|0,0:0|0:0,0:0:0:0:
388,118,251607,2,0,L|484:153,1,100,2|0,0:0|0:0,0:0:0:0:
405,262,251865,1,8,0:0:0:0:
124,266,251995,2,0,L|29:230,1,100,2|0,0:0|0:0,0:0:0:0:
107,122,252253,1,0,0:0:0:0:
272,180,252382,2,0,L|255:280,1,100,10|0,0:0|0:0,0:0:0:0:
111,44,252641,6,0,P|123:142|117:199,1,150,2|0,0:0|0:0,0:0:0:0:
107,262,252900,1,10,0:0:0:0:
392,270,253029,2,0,L|493:260,1,100,2|0,0:0|0:0,0:0:0:0:
409,126,253288,1,0,0:0:0:0:
194,47,253417,2,0,L|111:123,1,100,10|0,0:0|0:0,0:0:0:0:
318,337,253676,2,0,L|401:261,1,100,2|0,0:0|0:0,0:0:0:0:
297,53,253934,6,0,L|196:49,1,100,10|0,0:0|0:0,0:0:0:0:
215,331,254193,2,0,L|315:334,1,100,2|0,0:0|0:0,0:0:0:0:
372,127,254451,2,0,L|301:57,1,100,10|0,0:0|0:0,0:0:0:0:
157,274,254710,5,4,2:1:0:0:
175,291,254796,1,4,2:1:0:0:
193,309,254882,1,4,2:1:0:0:
211,327,254968,1,4,2:1:0:0:
368,288,255098,1,0,0:0:0:0:
372,127,255227,2,0,P|339:63|261:79,1,150.000005722046,0|0,1:0|1:0,0:0:0:0:
207,323,255745,5,4,2:1:0:0:
185,301,255831,1,4,2:1:0:0:
164,280,255917,1,4,2:1:0:0:
142,259,256003,1,4,2:1:0:0:
31,140,256132,1,0,0:0:0:0:
165,45,256262,2,0,P|235:37|266:100,1,150.000005722046,0|0,1:0|1:0,0:0:0:0:
125,242,256779,5,4,2:1:0:0:
151,267,256865,1,4,2:1:0:0:
176,292,256951,1,4,2:1:0:0:
203,319,257037,1,4,2:1:0:0:
368,288,257167,1,0,0:0:0:0:
372,127,257296,2,0,P|339:63|261:79,1,150.000005722046,0|0,1:0|1:0,0:0:0:0:
199,315,257813,5,4,2:1:0:0:
166,282,257899,1,4,2:1:0:0:
136,252,257986,1,4,2:1:0:0:
105,222,258072,1,4,2:1:0:0:
53,70,258201,1,0,0:0:0:0:
213,35,258331,2,0,P|274:69|264:139,1,150.000005722046,0|0,1:0|1:0,0:0:0:0:
4,129,258848,5,4,2:1:0:0:
123,38,258977,1,0,2:1:0:0:
4,129,259107,1,4,2:1:0:0:
123,38,259236,1,0,2:1:0:0:
78,202,259365,5,4,2:1:0:0:
239,77,259495,1,0,2:1:0:0:
78,202,259624,1,4,2:1:0:0:
239,77,259753,1,0,2:1:0:0:
154,277,259882,5,4,2:1:0:0:
358,118,260012,1,0,2:1:0:0:
154,277,260141,1,4,2:1:0:0:
358,118,260270,1,0,2:1:0:0:
230,352,260400,5,4,2:1:0:0:
477,159,260529,1,0,2:1:0:0:
230,352,260658,1,4,2:1:0:0:
477,159,260788,1,4,2:1:0:0:
343,304,261682,5,6,0:0:0:0:
375,111,261948,1,6,0:0:0:0:
169,304,262227,1,6,0:0:0:0:
137,111,262506,1,0,0:0:0:0:
137,111,262574,1,0,0:0:0:0:
137,111,262642,1,0,0:0:0:0:
137,111,262710,1,0,0:0:0:0:
137,111,262778,1,8,0:0:0:0:
325,237,262993,5,4,0:0:0:0:
325,237,263058,1,0,0:0:0:0:
325,237,263122,1,0,0:0:0:0:
284,39,263252,1,8,0:0:0:0:
473,103,263381,1,0,0:0:0:0:
325,237,263510,2,0,P|243:252|145:317,1,200,0|8,0:0|0:0,0:0:0:0:
100,119,263898,5,0,0:0:0:0:
284,39,264027,1,0,0:0:0:0:
96,123,264157,1,0,0:0:0:0:
288,43,264286,1,8,0:0:0:0:
92,127,264415,1,0,0:0:0:0:
292,47,264545,1,0,0:0:0:0:
88,131,264674,1,0,0:0:0:0:
296,51,264803,1,8,0:0:0:0:
84,135,264933,1,0,0:0:0:0:
300,55,265062,5,0,1:0:0:0:
421,213,265191,2,0,L|481:294,1,100,0|0,1:0|0:0,0:0:0:0:
186,85,265450,1,0,1:0:0:0:
306,243,265579,2,0,L|369:328,1,100,0|0,1:0|0:0,0:0:0:0:
80,139,265838,1,0,1:0:0:0:
200,297,265967,2,0,L|263:382,1,100,0|0,1:0|0:0,0:0:0:0:
300,55,266226,5,0,1:0:0:0:
330,94,266290,1,0,0:0:0:0:
360,134,266355,1,0,1:0:0:0:
390,174,266419,1,0,0:0:0:0:
420,214,266484,1,0,1:0:0:0:
451,254,266549,1,0,0:0:0:0:
481,294,266613,2,0,P|395:358|211:234,1,350
191,174,267131,2,0,P|320:174|234:310,1,350
167,265,267648,5,4,0:0:0:0:
61,74,267907,2,0,L|37:179,1,100,10|0,0:0|0:0,0:0:0:0:
167,265,268165,2,0,L|191:370,1,100,2|0,0:0|0:0,0:0:0:0:
18,332,268424,1,10,0:0:0:0:
138,124,268553,2,0,P|184:62|274:42,1,150,2|0,0:0|0:0,0:0:0:0:
299,54,268812,1,2,0:0:0:0:
101,192,268941,1,8,0:0:0:0:
299,330,269070,1,0,0:0:0:0:
480,32,269200,6,0,L|475:131,1,100,2|0,0:0|0:0,0:0:0:0:
470,231,269458,1,10,0:0:0:0:
260,92,269588,2,0,L|256:192,1,100,2|0,0:0|0:0,0:0:0:0:
250,291,269846,1,0,0:0:0:0:
40,31,269976,2,0,L|36:131,1,100,10|0,0:0|0:0,0:0:0:0:
379,323,270234,6,0,P|402:264|408:225,1,100,2|0,0:0|0:0,0:0:0:0:
103,228,270493,2,0,P|113:277|133:323,1,100,10|0,0:0|0:0,0:0:0:0:
407,226,270752,2,0,P|409:176|400:128,1,100,2|0,0:0|0:0,0:0:0:0:
112,126,271010,2,0,P|104:176|105:226,1,100,10|0,0:0|0:0,0:0:0:0:
256,132,271258,2,0,L|256:16,1,100,2|0,0:0|0:0,0:0:0:0:
348,325,271516,5,10,0:0:0:0:
164,325,271646,1,0,0:0:0:0:
407,226,271775,1,2,0:0:0:0:
104,226,271904,1,0,0:0:0:0:
348,128,272034,1,8,0:0:0:0:
164,128,272163,1,0,0:0:0:0:
407,226,272292,6,0,P|455:227|515:216,1,100,2|0,0:0|0:0,0:0:0:0:
416,27,272551,2,0,P|367:25|308:37,1,100,8|0,0:0|0:0,0:0:0:0:
104,226,272809,2,0,P|152:227|212:216,1,100,2|0,0:0|0:0,0:0:0:0:
195,34,273068,2,0,P|145:25|96:26,1,100,8|0,0:0|0:0,0:0:0:0:
194,277,273327,5,2,2:1:0:0:
316,104,273456,1,2,2:1:0:0:
169,130,273585,1,2,2:1:0:0:
341,252,273715,1,2,2:1:0:0:
159,271,273844,5,2,2:1:0:0:
350,111,273973,1,2,2:1:0:0:
175,95,274102,1,2,2:1:0:0:
335,286,274232,1,2,2:1:0:0:
127,251,274361,5,2,2:1:0:0:
383,131,274490,1,2,2:1:0:0:
195,63,274619,1,2,2:1:0:0:
315,319,274749,1,2,2:1:0:0:
84,222,274878,5,2,2:1:0:0:
427,161,275007,1,2,2:1:0:0:
225,20,275136,1,2,2:1:0:0:
286,363,275266,1,2,2:1:0:0:
34,36,275396,6,0,P|76:105|88:191,1,150,6|0,0:0|0:0,0:0:0:0:
84,222,275654,2,0,P|67:268|69:323,1,100,8|0,0:0|0:0,0:0:0:0:
286,363,275913,2,0,P|303:317|301:262,1,100
197,134,276172,2,0,L|136:52,1,100,10|0,0:0|0:0,0:0:0:0:
315,250,276430,6,0,P|341:288|403:311,1,100,2|0,0:0|0:0,0:0:0:0:
405,211,276689,1,8,0:0:0:0:
173,188,276818,2,0,P|127:191|76:233,1,100,2|0,2:0|2:0,2:0:0:0:
161,285,277077,1,0,2:0:0:0:
296,95,277206,2,0,P|316:53|305:-11,1,100,10|0,2:0|2:0,2:0:0:0:
161,285,277465,6,0,P|134:345|38:365,1,150,2|0,0:0|0:0,0:0:0:0:
0,324,277723,1,10,0:0:0:0:
197,98,277853,2,0,P|251:88|309:100,1,100,2|0,0:0|0:0,0:0:0:0:
392,114,278111,1,0,0:0:0:0:
259,288,278241,2,0,P|209:294|160:284,1,100,10|0,0:0|0:0,0:0:0:0:
315,52,278499,2,0,P|358:76|391:113,1,100,2|0,0:0|0:0,0:0:0:0:
120,270,278758,6,0,P|98:225|92:175,1,100,10|0,0:0|0:0,0:0:0:0:
392,114,279016,2,0,P|413:158|419:208,1,100,2|0,0:0|0:0,0:0:0:0:
92,175,279275,2,0,P|127:138|184:112,1,100,10|0,0:0|0:0,0:0:0:0:
400,224,279533,5,4,2:1:0:0:
379,238,279620,1,4,2:1:0:0:
358,252,279706,1,4,2:1:0:0:
338,266,279792,1,4,2:1:0:0:
155,218,279922,1,0,0:0:0:0:
256,60,280051,1,0,1:0:0:0:
256,60,280309,1,0,1:0:0:0:
394,224,280568,5,4,2:1:0:0:
367,239,280654,1,4,2:1:0:0:
341,253,280740,1,4,2:1:0:0:
316,268,280826,1,4,2:1:0:0:
137,206,280956,1,0,0:0:0:0:
256,60,281085,1,0,1:0:0:0:
256,60,281344,1,0,1:0:0:0:
387,224,281602,5,4,2:1:0:0:
353,239,281689,1,4,2:1:0:0:
320,253,281775,1,4,2:1:0:0:
289,268,281861,1,4,2:1:0:0:
118,187,281991,1,0,0:0:0:0:
256,60,282120,1,0,1:0:0:0:
256,60,282379,1,0,1:0:0:0:
378,223,282637,5,4,2:1:0:0:
336,237,282723,1,4,2:1:0:0:
295,251,282809,1,4,2:1:0:0:
257,265,282895,1,4,2:1:0:0:
98,162,283025,1,0,0:0:0:0:
256,60,283154,1,0,1:0:0:0:
256,60,283413,1,0,1:0:0:0:
252,56,283672,5,4,2:1:0:0:
211,279,283801,1,0,2:1:0:0:
260,56,283930,1,4,2:1:0:0:
301,279,284059,1,0,2:1:0:0:
248,52,284189,5,4,2:1:0:0:
159,291,284318,1,0,2:1:0:0:
264,52,284447,1,4,2:1:0:0:
353,291,284576,1,0,2:1:0:0:
244,48,284706,5,4,2:1:0:0:
107,303,284835,1,0,2:1:0:0:
268,48,284965,1,4,2:1:0:0:
405,303,285094,1,0,2:1:0:0:
240,44,285223,5,4,2:1:0:0:
57,316,285353,1,0,2:1:0:0:
272,44,285482,1,4,2:1:0:0:
455,316,285612,1,4,2:1:0:0:
256,192,286522,12,0,287815,0:0:0:0:
121,144,288565,5,0,0:0:0:0:
111,167,288629,1,0,0:0:0:0:
102,190,288694,1,0,0:0:0:0:
92,213,288758,1,0,0:0:0:0:
83,236,288823,1,0,0:0:0:0:
92,260,288888,1,0,0:0:0:0:
102,283,288952,1,0,0:0:0:0:
111,306,289017,1,0,0:0:0:0:
120,329,289082,1,0,0:0:0:0:
144,334,289146,1,0,0:0:0:0:
169,337,289211,1,0,0:0:0:0:
194,340,289276,1,0,0:0:0:0:
218,341,289340,6,0,L|254:303,1,50,2|0,0:0|0:0,0:0:0:0:
442,302,289470,2,0,L|405:339,1,50,2|0,0:0|0:0,0:0:0:0:
292,201,289599,2,0,L|328:163,1,50,2|0,0:0|0:0,0:0:0:0:
487,111,289728,2,0,L|450:148,1,50,2|0,0:0|0:0,0:0:0:0:
285,2,289858,2,0,L|248:39,7,50,2|0|0|0|0|0|0|0,0:0|0:0|0:0|0:0|0:0|0:0|0:0|0:0,0:0:0:0:
212,37,290375,6,0,L|201:86,1,50
302,152,290504,2,0,L|291:201,1,50
173,77,290633,2,0,L|162:126,1,50
260,192,290763,2,0,L|249:241,1,50
129,123,290892,2,0,L|118:172,1,50
217,239,291021,2,0,L|206:288,1,50
87,170,291151,2,0,L|76:219,1,50
176,278,291280,2,0,L|165:327,1,50
43,215,291409,2,0,L|32:264,1,50
219,343,291538,5,0,0:0:0:0:
243,350,291602,1,0,0:0:0:0:
268,355,291667,1,0,0:0:0:0:
292,359,291733,1,0,0:0:0:0:
317,361,291796,1,0,0:0:0:0:
342,362,291861,1,0,0:0:0:0:
367,361,291927,1,0,0:0:0:0:
392,359,291990,1,0,0:0:0:0:
415,354,292055,1,0,0:0:0:0:
410,330,292121,1,0,0:0:0:0:
407,305,292184,1,0,0:0:0:0:
405,280,292249,1,0,0:0:0:0:
405,255,292315,1,0,0:0:0:0:
408,230,292378,1,0,0:0:0:0:
414,206,292443,1,0,0:0:0:0:
422,182,292507,1,0,0:0:0:0:
432,159,292572,1,0,0:0:0:0:
445,138,292637,1,0,0:0:0:0:
458,118,292702,6,0,L|487:63,3,50
331,222,292961,2,0,L|302:277,3,50
283,89,293220,2,0,L|312:34,3,50
223,188,293478,2,0,L|194:243,3,50
197,71,293737,2,0,L|198:13,3,50
189,88,293981,5,0,0:0:0:0:
182,105,294042,1,0,0:0:0:0:
172,121,294103,1,0,0:0:0:0:
161,136,294164,1,0,0:0:0:0:
148,149,294225,1,0,0:0:0:0:
133,160,294287,1,0,0:0:0:0:
116,169,294348,1,0,0:0:0:0:
99,176,294409,1,0,0:0:0:0:
80,180,294471,2,0,L|16:187,3,50
59,254,294754,2,0,B|159:250|159:250|185:292,1,150
185,292,294993,2,0,B|285:288|285:288|311:330,1,150
59,254,295232,1,4,2:2:0:0:
420,116,295588,6,0,L|414:167,2,50
331,95,295868,1,0,0:0:0:0:
331,95,295982,2,0,L|324:175,2,66.6666666666667
244,74,296334,2,0,L|235:153,1,66.6666666666667
153,53,296600,2,0,L|146:133,2,66.6666666666667
64,32,297049,5,4,0:0:0:0:
256,297,297424,1,4,0:0:0:0:
448,32,297799,1,4,0:0:0:0:
256,192,297924,12,0,301034,0:0:0:0:
122,130,301610,5,0,0:0:0:0:
390,254,301767,1,8,0:0:0:0:
256,192,301917,12,0,302967,0:0:0:0:
