osu file format v14

[General]
AudioFilename: audio.mp3
AudioLeadIn: 0
PreviewTime: 134200
Countdown: 0
SampleSet: Soft
StackLeniency: 0.3
Mode: 0
LetterboxInBreaks: 0
EpilepsyWarning: 1
WidescreenStoryboard: 1

[Editor]
DistanceSpacing: 1.1
BeatDivisor: 4
GridSize: 4
TimelineZoom: 2.4

[Metadata]
Title:Tengaku
TitleUnicode:天樂
Artist:Wagakki Band
ArtistUnicode:和楽器バンド
Creator:MaestroSplinter
Version:The Petals of a Now Fully Bloomed Look of Madness Adorn the World
Source:
Tags:vocaloid traditional cover 鈴華ゆう子 suzuhana yuuko novelty japanese Starset hb24
BeatmapID:2276210
BeatmapSetID:996706

[Difficulty]
HPDrainRate:6
CircleSize:3.8
OverallDifficulty:9.8
ApproachRate:9.8
SliderMultiplier:1.82
SliderTickRate:0.5

[Events]
//Background and Video events
0,0,"tengaku2.jpg",0,0
//Break Periods
//Storyboard Layer 0 (Background)
//Storyboard Layer 1 (Fail)
//Storyboard Layer 2 (Pass)
//Storyboard Layer 3 (Foreground)
//Storyboard Layer 4 (Overlay)
//Storyboard Sound Samples

[TimingPoints]
1281,258.620689655172,4,2,1,20,1,0
1281,-400,4,2,1,20,0,0
1539,243.90243902439,4,2,1,20,1,0
1782,266.666666666667,4,2,1,20,1,0
1782,-222.222222222222,4,2,1,20,0,0
3648,187.5,4,2,1,100,1,0
3648,-222.222222222222,4,2,1,20,0,0
3835,314.13612565445,4,2,1,20,1,0
3835,-181.818181818182,4,2,1,20,0,0
4777,258.620689655172,4,2,1,20,1,0
4906,-222.222222222222,4,2,1,20,0,0
6199,267.857142857143,4,2,1,20,1,0
6199,-222.222222222222,4,2,1,20,0,0
7538,319.148936170213,4,2,1,20,1,0
8176,260.869565217391,4,2,1,20,1,0
8176,-1000,4,2,1,20,0,0
10393,265.486725663717,4,2,1,20,1,0
10393,-192.307692307692,4,2,1,20,0,0
13578,250,4,2,1,20,1,0
14078,258.620689655172,4,2,1,20,1,0
14078,-285.714285714286,4,2,1,20,0,0
14853,258.620689655172,4,2,1,20,1,0
15887,-285.714285714286,4,2,1,5,0,0
17956,-1000,4,2,1,15,0,0
19766,228.136882129278,4,2,1,15,1,0
19880,361.44578313253,4,2,1,20,1,0
20060,259.74025974026,4,2,1,30,1,0
20060,-400,4,2,1,30,0,0
21098,-400,4,2,1,20,0,0
22072,267.857142857143,4,2,1,30,1,0
22540,294.117647058824,4,2,1,30,1,0
22687,397.350993377483,4,2,1,30,1,0
22687,-222.222222222222,4,2,1,30,0,0
22885,441.176470588235,4,2,1,30,1,0
23105,555.555555555556,4,2,1,30,1,0
23105,-222.222222222222,4,2,1,30,0,0
23382,621.761658031088,4,2,1,30,1,0
23692,600,4,2,1,30,1,0
25192,258.620689655172,4,2,1,30,1,0
26097,303.030303030303,4,2,1,30,1,0
26400,226.415094339623,4,2,1,30,1,0
26852,315.789473684211,4,2,1,30,1,0
27167,363.636363636364,4,2,1,30,1,0
27530,425.531914893617,4,2,1,30,1,0
27955,638.297872340426,4,2,1,30,1,0
30508,258.620689655172,4,2,1,5,1,0
30508,-100,4,2,1,5,0,0
31283,258.620689655172,4,2,1,60,1,0
31283,-117.647058823529,4,2,1,60,0,0
32576,245.901639344262,4,2,1,60,1,0
32821,258.620689655172,4,2,1,60,1,0
32821,-117.647058823529,4,2,1,60,0,0
33338,254.237288135593,4,2,1,60,1,0
33338,-117.647058823529,4,2,1,60,0,0
34100,245.901639344262,4,2,1,60,1,0
34222,290.556900726392,4,2,1,60,1,0
34512,258.620689655172,4,2,1,60,1,0
34770,271.493212669683,4,2,1,60,1,0
34770,-117.647058823529,4,2,1,60,0,0
35041,283.018867924528,4,2,1,60,1,0
35135,251.046025104603,4,2,1,60,1,0
35302,235.294117647059,4,2,1,60,1,0
35419,296.296296296296,4,2,1,60,1,0
35419,-117.647058823529,4,2,1,60,0,0
35642,-117.647058823529,4,2,1,60,0,0
35715,235.294117647059,4,2,1,60,1,0
35715,-117.647058823529,4,2,1,60,0,0
35950,284.36018957346,4,2,1,60,1,0
36092,258.620689655172,4,2,1,60,1,0
36221,251.046025104603,4,2,1,60,1,0
36723,258.620689655172,4,2,1,60,1,0
36723,-117.647058823529,4,2,1,60,0,0
36981,245.901639344262,4,2,1,60,1,0
36981,-117.647058823529,4,2,1,60,0,0
37349,258.620689655172,4,2,1,60,1,0
37478,266.666666666667,4,2,1,60,1,0
37478,-117.647058823529,4,2,1,60,0,0
37744,252.100840336134,4,2,1,60,1,0
37744,-117.647058823529,4,2,1,60,0,0
37996,258.620689655172,4,2,1,60,1,0
38513,271.493212669683,4,2,1,60,1,0
38513,-117.647058823529,4,2,1,60,0,0
38784,258.620689655172,4,2,1,60,1,0
38784,-117.647058823529,4,2,1,60,0,0
39042,-117.647058823529,4,2,1,45,0,0
39171,214.285714285714,4,2,1,45,1,0
39278,271.493212669683,4,2,1,45,1,0
39278,-117.647058823529,4,2,1,45,0,0
39549,284.36018957346,4,2,1,60,1,0
39549,-117.647058823529,4,2,1,60,0,0
39833,263.157894736842,4,2,1,60,1,0
39964,255.31914893617,4,2,1,60,1,0
39964,-117.647058823529,4,2,1,60,0,0
40346,261.723009814613,4,2,1,60,1,0
40869,252.100840336134,4,2,1,60,1,0
40995,235.294117647059,4,2,1,60,1,0
41112,256.410256410256,4,2,1,60,1,0
41112,-117.647058823529,4,2,1,60,0,0
41624,-117.647058823529,4,2,1,60,0,0
41881,252.100840336134,4,2,1,60,1,0
42385,247.933884297521,4,2,1,60,1,0
42632,258.620689655172,4,2,1,60,1,0
42632,-117.647058823529,4,2,1,60,0,0
42890,-117.647058823529,4,2,1,60,0,0
43407,312.5,4,2,1,60,1,0
43563,235.294117647059,4,2,1,60,1,0
43680,266.666666666667,4,2,1,60,1,0
43680,-117.647058823529,4,2,1,60,0,0
44346,248.96265560166,4,2,1,60,1,0
44470,263.157894736842,4,2,1,60,1,0
44996,-117.647058823529,4,2,1,60,0,0
45127,245.901639344262,4,2,1,60,1,0
45127,-117.647058823529,4,2,1,60,0,0
45495,258.620689655172,4,2,1,60,1,0
45496,-117.647058823529,4,2,1,60,0,0
45753,266.666666666667,4,2,1,60,1,0
45753,-117.647058823529,4,2,1,60,0,0
46286,251.046025104603,4,2,1,60,1,0
46286,-117.647058823529,4,2,1,60,0,0
46788,262.008733624454,4,2,1,60,1,0
46788,-117.647058823529,4,2,1,60,0,0
47312,-666.666666666667,4,2,1,60,0,0
47836,258.620689655172,4,2,1,80,1,0
47836,-86.9565217391304,4,2,1,80,0,0
48741,256.410256410256,4,2,1,80,1,0
48741,-86.9565217391304,4,2,1,80,0,0
49638,250,4,2,1,80,1,0
49638,-86.9565217391304,4,2,1,80,0,0
50388,258.620689655172,4,2,1,80,1,0
50388,-86.9565217391304,4,2,1,80,0,0
50905,255.31914893617,4,2,1,80,1,0
50905,-86.9565217391304,4,2,1,80,0,0
51926,258.620689655172,4,2,1,80,1,0
51926,-86.9565217391304,4,2,1,80,0,0
53736,247.933884297521,4,2,1,80,1,0
53983,258.620689655172,4,2,1,80,1,0
53983,-86.9565217391304,4,2,1,80,0,0
54241,271.493212669683,4,2,1,80,1,0
54241,-86.9565217391304,4,2,1,80,0,0
54648,255.31914893617,4,2,1,80,1,0
54648,-86.9565217391304,4,2,1,80,0,0
55158,266.666666666667,4,2,1,80,1,0
55158,-86.9565217391304,4,2,1,80,0,0
55558,258.620689655172,4,2,1,80,1,0
56075,258.620689655172,4,2,1,80,1,0
56075,-86.9565217391304,4,2,1,80,0,0
61118,252.100840336134,4,2,1,80,1,0
61118,-86.9565217391304,4,2,1,80,0,0
61496,258.620689655172,4,2,1,80,1,0
62789,252.100840336134,4,2,1,80,1,0
63041,258.620689655172,4,2,1,80,1,0
63428,245.901639344262,4,2,1,80,1,0
63550,279.06976744186,4,2,1,80,1,0
63829,258.620689655172,4,2,1,80,1,0
63829,-86.9565217391304,4,2,1,80,0,0
64346,266.666666666667,4,2,1,55,1,0
64612,-117.647058823529,4,2,1,65,0,0
65279,258.620689655172,4,2,1,65,1,0
65279,-117.647058823529,4,2,1,65,0,0
65408,258.620689655172,4,2,1,65,1,0
65408,-117.647058823529,4,2,1,65,0,0
67735,245.901639344262,4,2,1,65,1,0
67735,-117.647058823529,4,2,1,65,0,0
67980,270.27027027027,4,2,1,65,1,0
67980,-117.647058823529,4,2,1,65,0,0
68520,255.31914893617,4,2,1,65,1,0
68520,-117.647058823529,4,2,1,65,0,0
69413,258.620689655172,4,2,1,65,1,0
69413,-117.647058823529,4,2,1,65,0,0
69542,258.620689655172,4,2,1,65,1,0
69542,-117.647058823529,4,2,1,65,0,0
70317,255.31914893617,4,2,1,65,1,0
70317,-117.647058823529,4,2,1,65,0,0
70827,258.620689655172,4,2,1,65,1,0
70827,-117.647058823529,4,2,1,65,0,0
71861,247.933884297521,4,2,1,65,1,0
71861,-117.647058823529,4,2,1,65,0,0
72108,271.493212669683,4,2,1,65,1,0
72379,254.237288135593,4,2,1,65,1,0
72633,263.157894736842,4,2,1,65,1,0
72633,-117.647058823529,4,2,1,65,0,0
73554,255.31914893617,4,2,1,65,1,0
73554,-117.647058823529,4,2,1,65,0,0
74064,250,4,2,1,65,1,0
74064,-117.647058823529,4,2,1,65,0,0
74314,258.620689655172,4,2,1,65,1,0
74443,307.692307692308,4,2,1,65,1,0
74443,-117.647058823529,4,2,1,65,0,0
74596,235.294117647059,4,2,1,65,1,0
74713,254.237288135593,4,2,1,65,1,0
74713,-117.647058823529,4,2,1,65,0,0
75475,269.058295964126,4,2,1,65,1,0
75475,-117.647058823529,4,2,1,65,0,0
75878,258.620689655172,4,2,1,65,1,0
75878,-117.647058823529,4,2,1,65,0,0
76783,258.620689655172,4,2,1,65,1,0
76783,-117.647058823529,4,2,1,65,0,0
76976,-117.647058823529,4,2,1,5,0,0
77041,-117.647058823529,4,2,1,65,0,0
77558,245.901639344262,4,2,1,65,1,0
77558,-117.647058823529,4,2,1,65,0,0
77803,271.493212669683,4,2,1,65,1,0
77803,-117.647058823529,4,2,1,65,0,0
78345,250,4,2,1,65,1,0
78345,-117.647058823529,4,2,1,65,0,0
78595,230.769230769231,4,2,1,65,1,0
78825,260.869565217391,4,2,1,80,1,0
79085,255.31914893617,4,2,1,80,1,0
79340,263.157894736842,4,2,1,80,1,0
79603,273.972602739726,4,2,1,80,1,0
79876,254.237288135593,4,2,1,80,1,0
80892,258.620689655172,4,2,1,80,1,0
80892,-86.9565217391304,4,2,1,80,0,0
82831,263.157894736842,4,2,1,80,1,0
82831,-86.9565217391304,4,2,1,80,0,0
83225,258.620689655172,4,2,1,80,1,0
83225,-86.9565217391304,4,2,1,80,0,0
83742,262.008733624454,4,2,1,80,1,0
83742,-86.9565217391304,4,2,1,80,0,0
84790,258.620689655172,4,2,1,80,1,0
85048,258.620689655172,4,2,1,80,1,0
85048,-86.9565217391304,4,2,1,80,0,0
86987,266.666666666667,4,2,1,80,1,0
86987,-86.9565217391304,4,2,1,80,0,0
87520,245.901639344262,4,2,1,80,1,0
88011,258.620689655172,4,2,1,80,1,0
88011,-86.9565217391304,4,2,1,80,0,0
88398,-86.9565217391304,4,2,1,80,0,0
89045,285.714285714286,4,2,1,65,1,0
89330,258.620689655172,4,2,1,65,1,0
89459,258.620689655172,4,2,1,65,1,0
89459,-117.647058823529,4,2,1,65,0,0
90234,258.620689655172,4,2,1,65,1,0
90234,-117.647058823529,4,2,1,65,0,0
91527,-117.647058823529,4,2,1,65,0,0
91785,245.901639344262,4,2,1,65,1,0
91785,-117.647058823529,4,2,1,65,0,0
92030,258.620689655172,4,2,1,65,1,0
92159,-117.647058823529,4,2,1,65,0,0
92288,258.620689655172,4,2,1,65,1,0
92546,-117.647058823529,4,2,1,65,0,0
93581,-117.647058823529,4,2,1,65,0,0
94098,266.666666666667,4,2,1,65,1,0
94231,-117.647058823529,4,2,1,65,0,0
94364,258.620689655172,4,2,1,65,1,0
94364,-117.647058823529,4,2,1,65,0,0
95657,-117.647058823529,4,2,1,65,0,0
96691,-117.647058823529,4,2,1,65,0,0
96950,244.897959183673,4,2,1,65,1,0
97439,285.714285714286,4,2,1,65,1,0
97724,258.620689655172,4,2,1,65,1,0
97724,-117.647058823529,4,2,1,65,0,0
98499,258.620689655172,4,2,1,65,1,0
98757,-117.647058823529,4,2,1,65,0,0
99792,-117.647058823529,4,2,1,65,0,0
101343,263.157894736842,4,2,1,65,1,0
101343,-117.647058823529,4,2,1,65,0,0
101869,-117.647058823529,4,2,1,65,0,0
102395,258.620689655172,4,2,1,65,1,0
102395,-117.647058823529,4,2,1,65,0,0
102912,-117.647058823529,4,2,1,65,0,0
103170,253.164556962025,4,2,1,80,1,0
103676,258.620689655172,4,2,1,80,1,0
105227,254.237288135593,4,2,1,80,1,0
105735,258.620689655172,4,2,1,80,1,0
105735,-90.9090909090909,4,2,1,75,0,0
107028,256.410256410256,4,2,1,75,1,0
107028,-90.9090909090909,4,2,1,75,0,0
107797,258.620689655172,4,2,1,75,1,0
107797,-90.9090909090909,4,2,1,75,0,0
109090,257.510729613734,4,2,1,75,1,0
109090,-90.9090909090909,4,2,1,75,0,0
109862,260.869565217391,4,2,1,100,1,0
109862,-90.9090909090909,4,2,1,75,0,0
111948,258.620689655172,4,2,1,75,1,0
111948,-90.9090909090909,4,2,1,75,0,0
112723,267.857142857143,4,2,1,75,1,0
112723,-90.9090909090909,4,2,1,75,0,0
112990,258.620689655172,4,2,1,75,1,0
113507,-90.9090909090909,4,2,1,75,0,0
114024,-90.9090909090909,4,2,1,75,0,0
116093,-90.9090909090909,4,2,1,75,0,0
117127,256.410256410256,4,2,1,75,1,0
117383,-90.9090909090909,4,2,1,75,0,0
118152,258.620689655172,4,2,1,75,1,0
118152,-90.9090909090909,4,2,1,75,0,0
120996,266.666666666667,4,2,1,75,1,0
121262,258.620689655172,4,2,1,75,1,0
121779,-90.9090909090909,4,2,1,75,0,0
122037,247.933884297521,4,2,1,75,1,0
122037,-90.9090909090909,4,2,1,75,0,0
122284,258.620689655172,4,2,1,75,1,0
122284,-90.9090909090909,4,2,1,75,0,0
125904,254.237288135593,4,2,1,75,1,0
126412,263.157894736842,4,2,1,75,1,0
126412,-90.9090909090909,4,2,1,75,0,0
127201,267.857142857143,4,2,1,75,1,0
127201,-90.9090909090909,4,2,1,75,0,0
127736,258.620689655172,4,2,1,75,1,0
127736,-90.9090909090909,4,2,1,75,0,0
128511,258.620689655172,4,2,1,75,1,0
128511,-90.9090909090909,4,2,1,75,0,0
130579,-90.9090909090909,4,2,1,75,0,0
131097,265.486725663717,4,2,1,75,1,0
131495,258.620689655172,4,2,1,75,1,0
131495,-90.9090909090909,4,2,1,75,0,0
131882,254.237288135593,4,2,1,75,1,0
131882,-90.9090909090909,4,2,1,75,0,0
132136,247.933884297521,4,2,1,75,1,0
132383,241.935483870968,4,2,1,75,1,0
132624,271.493212669683,4,2,1,75,1,0
132624,-90.9090909090909,4,2,1,75,0,0
133166,258.620689655172,4,2,1,75,1,0
133683,258.620689655172,4,2,1,75,1,0
134200,-666.666666666667,4,2,1,75,0,0
134652,-666.666666666667,4,2,1,5,0,0
134717,-86.9565217391304,4,2,1,85,0,1
136786,255.31914893617,4,2,1,85,1,1
136786,-86.9565217391304,4,2,1,85,0,1
138062,258.620689655172,4,2,1,85,1,1
138062,-86.9565217391304,4,2,1,85,0,1
138837,255.31914893617,4,2,1,85,1,1
138837,-86.9565217391304,4,2,1,85,0,1
139347,262.008733624454,4,2,1,85,1,1
139609,-86.9565217391304,4,2,1,85,0,1
139871,262.008733624454,4,2,1,85,1,1
139871,-86.9565217391304,4,2,1,85,0,1
140919,258.620689655172,4,2,1,100,1,1
140919,-86.9565217391304,4,2,1,40,0,1
141177,-86.9565217391304,4,2,1,45,0,1
141436,-86.9565217391304,4,2,1,50,0,1
141694,-86.9565217391304,4,2,1,55,0,1
141953,-86.9565217391304,4,2,1,60,0,1
142212,254.237288135593,4,2,1,65,1,1
142212,-86.9565217391304,4,2,1,65,0,1
142466,-86.9565217391304,4,2,1,70,0,1
142720,-86.9565217391304,4,2,1,75,0,1
142974,258.620689655172,4,2,1,85,1,1
142974,-86.9565217391304,4,2,1,85,0,1
144008,254.237288135593,4,2,1,85,1,1
144008,-86.9565217391304,4,2,1,85,0,1
144262,258.620689655172,4,2,1,85,1,1
144391,-86.9565217391304,4,2,1,85,0,1
145037,263.157894736842,4,2,1,85,1,1
145037,-86.9565217391304,4,2,1,85,0,1
146089,256.410256410256,4,2,1,85,1,1
146089,-86.9565217391304,4,2,1,85,0,1
148140,259.74025974026,4,2,1,80,1,0
148659,257.510729613734,4,2,1,80,1,0
148916,266.666666666667,4,2,1,80,1,0
149182,276.497695852535,4,2,1,80,1,0
149458,258.620689655172,4,2,1,80,1,0
149716,260.869565217391,4,2,1,80,1,0
150498,270.27027027027,4,2,1,80,1,0
150768,277.777777777778,4,2,1,80,1,0
151045,235.294117647059,4,2,1,80,1,0
151280,258.620689655172,4,2,1,80,1,0
151280,-90.9090909090909,4,2,1,85,0,1
152055,255.31914893617,4,2,1,85,1,1
152820,258.620689655172,4,2,1,85,1,1
153207,265.486725663717,4,2,1,85,1,0
154136,258.620689655172,4,2,1,85,1,0
154136,-285.714285714286,4,2,1,80,0,0
154329,-285.714285714286,4,2,1,5,0,0
154394,-181.818181818182,4,2,1,80,0,0
154588,-181.818181818182,4,2,1,5,0,0
154653,245.901639344262,4,2,1,80,1,0
154653,-153.846153846154,4,2,1,80,0,0
154837,-153.846153846154,4,2,1,5,0,0
154898,254.237288135593,4,2,1,80,1,0
154898,-153.846153846154,4,2,1,80,0,0
155406,258.620689655172,4,2,1,80,1,0
155406,-86.9565217391304,4,2,1,80,0,0
157216,254.237288135593,4,2,1,80,1,0
157343,-86.9565217391304,4,2,1,80,0,0
157724,264.31718061674,4,2,1,80,1,0
157724,-86.9565217391304,4,2,1,80,0,0
157988,258.620689655172,4,2,1,80,1,0
157988,-86.9565217391304,4,2,1,80,0,0
158505,258.620689655172,4,2,1,80,1,0
158763,-86.9565217391304,4,2,1,80,0,0
159539,257.510729613734,4,2,1,80,1,0
159539,-86.9565217391304,4,2,1,80,0,0
160440,255.31914893617,4,2,1,80,1,0
160440,-86.9565217391304,4,2,1,80,0,0
161461,258.620689655172,4,2,1,80,1,0
161461,-86.9565217391304,4,2,1,80,0,0
161719,270.27027027027,4,2,1,80,1,0
161854,-86.9565217391304,4,2,1,80,0,0
162124,258.620689655172,4,2,1,80,1,0
162124,-86.9565217391304,4,2,1,80,0,0
162641,258.620689655172,4,2,1,80,1,0
162899,-86.9565217391304,4,2,1,80,0,0
165485,245.901639344262,4,2,1,80,1,0
165730,266.666666666667,4,2,1,80,1,0
165730,-86.9565217391304,4,2,1,80,0,0
166263,256.410256410256,4,2,1,80,1,0
166519,-86.9565217391304,4,2,1,80,0,0
166904,259.74025974026,4,2,1,80,1,0
166904,-86.9565217391304,4,2,1,80,0,0
167813,257.510729613734,4,2,1,80,1,0
167813,-86.9565217391304,4,2,1,80,0,0
168714,255.31914893617,4,2,1,80,1,0
168714,-86.9565217391304,4,2,1,80,0,0
168969,264.31718061674,4,2,1,80,1,0
169101,-86.9565217391304,4,2,1,80,0,0
169497,251.046025104603,4,2,1,80,1,0
169622,-86.9565217391304,4,2,1,80,0,0
169873,258.620689655172,4,2,1,80,1,0
171424,263.157894736842,4,2,1,80,1,0
171424,-86.9565217391304,4,2,1,80,0,0
171687,251.046025104603,4,2,1,35,1,0
171687,-86.9565217391304,4,2,1,35,0,0
171875,301.507537688442,4,2,1,35,1,0
171950,271.493212669683,4,2,1,40,1,0
172221,-222.222222222222,4,2,1,40,0,0
172492,258.620689655172,4,2,1,40,1,0
172879,-222.222222222222,4,2,1,40,0,0
177664,254.237288135593,4,2,1,40,1,0
177791,-222.222222222222,4,2,1,40,0,0
178172,258.620689655172,4,2,1,40,1,0
178172,-222.222222222222,4,2,1,40,0,0
179723,263.157894736842,4,2,1,40,1,0
179723,-222.222222222222,4,2,1,40,0,0
180249,260.869565217391,4,2,1,40,1,0
180249,-117.647058823529,4,2,1,60,0,0
180770,256.410256410256,4,2,1,60,1,0
181154,-117.647058823529,4,2,1,60,0,0
182052,258.620689655172,4,2,1,60,1,0
182052,-117.647058823529,4,2,1,60,0,0
182310,255.31914893617,4,2,1,60,1,0
182310,-117.647058823529,4,2,1,60,0,0
183586,264.31718061674,4,2,1,60,1,0
183718,-117.647058823529,4,2,1,60,0,0
184378,257.510729613734,4,2,1,60,1,0
184378,-117.647058823529,4,2,1,60,0,0
185408,258.620689655172,4,2,1,60,1,0
185408,-117.647058823529,4,2,1,60,0,0
186183,252.100840336134,4,2,1,60,1,0
186183,-117.647058823529,4,2,1,60,0,0
186435,258.620689655172,4,2,1,80,1,0
188245,252.100840336134,4,2,1,80,1,0
188497,258.620689655172,4,2,1,80,1,0
188497,-117.647058823529,4,2,1,80,0,0
189014,266.666666666667,4,2,1,80,1,0
189414,247.933884297521,4,2,1,80,1,0
189414,-117.647058823529,4,2,1,80,0,0
189785,271.493212669683,4,2,1,80,1,0
189785,-117.647058823529,4,2,1,80,0,0
190056,258.620689655172,4,2,1,80,1,0
190314,-117.647058823529,4,2,1,80,0,0
190573,266.666666666667,4,2,1,80,1,0
190573,-117.647058823529,4,2,1,80,0,0
191106,262.008733624454,4,2,1,80,1,0
191499,251.046025104603,4,2,1,80,1,0
191499,-117.647058823529,4,2,1,80,0,0
192134,252.100840336134,4,2,1,80,1,0
192134,-117.647058823529,4,2,1,80,0,0
192638,260.869565217391,4,2,1,80,1,0
192638,-117.647058823529,4,2,1,80,0,0
193551,258.620689655172,4,2,1,80,1,0
193551,-117.647058823529,4,2,1,80,0,0
193938,266.666666666667,4,2,1,80,1,0
193938,-117.647058823529,4,2,1,80,0,0
194204,256.410256410256,4,2,1,80,1,0
194716,258.620689655172,4,2,1,80,1,0
194716,-117.647058823529,4,2,1,80,0,0
195233,260.869565217391,4,2,1,80,1,0
195233,-117.647058823529,4,2,1,80,0,0
195624,263.157894736842,4,2,1,80,1,0
195624,-117.647058823529,4,2,1,80,0,0
196413,255.31914893617,4,2,1,80,1,0
196668,240,4,2,1,80,1,0
196788,258.620689655172,4,2,1,85,1,0
197563,251.046025104603,4,2,1,85,1,0
197814,262.008733624454,4,2,1,85,1,0
198338,256.410256410256,4,2,1,85,1,0
198850,258.620689655172,4,2,1,85,1,0
199625,251.046025104603,4,2,1,85,1,0
199876,263.157894736842,4,2,1,85,1,0
200665,258.620689655172,4,2,1,85,1,0
200923,259.74025974026,4,2,1,85,1,0
203000,254.237288135593,4,2,1,85,1,0
204525,258.620689655172,4,2,1,85,1,0
205042,254.237288135593,4,2,1,85,1,0
205296,247.933884297521,4,2,1,85,1,0
205791,262.008733624454,4,2,1,85,1,0
206053,262.008733624454,4,2,1,85,1,0
207101,-86.9565217391304,4,2,1,85,0,0
207625,-90.9090909090909,4,2,1,85,0,0
208018,258.620689655172,4,2,1,85,1,0
208018,-80,4,2,1,85,0,0
208535,-100,4,2,1,85,0,0
209181,260.869565217391,4,2,1,85,1,0
210224,258.620689655172,4,2,1,85,1,0
211258,269.058295964126,4,2,1,85,1,0
211258,-90.9090909090909,4,2,1,85,0,0
211527,254.237288135593,4,2,1,85,1,0
211527,-90.9090909090909,4,2,1,85,0,0
212289,263.157894736842,4,2,1,85,1,0
212420,-285.714285714286,4,2,1,85,0,0
212683,-181.818181818182,4,2,1,85,0,0
212946,248.96265560166,4,2,1,85,1,0
213319,258.620689655172,4,2,1,75,1,0
213319,-90.9090909090909,4,2,1,75,0,0
214612,260.869565217391,4,2,1,75,1,0
214612,-90.9090909090909,4,2,1,75,0,0
215394,258.620689655172,4,2,1,75,1,0
215394,-90.9090909090909,4,2,1,75,0,0
217204,271.493212669683,4,2,1,75,1,0
217204,-90.9090909090909,4,2,1,75,0,0
217475,256.410256410256,4,2,1,75,1,0
217475,-90.9090909090909,4,2,1,75,0,0
218500,258.620689655172,4,2,1,75,1,0
218500,-90.9090909090909,4,2,1,75,0,0
220310,269.058295964126,4,2,1,75,1,0
220310,-90.9090909090909,4,2,1,75,0,0
220579,251.046025104603,4,2,1,75,1,0
220830,-90.9090909090909,4,2,1,75,0,0
221081,258.620689655172,4,2,1,75,1,0
221081,-90.9090909090909,4,2,1,75,0,0
221598,263.157894736842,4,2,1,75,1,0
221598,-90.9090909090909,4,2,1,75,0,0
222650,255.31914893617,4,2,1,75,1,0
222650,-90.9090909090909,4,2,1,75,0,0
223671,258.620689655172,4,2,1,75,1,0
223671,-90.9090909090909,4,2,1,75,0,0
226774,257.510729613734,4,2,1,75,1,0
227289,-90.9090909090909,4,2,1,75,0,0
227804,260.869565217391,4,2,1,75,1,0
228586,256.410256410256,4,2,1,75,1,0
229098,266.666666666667,4,2,1,75,1,0
229364,258.620689655172,4,2,1,75,1,0
229364,-90.9090909090909,4,2,1,75,0,0
229881,258.620689655172,4,2,1,75,1,0
229881,-90.9090909090909,4,2,1,75,0,0
230656,276.497695852535,4,2,1,75,1,0
230794,254.237288135593,4,2,1,75,1,0
230794,-90.9090909090909,4,2,1,75,0,0
231429,263.157894736842,4,2,1,75,1,0
231429,-90.9090909090909,4,2,1,75,0,0
231823,258.620689655172,4,2,1,75,1,0
231823,-90.9090909090909,4,2,1,75,0,0
231952,258.620689655172,4,2,1,75,1,0
232210,-90.9090909090909,4,2,1,75,0,0
232986,256.410256410256,4,2,1,75,1,0
232986,-90.9090909090909,4,2,1,75,0,0
234011,263.157894736842,4,2,1,75,1,0
234011,-90.9090909090909,4,2,1,75,0,0
234932,258.620689655172,4,2,1,75,1,0
234932,-90.9090909090909,4,2,1,75,0,0
235966,263.157894736842,4,2,1,75,1,0
236097,-90.9090909090909,4,2,1,75,0,0
236623,250,4,2,1,75,1,0
236623,-90.9090909090909,4,2,1,75,0,0
237123,255.31914893617,4,2,1,75,1,0
237633,-90.9090909090909,4,2,1,75,0,0
238144,258.620689655172,4,2,1,75,1,0
238144,-90.9090909090909,4,2,1,75,0,0
238661,271.493212669683,4,2,1,75,1,0
239068,254.237288135593,4,2,1,75,1,0
239068,-90.9090909090909,4,2,1,75,0,0
239449,258.620689655172,4,2,1,75,1,0
239449,-90.9090909090909,4,2,1,75,0,0
240224,258.620689655172,4,2,1,75,1,0
240224,-90.9090909090909,4,2,1,75,0,0
240741,266.666666666667,4,2,1,75,1,0
241141,258.620689655172,4,2,1,75,1,0
241787,262.008733624454,4,2,1,75,1,0
241787,-666.666666666667,4,2,1,75,0,0
242245,-666.666666666667,4,2,1,5,0,0
242311,258.620689655172,4,2,1,85,1,1
242311,-86.9565217391304,4,2,1,85,0,1
243345,255.31914893617,4,2,1,85,1,1
243345,-86.9565217391304,4,2,1,85,0,1
245898,258.620689655172,4,2,1,85,1,1
245898,-86.9565217391304,4,2,1,85,0,1
246415,258.620689655172,4,2,1,85,1,1
246415,-86.9565217391304,4,2,1,85,0,1
248225,275.229357798165,4,2,1,85,1,1
248225,-86.9565217391304,4,2,1,85,0,1
248500,257.510729613734,4,2,1,40,1,1
248500,-86.9565217391304,4,2,1,40,0,1
248757,-86.9565217391304,4,2,1,45,0,1
249015,-86.9565217391304,4,2,1,50,0,1
249272,-86.9565217391304,4,2,1,55,0,1
249530,-86.9565217391304,4,2,1,60,0,1
249787,256.410256410256,4,2,1,65,1,1
249787,-66.6666666666667,4,2,1,65,0,1
250043,-66.6666666666667,4,2,1,70,0,1
250299,263.157894736842,4,2,1,75,1,1
250299,-86.9565217391304,4,2,1,75,0,1
250562,256.410256410256,4,2,1,85,1,1
250562,-83.3333333333333,4,2,1,85,0,1
251587,263.157894736842,4,2,1,85,1,1
251587,-83.3333333333333,4,2,1,85,0,1
252639,258.620689655172,4,2,1,85,1,1
252639,-83.3333333333333,4,2,1,85,0,1
254707,270.27027027027,4,2,1,80,1,0
254977,258.620689655172,4,2,1,80,1,0
255235,247.933884297521,4,2,1,80,1,0
255730,258.620689655172,4,2,1,80,1,0
255988,266.666666666667,4,2,1,80,1,0
256254,243.90243902439,4,2,1,80,1,0
256497,258.620689655172,4,2,1,80,1,0
256755,265.486725663717,4,2,1,80,1,0
257285,258.620689655172,4,2,1,80,1,0
257802,267.857142857143,4,2,1,80,1,0
258069,255.31914893617,4,2,1,80,1,0
258834,256.410256410256,4,2,1,85,1,1
259859,258.620689655172,4,2,1,85,1,1
260376,251.046025104603,4,2,1,85,1,1
260376,-83.3333333333333,4,2,1,85,0,1
260752,267.857142857143,4,2,1,85,1,0
261689,270.27027027027,4,2,1,80,1,0
261689,-285.714285714286,4,2,1,80,0,0
261891,-285.714285714286,4,2,1,5,0,0
261959,-181.818181818182,4,2,1,80,0,0
262164,-181.818181818182,4,2,1,5,0,0
262229,258.620689655172,4,2,1,80,1,0
262229,-66.6666666666667,4,2,1,80,0,0
262422,-66.6666666666667,4,2,1,5,0,0
262487,267.857142857143,4,2,1,80,1,0
263022,250,4,2,1,80,1,0
263022,-86.9565217391304,4,2,1,80,0,0
263772,262.008733624454,4,2,1,80,1,0
263772,-86.9565217391304,4,2,1,80,0,0
264820,240.963855421687,4,2,1,80,1,0
264820,-86.9565217391304,4,2,1,80,0,0
265060,264.31718061674,4,2,1,80,1,0
265852,255.31914893617,4,2,1,80,1,0
266234,-86.9565217391304,4,2,1,80,0,0
266362,258.620689655172,4,2,1,80,1,0
266362,-86.9565217391304,4,2,1,80,0,0
266620,-86.9565217391304,4,2,1,60,0,0
267137,264.31718061674,4,2,1,80,1,0
267137,-142.857142857143,4,2,1,60,0,0
267665,256.410256410256,4,2,1,80,1,0
267665,-83.3333333333333,4,2,1,85,0,1
268947,254.237288135593,4,2,1,85,1,1
268947,-83.3333333333333,4,2,1,85,0,1
269709,258.620689655172,4,2,1,85,1,1
270226,252.100840336134,4,2,1,85,1,1
270226,-83.3333333333333,4,2,1,85,0,1
270982,263.157894736842,4,2,1,85,1,1
270982,-83.3333333333333,4,2,1,85,0,1
271245,260.869565217391,4,2,1,85,1,1
271245,-83.3333333333333,4,2,1,85,0,1
272288,258.620689655172,4,2,1,85,1,1
272288,-83.3333333333333,4,2,1,85,0,1
273322,-100,4,2,1,40,0,1
273581,-100,4,2,1,45,0,1
273839,256.410256410256,4,2,1,50,1,1
273839,-100,4,2,1,50,0,1
274095,-100,4,2,1,55,0,1
274351,-100,4,2,1,60,0,1
274608,-100,4,2,1,65,0,1
274864,260.869565217391,4,2,1,70,1,1
274864,-100,4,2,1,70,0,1
275124,-100,4,2,1,75,0,1
275385,258.620689655172,4,2,1,85,1,1
275385,-83.3333333333333,4,2,1,85,0,1
277453,259.74025974026,4,2,1,85,1,1
277453,-83.3333333333333,4,2,1,85,0,1
279011,254.237288135593,4,2,1,85,1,0
279011,-83.3333333333333,4,2,1,85,0,0
279519,260.869565217391,4,2,1,80,1,0
279779,266.666666666667,4,2,1,80,1,0
280045,256.410256410256,4,2,1,80,1,0
280557,269.058295964126,4,2,1,80,1,0
280826,258.620689655172,4,2,1,80,1,0
281084,252.100840336134,4,2,1,80,1,0
281588,269.058295964126,4,2,1,80,1,0
282126,264.31718061674,4,2,1,80,1,0
282654,270.002700027,4,2,1,80,1,0
283059,235.294117647059,4,2,1,80,1,0
283176,269.058295964126,4,2,1,80,1,0
283445,255.31914893617,4,2,1,80,1,0
283700,258.620689655172,4,2,1,85,1,1
284217,255.31914893617,4,2,1,85,1,1
284727,248.96265560166,4,2,1,85,1,1
285224,255.31914893617,4,2,1,85,1,1
285606,265.486725663717,4,2,1,85,1,0
286535,294.117647058824,4,2,1,80,1,0
287123,413.793103448276,4,2,1,80,1,0
287226,266.666666666667,4,2,1,80,1,0
287292,235.294117647059,4,2,1,80,1,0
287409,258.620689655172,4,2,1,80,1,0
287926,310.880829015544,4,2,1,80,1,0
288547,260.869565217391,4,2,1,80,1,0
289329,258.620689655172,4,2,1,80,1,0
289975,-90.9090909090909,4,2,1,85,0,0
291139,245.901639344262,4,2,1,85,1,0
291139,-90.9090909090909,4,2,1,85,0,0
291384,263.157894736842,4,2,1,85,1,0
291384,-90.9090909090909,4,2,1,85,0,0
292436,258.620689655172,4,2,1,85,1,0
292436,-90.9090909090909,4,2,1,85,0,0
293470,245.901639344262,4,2,1,85,1,0
293470,-90.9090909090909,4,2,1,85,0,0
293715,279.06976744186,4,2,1,85,1,0
293715,-90.9090909090909,4,2,1,85,0,0
294552,297.029702970297,4,2,1,85,1,0
294552,-90.9090909090909,4,2,1,85,0,0
294750,330.578512396694,4,2,1,85,1,0
294970,255.31914893617,4,2,1,85,1,0
295225,316.622691292876,4,2,1,85,1,0
295541,304.568527918782,4,2,1,85,1,0
295541,-90.9090909090909,4,2,1,70,0,0
295744,340.909090909091,4,2,1,70,1,0
295857,348.837209302326,4,2,1,70,1,0
295973,-90.9090909090909,4,2,1,70,0,0
296205,375,4,2,1,70,1,0
296330,-90.9090909090909,4,2,1,70,0,0
296455,408.163265306122,4,2,1,70,1,0
296727,645.161290322581,4,2,1,70,1,0
296727,-90.9090909090909,4,2,1,70,0,0
297049,689.655172413793,4,2,1,70,1,0
297393,789.473684210526,4,2,1,70,1,0
297787,807.319698600646,4,2,1,70,1,0
300007,-100,4,2,1,45,0,0
300208,-100,4,2,1,40,0,0
300410,-100,4,2,1,35,0,0
300612,-100,4,2,1,30,0,0
300814,-100,4,2,1,25,0,0
301016,585.365853658537,4,2,1,25,1,0
301601,645.161290322581,4,2,1,75,1,0
301762,434.782608695652,4,2,1,75,1,0
302631,-100,4,2,1,35,0,0

[Colours]
Combo1 : 255,88,9
Combo2 : 0,204,228
Combo3 : 0,223,168
Combo4 : 255,128,0

[HitObjects]
0,16,1281,6,0,L|6:67,1,45.5
1,155,1782,6,0,B|65:123|128:172|128:172|246:146|177:-19|34:98|128:172|128:172|194:231|271:196,1,573.299982504273,2|0,0:0|0:0,0:0:0:0:
373,128,3835,6,0,B|360:80|398:40|466:39|498:81|501:166|439:229,1,300.300009164429,2|0,0:0|0:0,0:0:0:0:
391,339,4906,6,0,B|378:260|295:240|295:240|248:363|115:329,1,368.549988752747,2|0,0:0|0:0,0:0:0:0:
124,174,6199,6,0,B|82:232|142:298|233:306|291:158|162:161|211:52|211:52|225:82|242:98,1,409.499987503052,2|0,0:0|0:0,0:0:0:0:
313,50,7697,5,0,0:0:0:0:
390,100,7857,5,0,0:0:0:0:
478,29,8176,6,0,P|469:93|467:158,1,127.4
212,159,10393,6,0,B|201:148|188:117|209:88|206:55|206:55|268:68|283:114|277:143|277:143|282:126|307:104|343:114|372:102|372:102|381:164|340:193|311:197|311:197|328:197|358:214|359:250|380:275|380:275|322:302|283:273|271:246|271:246|275:264|267:297|233:308|216:337|216:337|172:290|189:244|211:223|211:223|194:233|160:236|138:207|106:200|106:200|128:151|177:153,1,1135.67999306836,2|0,0:0|0:0,0:0:0:0:
109,63,13828,1,0,0:0:0:0:
109,63,13953,1,0,0:0:0:0:
48,112,14078,2,0,B|24:203|114:229|114:229|118:221|118:221|114:229|114:229|208:254|195:381|67:394|50:302,1,445.899986392212,2|0,0:0|0:0,0:0:0:0:
50,304,17956,6,0,P|90:267|159:277,1,127.4,2|0,0:0|0:0,0:0:0:0:
158,276,19880,5,0,0:0:0:0:
272,384,20060,6,0,P|276:299|292:198,1,182
285,214,22008,5,0,0:0:0:0:
290,203,22072,1,0,0:0:0:0:
290,203,22540,5,0,0:0:0:0:
195,161,22687,6,0,P|192:142|189:121,1,40.9499987503052
316,93,23105,2,0,P|318:74|322:53,1,40.9499987503052
219,8,23692,1,0,0:0:0:0:
256,192,25192,5,0,0:0:0:0:
256,192,25321,12,0,30508,0:0:0:0:
133,96,31283,6,0,P|141:133|144:172,1,77.3500014753342,10|0,0:0|0:0,0:0:0:0:
246,260,31541,1,0,0:0:0:0:
246,260,31670,2,0,P|249:221|257:183,1,77.3500014753342,10|0,0:0|0:0,0:0:0:0:
311,60,31929,1,0,0:0:0:0:
390,200,32058,1,10,0:0:0:0:
399,208,32576,5,0,0:0:0:0:
399,208,32637,1,0,0:0:0:0:
399,208,32698,1,0,0:0:0:0:
454,139,32821,2,0,P|419:121|381:122,1,77.3500014753342,8|0,0:0|0:0,0:0:0:0:
345,278,33079,2,0,P|384:296|429:291,1,77.3500014753342,10|0,2:3|0:0,0:0:0:0:
297,186,33338,6,0,P|301:249|307:350,1,154.700002950668,0|0,3:0|0:0,0:0:0:0:
157,382,33719,2,0,P|108:352|144:267,1,154.700002950668,0|0,3:0|0:0,0:0:0:0:
133,271,34037,1,0,3:0:0:0:
133,271,34100,1,0,3:0:0:0:
21,216,34222,1,0,3:0:0:0:
16,220,34512,5,0,3:0:0:0:
177,131,34641,1,0,3:0:0:0:
185,135,34905,2,0,L|229:144,2,38.6750007376671
105,80,35134,5,0,0:0:0:0:
142,272,35302,1,0,0:0:0:0:
0,111,35419,6,0,P|6:147|10:193,1,77.3500014753342,10|0,2:3|0:0,0:0:0:0:
146,277,35715,1,0,0:0:0:0:
146,277,35832,2,0,P|148:238|161:171,1,77.3500014753342,10|0,0:0|0:0,0:0:0:0:
67,331,36092,1,0,0:0:0:0:
262,280,36221,1,10,0:3:0:0:
262,280,36723,6,0,P|305:289|366:314,1,77.3500014753342,2|0,0:0|0:0,0:0:0:0:
438,184,36981,2,0,P|401:196|363:203,1,77.3500014753342,2|0,0:0|0:0,0:0:0:0:
310,99,37226,1,0,3:0:0:0:
310,99,37288,1,0,3:0:0:0:
310,99,37349,1,0,3:0:0:0:
411,9,37478,6,0,P|400:49|397:98,1,77.3500014753342
226,167,37744,2,0,P|221:128|212:91,1,77.3500014753342
379,228,37996,1,8,0:0:0:0:
382,238,38254,5,2,0:0:0:0:
310,99,38383,1,2,0:0:0:0:
225,255,38513,2,0,P|174:253|148:238,1,77.3500014753342,8|0,0:3|0:0,0:0:0:0:
64,90,38784,2,0,P|115:92|141:107,1,77.3500014753342,2|0,0:0|0:0,0:0:0:0:
65,290,39042,6,0,P|62:270|57:252,2,38.6750007376671,0|0|0,3:0|3:0|3:0,3:0:0:0:
211,138,39278,2,0,P|206:160|203:184,2,38.6750007376671,0|0|0,3:0|3:0|3:0,3:0:0:0:
64,90,39549,6,0,P|60:51|51:13,1,77.3500014753342,10|0,2:3|0:0,0:0:0:0:
215,142,39833,1,0,0:0:0:0:
215,142,39964,2,0,P|207:177|202:221,1,77.3500014753342,10|0,0:0|0:0,0:0:0:0:
141,49,40219,1,0,0:0:0:0:
60,238,40346,1,8,0:0:0:0:
68,246,40869,5,0,0:0:0:0:
68,246,40932,1,0,0:0:0:0:
68,246,40995,1,0,0:0:0:0:
47,333,41112,2,0,P|90:336|129:314,1,77.3500014753342,8|0,2:3|0:0,0:0:0:0:
88,159,41368,2,0,P|45:156|6:178,1,77.3500014753342,2|0,0:0|0:0,0:0:0:0:
216,275,41624,6,0,L|271:281,2,38.6750007376671,0|0|0,3:0|3:0|3:0,3:0:0:0:
68,246,41881,1,2,0:0:0:0:
200,163,42007,1,0,0:0:0:0:
51,254,42133,1,8,2:3:0:0:
223,283,42259,1,0,0:0:0:0:
96,167,42385,1,0,3:0:0:0:
96,167,42446,1,0,3:0:0:0:
96,167,42508,1,0,3:0:0:0:
298,120,42632,2,0,P|288:163|284:204,1,77.3500014753342
225,73,42890,6,0,P|279:35|374:65,1,154.700002950668,2|8,0:0|0:3,0:0:0:0:
361,52,43213,1,0,0:0:0:0:
361,52,43278,1,0,0:0:0:0:
498,161,43407,1,0,0:0:0:0:
458,0,43563,5,0,0:0:0:0:
341,228,43680,2,0,P|296:241|245:235,1,77.3500014753342,10|0,2:3|0:0,0:0:0:0:
421,129,43946,1,0,0:0:0:0:
421,129,44080,2,0,P|466:125|509:138,1,77.3500014753342,10|0,0:0|0:0,0:0:0:0:
399,303,44346,1,0,0:0:0:0:
287,146,44470,1,10,2:3:0:0:
301,158,44996,5,0,3:0:0:0:
301,158,45062,1,0,3:0:0:0:
301,158,45127,1,0,3:0:0:0:
301,158,45188,1,0,3:0:0:0:
301,158,45249,2,0,P|291:107|272:55,1,77.3500014753342,2|0,0:0|0:0,0:0:0:0:
407,210,45496,2,0,P|417:159|436:107,1,77.3500014753342,2|0,0:0|0:0,0:0:0:0:
290,276,45753,6,0,P|242:289|207:284,1,77.3500014753342,8|0,0:3|0:0,0:0:0:0:
81,192,46019,2,0,P|119:190|155:202,1,77.3500014753342,8|0,0:3|0:0,0:0:0:0:
192,328,46286,2,0,L|179:145,1,154.700002950668,8|0,0:0|0:0,0:0:0:0:
333,54,46788,6,0,P|317:89|311:127,1,77.3500014753342,8|0,0:3|0:0,0:0:0:0:
232,220,47050,2,0,P|225:181|210:146,1,77.3500014753342,8|0,0:3|0:0,0:0:0:0:
95,25,47312,6,0,L|108:68,1,40.9499987503052,10|0,0:0|0:0,0:0:0:0:
40,110,47836,6,0,B|141:55|149:163|256:91,1,209.300003992081,4|8,0:0|0:0,0:0:0:0:
313,20,48223,2,0,P|340:70|344:129,1,104.65000199604,2|0,0:0|0:0,0:0:0:0:
292,310,48482,1,0,0:0:0:0:
508,237,48611,1,8,0:0:0:0:
394,366,48741,6,0,P|396:261|430:163,1,209.300003992081,2|0,0:0|0:0,0:0:0:0:
309,54,49125,2,0,P|257:29|212:34,1,104.65000199604,10|0,0:0|0:0,0:0:0:0:
185,208,49382,2,0,P|230:231|282:227,1,104.65000199604,2|0,0:0|0:0,0:0:0:0:
248,129,49638,1,8,0:0:0:0:
200,322,49763,1,0,0:0:0:0:
50,140,49888,6,0,P|68:192|82:265,1,104.65000199604,2|0,0:0|0:0,0:0:0:0:
137,101,50138,1,8,0:0:0:0:
200,322,50263,2,0,P|211:270|228:221,1,104.65000199604,2|0,0:0|0:0,0:0:0:0:
108,346,50517,1,0,0:0:0:0:
30,138,50646,2,0,P|48:190|62:263,1,104.65000199604,8|0,0:0|0:0,0:0:0:0:
131,82,50905,1,2,0:0:0:0:
212,339,51032,2,0,P|223:287|240:238,2,104.65000199604,0|8|0,0:0|0:0|0:0,0:0:0:0:
296,135,51415,5,8,0:0:0:0:
417,346,51543,1,10,0:0:0:0:
400,83,51670,5,8,0:0:0:0:
317,309,51798,1,2,0:0:0:0:
165,160,51926,6,0,P|130:99|195:-10,1,209.300003992081,4|8,0:0|0:0,0:0:0:0:
296,135,52313,2,0,P|288:184|290:240,1,104.65000199604,2|0,0:0|0:0,0:0:0:0:
218,84,52572,1,0,0:0:0:0:
377,217,52701,1,8,0:0:0:0:
200,316,52831,6,0,B|105:305|105:305|83:313|83:313|-6:303,1,209.300003992081,2|0,0:0|0:0,0:0:0:0:
34,126,53219,2,0,P|46:177|50:232,1,104.65000199604,10|0,0:0|0:0,0:0:0:0:
187,12,53477,2,0,P|175:63|171:118,1,104.65000199604,2|0,0:0|0:0,0:0:0:0:
70,26,53736,1,8,0:0:0:0:
285,94,53859,1,0,0:0:0:0:
156,240,53983,6,0,P|106:222|47:216,1,104.65000199604,2|0,0:0|0:0,0:0:0:0:
171,115,54241,1,8,0:0:0:0:
263,308,54376,2,0,P|312:290|372:284,1,104.65000199604,2|0,0:0|0:0,0:0:0:0:
248,183,54648,1,0,0:0:0:0:
118,366,54775,2,0,P|110:315|95:258,1,104.65000199604,8|0,0:0|0:0,0:0:0:0:
128,122,55030,1,2,0:0:0:0:
263,308,55158,2,0,P|271:257|286:200,2,104.65000199604,0|8|0,0:0|0:0|0:0,0:0:0:0:
236,102,55558,5,8,0:0:0:0:
452,202,55687,1,10,0:0:0:0:
187,200,55816,5,8,0:0:0:0:
410,108,55945,1,2,0:0:0:0:
137,52,56075,6,0,P|146:145|150:282,1,209.300003992081,4|8,0:0|0:0,0:0:0:0:
315,357,56462,2,0,P|366:372|418:363,1,104.65000199604,2|0,0:0|0:0,0:0:0:0:
165,366,56721,1,0,0:0:0:0:
367,257,56850,1,8,0:0:0:0:
296,86,56980,6,0,P|230:120|234:260,1,209.300003992081,2|0,0:0|0:0,0:0:0:0:
402,105,57368,2,0,P|398:61|362:10,1,104.65000199604,10|0,0:0|0:0,0:0:0:0:
321,202,57626,2,0,P|376:209|436:224,1,104.65000199604,2|0,0:0|0:0,0:0:0:0:
296,86,57885,1,8,0:0:0:0:
222,260,58014,1,0,0:0:0:0:
52,42,58143,6,0,P|68:97|75:157,1,104.65000199604,2|0,0:0|0:0,0:0:0:0:
157,0,58402,1,8,0:0:0:0:
221,259,58531,2,0,P|228:207|244:158,1,104.65000199604,2|0,0:0|0:0,0:0:0:0:
123,293,58790,1,0,0:0:0:0:
219,63,58919,2,0,P|284:65|327:101,1,104.65000199604,8|0,0:0|0:0,0:0:0:0:
301,346,59178,1,2,0:0:0:0:
205,155,59307,2,0,P|140:157|97:193,2,104.65000199604,0|8|0,0:0|0:0|0:0,0:0:0:0:
412,183,59695,5,8,0:0:0:0:
178,280,59824,1,8,0:0:0:0:
436,305,59954,5,8,0:0:0:0:
205,155,60083,1,2,0:0:0:0:
365,20,60212,6,0,P|347:68|336:138,1,104.65000199604,4|0,0:0|0:0,0:0:0:0:
292,320,60471,2,0,P|282:268|264:219,1,104.65000199604,8|0,0:0|0:0,0:0:0:0:
126,93,60730,2,0,P|165:60|225:55,1,104.65000199604,2|0,0:0|0:0,0:0:0:0:
337,120,60988,1,8,0:0:0:0:
199,290,61118,6,0,B|111:233|89:329|-8:277,1,209.300003992081,2|0,0:0|0:0,0:0:0:0:
152,181,61496,1,8,0:0:0:0:
152,181,61560,1,0,0:0:0:0:
152,181,61625,1,0,0:0:0:0:
132,372,61754,1,0,0:0:0:0:
45,114,61883,1,0,0:0:0:0:
14,357,62013,1,8,0:0:0:0:
6,366,62271,5,8,0:0:0:0:
247,292,62401,1,8,0:0:0:0:
263,302,62659,5,8,0:0:0:0:
22,228,62789,1,8,0:0:0:0:
8,236,63041,5,8,0:0:0:0:
249,162,63170,1,8,0:0:0:0:
261,171,63428,5,8,0:0:0:0:
20,97,63550,1,8,0:0:0:0:
248,33,63829,5,0,0:0:0:0:
248,33,63893,1,0,0:0:0:0:
248,33,63958,2,0,L|304:25,1,52.3250009980202
191,109,64087,2,0,L|139:101,1,52.3250009980202,8|0,0:0|0:0,0:0:0:0:
261,171,64216,2,0,L|312:163,1,52.3250009980202
211,248,64346,5,4,0:0:0:0:
211,248,64612,6,0,P|261:300|237:382,1,154.700002950668,8|0,0:0|0:0,0:0:0:0:
89,333,65012,2,0,P|130:326|174:322,1,77.3500014753342,0|8,0:0|0:0,0:0:0:0:
144,184,65279,2,0,P|65:174|-10:163,1,154.700002950668,2|0,0:0|0:0,0:0:0:0:
171,60,65666,1,8,0:0:0:0:
171,60,65795,2,0,P|121:112|152:190,1,154.700002950668,2|0,0:0|0:0,0:0:0:0:
244,250,66183,2,0,P|247:211|259:174,1,77.3500014753342,10|0,0:0|0:0,0:0:0:0:
392,103,66442,6,0,P|431:102|468:118,1,77.3500014753342,2|0,0:0|0:0,0:0:0:0:
444,235,66701,2,0,P|404:235|368:220,1,77.3500014753342,8|0,0:0|0:0,0:0:0:0:
243,99,66959,2,0,P|254:135|258:174,1,77.3500014753342,2|0,0:0|0:0,0:0:0:0:
90,80,67218,1,8,0:0:0:0:
90,80,67347,6,0,P|83:146|87:238,1,154.700002950668,2|0,0:0|0:0,0:0:0:0:
224,372,67735,2,0,P|231:306|227:214,1,154.700002950668,8|2,0:0|0:0,0:0:0:0:
308,143,68115,1,0,0:0:0:0:
308,143,68250,2,0,P|351:132|392:138,1,77.3500014753342,8|0,0:0|0:0,0:0:0:0:
253,58,68520,1,2,0:0:0:0:
253,58,68775,6,0,P|219:20|112:33,1,154.700002950668,8|2,0:0|0:0,0:0:0:0:
10,164,69158,2,0,P|61:162|88:148,1,77.3500014753342,0|8,0:0|0:0,0:0:0:0:
15,1,69413,6,0,P|28:37|36:84,2,77.3500014753342,2|0|0,0:0|0:0|0:0,0:0:0:0:
171,167,69800,2,0,P|178:129|191:92,2,77.3500014753342,10|0|0,0:0|0:0|0:0,0:0:0:0:
1,314,70188,1,2,0:0:0:0:
111,271,70317,1,8,0:0:0:0:
32,213,70444,1,0,0:0:0:0:
82,374,70572,6,0,P|139:355|235:338,1,154.700002950668,2|8,0:0|0:0,0:0:0:0:
371,286,70956,1,0,0:0:0:0:
371,286,71085,2,0,P|327:281|289:273,1,77.3500014753342,2|0,0:0|0:0,0:0:0:0:
172,208,71344,1,8,0:0:0:0:
172,208,71473,6,0,P|126:144|154:78,1,154.700002950668,2|0,0:0|0:0,0:0:0:0:
264,0,71861,2,0,P|269:73|273:156,1,154.700002950668,8|0,0:0|0:0,0:0:0:0:
283,256,72243,1,0,0:0:0:0:
475,128,72379,1,10,0:0:0:0:
501,345,72506,1,8,0:0:0:0:
365,120,72633,5,2,0:0:0:0:
365,120,72896,6,0,B|324:88|283:101|290:110|252:127|215:102,1,154.700002950668,8|0,0:0|0:0,0:0:0:0:
68,39,73290,2,0,P|104:20|143:22,1,77.3500014753342,0|8,0:0|0:0,0:0:0:0:
137,191,73554,2,0,P|126:146|109:100,1,77.3500014753342,2|0,0:0|0:0,0:0:0:0:
239,29,73809,2,0,P|226:65|217:103,1,77.3500014753342,0|8,0:0|0:0,0:0:0:0:
116,268,74064,2,0,P|155:221|249:238,1,154.700002950668,2|0,0:0|0:0,0:0:0:0:
379,354,74443,2,0,P|333:349|302:331,1,77.3500014753342,8|2,0:0|0:0,0:0:0:0:
387,190,74713,6,0,P|373:232|369:278,1,77.3500014753342,2|0,0:0|0:0,0:0:0:0:
256,139,74968,2,0,P|268:176|274:214,1,77.3500014753342,8|0,0:0|0:0,0:0:0:0:
308,58,75221,2,0,P|234:44|177:93,1,154.700002950668,0|8,0:0|0:0,0:0:0:0:
46,190,75609,6,0,P|43:107|34:28,1,154.700002950668,2|0,0:0|0:0,0:0:0:0:
183,95,76007,1,8,0:0:0:0:
183,95,76136,2,0,P|174:171|172:249,1,154.700002950668,2|0,0:0|0:0,0:0:0:0:
151,363,76524,1,8,0:0:0:0:
151,363,76783,6,0,B|197:324|261:344,1,116.025002213001,2|0,0:0|0:0,0:0:0:0:
298,362,77041,2,0,P|298:318|292:259,1,77.3500014753342,8|0,0:0|0:0,0:0:0:0:
447,129,77300,2,0,P|444:167|444:206,1,77.3500014753342,2|0,0:0|0:0,0:0:0:0:
314,76,77558,1,8,0:0:0:0:
412,293,77680,2,0,P|446:296|496:282,1,77.3500014753342,2|0,0:0|0:0,0:0:0:0:
413,50,77938,5,8,0:0:0:0:
312,218,78074,2,0,P|278:221|228:207,1,77.3500014753342,2|8,0:0|0:0,0:0:0:0:
102,61,78345,1,2,0:0:0:0:
288,129,78470,2,0,L|335:124,2,38.6750007376671,0|0|8,3:0|3:0|0:0,0:0:0:0:
95,210,78710,1,0,0:0:0:0:
223,59,78825,5,2,0:0:0:0:
273,286,78955,1,2,0:0:0:0:
62,208,79085,1,12,0:0:0:0:
62,208,79212,1,0,0:0:0:0:
311,172,79340,5,2,0:0:0:0:
141,321,79471,1,2,0:0:0:0:
99,91,79603,1,12,0:0:0:0:
99,91,79739,1,0,0:0:0:0:
318,346,79875,5,2,0:0:0:0:
59,251,80003,1,2,0:0:0:0:
286,171,80130,1,8,0:0:0:0:
33,348,80257,1,0,0:0:0:0:
269,261,80384,5,8,0:0:0:0:
0,169,80511,1,0,0:0:0:0:
152,362,80638,5,8,0:0:0:0:
152,362,80765,1,0,0:0:0:0:
110,22,80892,6,0,P|142:120|148:231,1,209.300003992081,4|8,0:0|0:0,0:0:0:0:
273,366,81279,2,0,P|275:311|292:262,1,104.65000199604,2|0,0:0|0:0,0:0:0:0:
397,156,81538,1,0,0:0:0:0:
473,322,81667,1,8,0:0:0:0:
505,126,81797,6,0,P|486:81|323:78,1,209.300003992081,2|0,0:0|0:0,0:0:0:0:
189,124,82185,2,0,P|213:178|220:238,1,104.65000199604,8|0,0:0|0:0,0:0:0:0:
328,348,82443,2,0,P|336:296|358:249,1,104.65000199604,2|0,0:0|0:0,0:0:0:0:
318,98,82702,1,8,0:0:0:0:
216,343,82831,1,0,0:0:0:0:
83,148,82962,6,0,P|25:159|-41:171,1,104.65000199604,2|0,0:0|0:0,0:0:0:0:
110,273,83225,1,8,0:0:0:0:
189,124,83354,2,0,P|177:66|166:0,1,104.65000199604,2|0,0:0|0:0,0:0:0:0:
83,148,83612,1,0,0:0:0:0:
232,227,83742,2,0,P|289:215|356:204,1,104.65000199604,10|0,0:0|0:0,0:0:0:0:
189,124,84004,1,0,0:0:0:0:
110,273,84135,2,0,P|121:330|133:397,2,104.65000199604,2|8|0,0:0|0:0|0:0,0:0:0:0:
91,89,84528,5,8,0:0:0:0:
208,318,84659,1,8,0:0:0:0:
173,29,84791,5,8,0:0:0:0:
110,273,84919,1,2,0:0:0:0:
270,75,85048,6,0,B|372:22|377:118|477:60,1,209.300003992081,4|8,0:0|0:0,0:0:0:0:
475,196,85435,2,0,P|456:239|445:308,1,104.65000199604,2|0,0:0|0:0,0:0:0:0:
274,182,85694,1,0,0:0:0:0:
316,356,85823,1,8,0:0:0:0:
364,147,85953,6,0,P|296:76|204:111,1,209.300003992081,2|0,0:0|0:0,0:0:0:0:
37,196,86341,2,0,P|46:251|46:300,1,104.65000199604,8|0,0:0|0:0,0:0:0:0:
203,111,86599,2,0,P|203:58|212:7,1,104.65000199604,2|0,0:0|0:0,0:0:0:0:
34,63,86858,1,8,0:0:0:0:
184,241,86987,6,0,B|318:229|239:317|386:303,1,209.300003992081,2|0,0:0|0:0,0:0:0:0:
372,304,87320,1,0,3:0:0:0:
372,304,87387,1,0,3:0:0:0:
471,103,87520,1,0,3:0:0:0:
488,356,87642,1,0,3:0:0:0:
370,153,87765,1,0,3:0:0:0:
275,356,87888,1,0,3:0:0:0:
478,224,88011,6,0,P|480:167|494:112,1,104.65000199604,2|0,0:0|0:0,0:0:0:0:
372,304,88269,1,0,0:0:0:0:
248,76,88398,2,0,P|264:125|270:177,1,104.65000199604,8|0,0:0|0:0,0:0:0:0:
328,11,88657,1,8,0:0:0:0:
154,152,88786,1,8,0:0:0:0:
364,222,88916,1,10,0:0:0:0:
248,76,89045,1,2,0:0:0:0:
248,76,89459,6,0,P|197:27|106:42,1,154.700002950668,4|2,0:0|0:0,0:0:0:0:
11,137,89846,2,0,P|53:135|106:106,1,77.3500014753342,0|8,0:0|0:0,0:0:0:0:
30,42,90105,2,0,P|46:117|59:213,1,154.700002950668,2|0,0:0|0:0,0:0:0:0:
136,332,90492,1,8,0:0:0:0:
136,332,90621,2,0,P|146:255|163:179,1,154.700002950668,2|0,0:0|0:0,0:0:0:0:
257,97,91009,2,0,P|270:146|273:186,1,77.3500014753342,8|0,0:0|0:0,0:0:0:0:
261,317,91268,6,0,P|304:320|340:300,1,77.3500014753342,2|0,0:0|0:0,0:0:0:0:
467,233,91527,2,0,P|432:217|393:221,1,77.3500014753342,8|0,0:0|0:0,0:0:0:0:
412,384,91785,2,0,P|421:342|433:306,1,77.3500014753342,2|0,0:0|0:0,0:0:0:0:
279,228,92030,1,8,0:0:0:0:
279,228,92159,6,0,P|268:150|249:70,1,154.700002950668,2|0,0:0|0:0,0:0:0:0:
401,13,92546,2,0,P|471:7|525:90,1,154.700002950668,8|0,0:0|0:0,0:0:0:0:
423,179,92934,1,0,0:0:0:0:
423,179,93063,2,0,P|430:124|446:80,1,77.3500014753342,10|0,0:0|0:0,0:0:0:0:
311,35,93322,1,2,0:0:0:0:
311,35,93581,6,0,B|246:26|246:26|224:33|224:33|155:25,1,154.700002950668,8|0,0:0|0:0,0:0:0:0:
21,105,93969,2,0,P|61:84|97:87,1,77.3500014753342,2|8,0:0|0:0,0:0:0:0:
91,248,94231,2,0,P|82:201|69:161,1,77.3500014753342,2|0,0:0|0:0,0:0:0:0:
215,116,94493,1,0,0:0:0:0:
215,116,94622,2,0,P|204:153|197:191,1,77.3500014753342,10|0,0:0|0:0,0:0:0:0:
304,329,94881,2,0,P|342:331|381:316,1,77.3500014753342
329,197,95139,1,8,0:0:0:0:
451,232,95269,1,0,0:0:0:0:
304,329,95398,6,0,P|222:337|128:354,1,154.700002950668,2|8,0:0|0:0,0:0:0:0:
0,285,95786,1,2,0:0:0:0:
0,285,95915,2,0,P|44:291|84:300,1,77.3500014753342
187,251,96174,1,8,0:0:0:0:
187,251,96303,2,0,P|216:187|176:104,1,154.700002950668,2|0,0:0|0:0,0:0:0:0:
37,118,96691,2,0,B|114:84|119:153|193:108,1,154.700002950668,8|0,0:0|0:0,0:0:0:0:
246,28,97072,1,0,0:0:0:0:
389,222,97194,1,8,0:0:0:0:
448,6,97317,1,10,0:0:0:0:
243,179,97439,5,2,0:0:0:0:
243,179,97724,2,0,P|254:254|260:344,1,154.700002950668,8|0,0:0|0:0,0:0:0:0:
400,384,98111,2,0,P|396:345|396:304,1,77.3500014753342,2|8,0:0|0:0,0:0:0:0:
512,174,98370,2,0,P|482:129|367:138,1,154.700002950668,2|0,0:0|0:0,0:0:0:0:
278,89,98757,2,0,P|269:44|274:8,1,77.3500014753342,8|0,0:0|0:0,0:0:0:0:
388,121,99016,2,0,P|397:166|392:202,1,77.3500014753342,2|0,0:0|0:0,0:0:0:0:
284,285,99274,2,0,P|275:240|280:204,1,77.3500014753342,8|0,0:0|0:0,0:0:0:0:
411,337,99533,6,0,B|366:321|332:349|342:361|307:385|265:371,1,154.700002950668,2|8,0:0|0:0,0:0:0:0:
125,335,99921,1,0,0:0:0:0:
124,334,100050,2,0,P|125:295|123:257,1,77.3500014753342,2|0,0:0|0:0,0:0:0:0:
284,285,100309,1,8,0:0:0:0:
284,285,100438,2,0,P|281:212|292:126,1,154.700002950668,2|0,0:0|0:0,0:0:0:0:
201,55,100826,6,0,P|163:35|122:37,1,77.3500014753342,8|0,0:0|0:0,0:0:0:0:
42,181,101085,2,0,P|80:179|113:161,1,77.3500014753342,2|0,0:0|0:0,0:0:0:0:
30,24,101343,2,0,P|45:64|56:108,1,77.3500014753342,8|0,0:0|0:0,0:0:0:0:
173,234,101606,2,0,P|183:196|196:160,1,77.3500014753342,2|0,0:0|0:0,0:0:0:0:
303,18,101869,6,0,P|343:49|338:167,1,154.700002950668,8|0,0:0|0:0,0:0:0:0:
295,240,102264,1,0,0:0:0:0:
437,362,102395,2,8,P|371:346|263:338,1,154.700002950668,8|0,0:0|0:0,0:0:0:0:
112,251,102782,2,0,P|150:249|193:241,1,77.3500014753342,10|0,0:0|0:0,0:0:0:0:
379,159,103041,2,0,P|340:157|298:149,1,77.3500014753342,10|0,0:0|0:0,0:0:0:0:
244,23,103296,5,8,0:0:0:0:
295,240,103423,1,8,0:0:0:0:
117,185,103549,1,8,0:0:0:0:
343,60,103676,5,2,0:0:0:0:
197,246,103805,1,2,0:0:0:0:
101,44,103934,1,12,0:0:0:0:
101,44,104063,1,0,0:0:0:0:
290,181,104193,5,2,0:0:0:0:
32,223,104322,1,2,0:0:0:0:
197,76,104451,1,12,0:0:0:0:
197,76,104581,1,0,0:0:0:0:
221,296,104710,5,2,0:0:0:0:
68,131,104839,1,2,0:0:0:0:
17,335,104969,1,12,0:0:0:0:
174,189,105098,1,0,0:0:0:0:
152,384,105227,5,8,0:0:0:0:
66,118,105354,1,10,0:0:0:0:
10,355,105481,5,8,0:0:0:0:
148,65,105608,1,2,0:0:0:0:
295,336,105735,6,0,B|377:340|377:340|390:348|390:348|502:353,1,200.200006109619,4|8,0:0|0:0,0:0:0:0:
381,154,106122,1,0,0:0:0:0:
381,154,106252,2,0,P|395:197|407:263,1,100.10000305481,2|0,0:0|0:0,0:0:0:0:
405,250,106446,1,0,0:0:0:0:
405,250,106510,1,8,0:0:0:0:
489,108,106640,6,0,P|455:54|318:61,1,200.200006109619,2|0,0:0|0:0,0:0:0:0:
144,45,107028,2,0,P|159:92|169:142,1,100.10000305481,8|0,0:0|0:0,0:0:0:0:
299,258,107284,2,0,P|308:208|323:161,1,100.10000305481,2|0,0:0|0:0,0:0:0:0:
93,224,107540,1,8,0:0:0:0:
258,108,107669,1,0,0:0:0:0:
37,93,107797,6,0,P|55:179|73:313,1,200.200006109619,4|8,0:0|0:0,0:0:0:0:
304,236,108184,1,0,0:0:0:0:
304,236,108314,2,0,P|259:209|212:214,1,100.10000305481,2|0,0:0|0:0,0:0:0:0:
181,359,108572,2,0,P|226:386|273:381,1,100.10000305481,8|0,0:0|0:0,0:0:0:0:
421,275,108831,5,0,0:0:0:0:
421,275,108896,1,0,0:0:0:0:
421,275,108960,1,0,0:0:0:0:
279,139,109090,2,0,P|294:186|304:236,1,100.10000305481,10|0,0:0|0:0,0:0:0:0:
438,126,109347,2,0,P|447:76|462:29,1,100.10000305481,2|0,0:0|0:0,0:0:0:0:
421,275,109605,1,8,0:0:0:0:
334,59,109733,1,0,0:0:0:0:
197,220,109862,6,0,B|149:182|92:212|106:222|52:248|3:207,1,200.200006109619,4|8,0:0|0:0,0:0:0:0:
51,46,110253,1,0,0:0:0:0:
51,46,110383,2,0,P|41:92|69:153,1,100.10000305481,2|0,0:0|0:0,0:0:0:0:
210,123,110644,2,0,P|220:77|192:16,1,100.10000305481,8|0,0:0|0:0,0:0:0:0:
141,298,110905,6,0,P|204:214|310:253,1,200.200006109619,2|8,0:0|0:0,0:0:0:0:
417,346,111296,1,0,0:0:0:0:
417,346,111427,2,0,P|363:349|317:358,1,100.10000305481,2|0,0:0|0:0,0:0:0:0:
393,169,111688,2,0,P|445:177|492:180,1,100.10000305481,8|0,0:0|0:0,0:0:0:0:
230,85,111948,6,0,B|268:43|268:43|263:194,1,200.200006109619,4|8,0:0|0:0,0:0:0:0:
168,343,112335,1,0,0:0:0:0:
168,343,112465,2,0,P|165:280|155:226,1,100.10000305481,2|0,0:0|0:0,0:0:0:0:
368,161,112723,2,0,P|360:210|359:260,1,100.10000305481,8|0,0:0|0:0,0:0:0:0:
71,116,112990,5,0,0:0:0:0:
254,215,113119,1,0,0:0:0:0:
254,215,113183,1,0,0:0:0:0:
254,215,113248,1,10,0:0:0:0:
31,254,113377,1,2,0:0:0:0:
201,80,113507,2,0,P|249:91|299:98,1,100.10000305481,2|0,0:0|0:0,0:0:0:0:
129,272,113765,2,0,P|80:260|30:253,1,100.10000305481,8|0,0:0|0:0,0:0:0:0:
142,0,114024,6,0,P|160:89|172:233,1,200.200006109619,4|8,0:0|0:0,0:0:0:0:
285,341,114412,1,0,0:0:0:0:
285,341,114541,2,0,P|288:291|295:241,1,100.10000305481,2|0,0:0|0:0,0:0:0:0:
397,159,114800,1,8,0:0:0:0:
397,159,114929,6,0,P|360:101|242:123,1,200.200006109619,2|0,0:0|0:0,0:0:0:0:
93,233,115317,2,0,P|149:226|193:196,1,100.10000305481,8|0,0:0|0:0,0:0:0:0:
85,50,115576,1,2,0:0:0:0:
85,50,115705,2,0,P|106:99|118:159,1,100.10000305481,2|8,0:0|0:0,0:0:0:0:
169,302,115964,1,0,0:0:0:0:
302,186,116093,6,0,B|405:161|383:248|511:213,1,200.200006109619,4|8,0:0|0:0,0:0:0:0:
485,42,116481,1,0,0:0:0:0:
485,42,116610,2,0,P|464:91|452:151,1,100.10000305481,2|0,0:0|0:0,0:0:0:0:
333,280,116869,2,0,P|321:231|301:185,1,100.10000305481,8|0,0:0|0:0,0:0:0:0:
92,153,117127,5,2,0:0:0:0:
265,81,117255,1,2,0:0:0:0:
44,39,117383,2,0,P|94:50|148:69,1,100.10000305481,8|0,0:0|0:0,0:0:0:0:
342,163,117639,2,0,P|293:173|245:189,1,100.10000305481,2|0,0:0|0:0,0:0:0:0:
135,253,117896,1,8,0:0:0:0:
265,81,118024,1,0,0:0:0:0:
375,320,118152,6,0,P|384:216|424:116,1,200.200006109619,6|8,0:0|0:0,0:0:0:0:
199,26,118539,1,0,0:0:0:0:
199,26,118669,2,0,P|246:0|323:15,1,100.10000305481,2|0,0:0|0:0,0:0:0:0:
330,139,118927,2,0,P|283:165|206:150,1,100.10000305481,8|0,0:0|0:0,0:0:0:0:
60,106,119186,6,0,P|73:140|87:218,1,100.10000305481,2|0,0:0|0:0,0:0:0:0:
189,363,119445,2,0,P|198:313|214:266,1,100.10000305481,8|0,0:0|0:0,0:0:0:0:
206,41,119703,2,0,P|193:75|179:153,1,100.10000305481,2|2,0:0|0:0,0:0:0:0:
40,312,119962,1,8,0:0:0:0:
288,207,120091,1,0,0:0:0:0:
77,52,120220,5,8,0:0:0:0:
176,342,120350,1,8,0:0:0:0:
172,360,120608,5,8,0:0:0:0:
271,70,120738,1,8,0:0:0:0:
265,51,120996,5,8,0:0:0:0:
364,341,121129,1,8,0:0:0:0:
358,360,121391,5,8,0:0:0:0:
457,70,121520,1,8,0:0:0:0:
462,55,121779,6,0,P|443:109|434:184,1,100.10000305481,2|0,0:0|0:0,0:0:0:0:
356,375,122037,2,0,P|346:325|329:278,1,100.10000305481,8|0,0:0|0:0,0:0:0:0:
220,40,122284,6,0,P|146:74|152:187,1,200.200006109619,2|8,0:0|0:0,0:0:0:0:
331,157,122671,1,0,0:0:0:0:
331,157,122801,2,0,P|274:153|211:144,1,100.10000305481,2|0,0:0|0:0,0:0:0:0:
110,307,123059,1,8,0:0:0:0:
110,307,123189,6,0,P|205:293|317:284,1,200.200006109619,2|0,0:0|0:0,0:0:0:0:
443,384,123577,2,0,P|466:337|460:285,1,100.10000305481,8|0,0:0|0:0,0:0:0:0:
326,190,123835,2,0,P|303:237|309:289,1,100.10000305481,2|0,0:0|0:0,0:0:0:0:
497,95,124094,1,8,0:0:0:0:
497,95,124223,6,0,B|417:86|417:86|388:107|388:107|301:97,1,200.200006109619,2|0,0:0|0:0,0:0:0:0:
151,20,124611,2,0,P|197:26|250:27,1,100.10000305481,8|0,0:0|0:0,0:0:0:0:
326,190,124870,2,0,P|280:184|226:182,1,100.10000305481,2|0,0:0|0:0,0:0:0:0:
58,124,125128,1,8,0:0:0:0:
58,124,125258,6,0,P|117:171|115:291,1,200.200006109619,2|0,0:0|0:0,0:0:0:0:
3,233,125646,2,0,P|30:224|55:220,2,50.0500015274048,8|0|0,0:0|0:0|0:0,0:0:0:0:
234,318,125904,1,8,0:0:0:0:
100,121,126031,1,0,0:0:0:0:
20,344,126158,1,8,0:0:0:0:
96,105,126285,1,0,0:0:0:0:
245,342,126412,6,0,P|291:364|344:363,1,100.10000305481,2|0,0:0|0:0,0:0:0:0:
455,229,126675,2,0,P|405:230|359:250,1,100.10000305481,8|0,0:0|0:0,0:0:0:0:
215,175,126938,2,0,P|204:119|186:62,1,100.10000305481,2|0,0:0|0:0,0:0:0:0:
348,33,127201,1,8,0:0:0:0:
348,33,127334,2,0,B|387:2|387:2|360:165,1,200.200006109619,2|0,0:0|0:0,0:0:0:0:
199,272,127736,2,0,P|259:265|294:236,1,100.10000305481,8|0,0:0|0:0,0:0:0:0:
201,96,127994,2,0,P|196:120|195:157,2,50.0500015274048
89,159,128253,1,8,0:0:0:0:
311,98,128382,1,0,0:0:0:0:
67,24,128512,6,0,P|78:80|84:154,1,100.10000305481,2|0,0:0|0:0,0:0:0:0:
199,272,128769,2,0,P|204:222|214:173,1,100.10000305481,10|0,0:0|0:0,0:0:0:0:
103,318,129028,2,0,P|163:369|283:339,1,200.200006109619,2|8,0:0|0:0,0:0:0:0:
474,193,129416,6,0,B|376:159|392:257|283:214,1,200.200006109619,2|0,0:0|0:0,0:0:0:0:
124,124,129804,2,0,P|169:101|217:109,1,100.10000305481,8|0,0:0|0:0,0:0:0:0:
172,282,130062,1,8,0:0:0:0:
308,66,130192,1,8,0:0:0:0:
381,318,130321,1,8,0:0:0:0:
179,191,130450,1,0,0:0:0:0:
427,62,130579,6,0,P|403:114|392:170,1,100.10000305481,4|0,0:0|0:0,0:0:0:0:
295,384,130838,2,0,P|283:335|261:290,1,100.10000305481,10|0,0:0|0:0,0:0:0:0:
83,214,131097,1,8,0:0:0:0:
266,162,131229,1,8,0:0:0:0:
69,209,131362,1,2,0:0:0:0:
333,226,131495,6,0,P|357:171|269:56,1,200.200006109619,4|0,0:0|0:0,0:0:0:0:
117,51,131882,2,0,P|141:103|152:159,1,100.10000305481,10|0,0:0|0:0,0:0:0:0:
222,28,132136,1,8,0:0:0:0:
176,229,132259,1,8,0:0:0:0:
216,15,132383,1,2,0:0:0:0:
264,279,132503,1,0,0:0:0:0:
420,107,132624,6,0,P|470:100|519:96,1,100.10000305481,10|0,0:0|0:0,0:0:0:0:
219,125,132895,5,8,0:0:0:0:
453,19,133031,1,8,0:0:0:0:
216,15,133166,5,8,0:0:0:0:
484,194,133295,1,8,0:0:0:0:
179,228,133424,5,8,0:0:0:0:
420,107,133553,1,8,0:0:0:0:
420,107,134200,6,0,P|426:133|429:157,1,47.7749985420228
476,53,134717,6,0,P|456:155|445:275,1,209.300003992081,4|8,0:0|0:0,0:0:0:0:
274,190,135105,1,0,0:0:0:0:
446,377,135234,1,2,0:0:0:0:
365,153,135364,1,0,0:0:0:0:
230,376,135493,2,0,P|225:316|214:260,1,104.65000199604,8|0,0:0|0:0,0:0:0:0:
287,86,135751,6,0,P|277:137|273:189,1,104.65000199604,2|0,0:0|0:0,0:0:0:0:
113,122,136010,1,8,0:0:0:0:
273,0,136139,2,0,P|344:6|382:146,1,209.300003992081,2|0,0:0|0:0,0:0:0:0:
196,242,136527,2,0,P|241:244|311:223,1,104.65000199604,8|0,0:0|0:0,0:0:0:0:
459,339,136786,6,0,P|408:325|356:326,1,104.65000199604,2|0,0:0|0:0,0:0:0:0:
237,163,137041,1,8,0:0:0:0:
442,61,137168,2,0,P|424:109|412:176,1,104.65000199604,2|0,0:0|0:0,0:0:0:0:
303,10,137424,1,0,0:0:0:0:
265,263,137551,2,0,P|254:211|236:162,1,104.65000199604,8|0,0:0|0:0,0:0:0:0:
19,22,137807,6,0,P|70:20|116:44,1,104.65000199604,2|0,0:0|0:0,0:0:0:0:
97,195,138062,2,0,P|45:196|-1:172,1,104.65000199604,8|0,0:0|0:0,0:0:0:0:
220,3,138320,2,0,P|205:47|197:116,1,104.65000199604,2|0,0:0|0:0,0:0:0:0:
310,285,138579,2,0,P|303:233|287:183,1,104.65000199604,8|0,0:0|0:0,0:0:0:0:
393,37,138837,6,0,P|481:31|515:133,1,209.300003992081,2|8,0:0|0:0,0:0:0:0:
313,171,139219,1,0,0:0:0:0:
512,270,139347,1,2,0:0:0:0:
423,113,139478,1,0,0:0:0:0:
346,291,139609,2,0,P|285:296|245:281,1,104.65000199604,8|0,0:0|0:0,0:0:0:0:
160,38,139871,6,0,B|117:0|117:0|144:158,1,209.300003992081,2|8,0:0|0:0,0:0:0:0:
231,361,140264,1,0,0:0:0:0:
40,251,140395,1,2,0:0:0:0:
269,166,140526,1,0,0:0:0:0:
83,363,140657,2,0,P|23:359|-47:323,1,104.65000199604,8|0,0:0|0:0,0:0:0:0:
127,85,140919,5,8,0:0:0:0:
208,282,141048,1,8,0:0:0:0:
20,237,141177,5,8,0:0:0:0:
231,145,141306,1,8,0:0:0:0:
236,377,141436,5,8,0:0:0:0:
106,193,141565,1,8,0:0:0:0:
346,173,141694,5,8,0:0:0:0:
120,347,141824,1,8,0:0:0:0:
101,54,141953,5,8,0:0:0:0:
299,271,142082,1,8,0:0:0:0:
5,339,142212,5,8,0:0:0:0:
217,104,142339,1,8,0:0:0:0:
308,384,142466,5,8,0:0:0:0:
49,195,142593,1,8,0:0:0:0:
333,70,142720,5,8,0:0:0:0:
161,364,142847,1,8,0:0:0:0:
121,20,142974,6,0,P|140:111|158:235,1,209.300003992081,4|8,0:0|0:0,0:0:0:0:
66,317,143361,1,0,0:0:0:0:
272,183,143491,1,2,0:0:0:0:
46,112,143620,1,0,0:0:0:0:
259,359,143749,2,0,P|315:346|383:343,1,104.65000199604,8|0,0:0|0:0,0:0:0:0:
426,93,144008,6,0,P|437:144|443:196,1,104.65000199604,2|0,0:0|0:0,0:0:0:0:
272,183,144262,1,8,0:0:0:0:
506,317,144391,2,0,P|474:253|351:265,1,209.300003992081,2|0,0:0|0:0,0:0:0:0:
218,376,144779,2,0,P|265:366|326:362,1,104.65000199604,8|0,0:0|0:0,0:0:0:0:
131,260,145037,6,0,P|78:256|27:245,1,104.65000199604,2|0,0:0|0:0,0:0:0:0:
161,100,145300,1,8,0:0:0:0:
267,295,145431,2,0,P|285:172|308:89,1,209.300003992081,2|0,0:0|0:0,0:0:0:0:
135,0,145826,2,0,P|152:49|162:101,1,104.65000199604,8|0,0:0|0:0,0:0:0:0:
363,257,146089,2,0,P|372:205|389:156,1,104.65000199604,2|0,0:0|0:0,0:0:0:0:
95,179,146345,6,0,P|147:203|203:201,1,104.65000199604,10|0,0:0|0:0,0:0:0:0:
325,25,146601,2,0,P|278:58|251:107,1,104.65000199604,2|0,0:0|0:0,0:0:0:0:
343,301,146858,2,0,P|337:243|308:196,1,104.65000199604,10|0,0:0|0:0,0:0:0:0:
19,243,147114,5,4,3:0:0:0:
42,267,147178,1,0,3:0:0:0:
74,281,147242,1,0,3:0:0:0:
109,281,147306,1,0,3:0:0:0:
141,268,147371,1,4,3:0:0:0:
95,179,147499,1,8,3:0:0:0:
53,383,147627,1,2,0:0:0:0:
53,383,147883,1,2,0:0:0:0:
141,268,148140,5,4,3:0:0:0:
164,244,148204,1,0,3:0:0:0:
196,230,148269,1,0,3:0:0:0:
231,230,148334,1,0,3:0:0:0:
263,243,148399,1,4,3:0:0:0:
217,332,148529,1,8,3:0:0:0:
175,128,148659,1,2,0:0:0:0:
175,128,148916,1,2,0:0:0:0:
263,243,149182,5,4,3:0:0:0:
286,267,149251,1,0,3:0:0:0:
318,281,149320,1,0,3:0:0:0:
353,281,149389,1,0,3:0:0:0:
385,268,149458,1,4,3:0:0:0:
339,179,149587,1,8,3:0:0:0:
297,383,149716,1,2,0:0:0:0:
297,383,149976,1,2,0:0:0:0:
385,268,150237,5,4,3:0:0:0:
408,244,150302,1,0,3:0:0:0:
440,230,150368,1,0,3:0:0:0:
475,230,150433,1,0,3:0:0:0:
507,243,150498,1,4,3:0:0:0:
461,332,150633,1,8,3:0:0:0:
419,128,150768,1,2,0:0:0:0:
419,128,151045,1,2,0:0:0:0:
419,128,151280,5,10,0:0:0:0:
461,332,151409,1,0,0:0:0:0:
318,65,151538,5,8,0:0:0:0:
297,383,151667,1,8,0:0:0:0:
206,72,151797,5,10,0:0:0:0:
217,332,151926,1,0,0:0:0:0:
111,33,152055,5,8,0:0:0:0:
53,383,152182,1,0,0:0:0:0:
349,176,152310,5,10,0:0:0:0:
150,210,152437,1,0,0:0:0:0:
431,228,152565,5,8,0:0:0:0:
88,141,152693,1,0,0:0:0:0:
493,159,152820,5,10,0:0:0:0:
6,193,152949,1,8,0:0:0:0:
254,380,153078,5,8,0:0:0:0:
340,24,153207,1,8,0:0:0:0:
338,10,154136,6,0,L|345:67,1,47.7749985420228
404,110,154394,6,0,L|394:183,1,75.0750022911072
327,232,154653,6,0,L|339:330,1,88.724995938492
412,359,154898,6,0,B|317:312|316:413|213:357,1,207.024990523148,2|0,0:0|0:0,0:0:0:0:
129,319,155406,6,0,P|116:205|90:106,1,209.300003992081,4|8,0:0|0:0,0:0:0:0:
254,2,155793,2,0,P|234:51|224:114,1,104.65000199604,2|0,0:0|0:0,0:0:0:0:
403,224,156052,1,0,0:0:0:0:
334,70,156181,1,8,0:0:0:0:
305,264,156311,6,0,P|390:321|489:295,1,209.300003992081,2|0,0:0|0:0,0:0:0:0:
498,135,156699,2,0,P|439:131|388:116,1,104.65000199604,8|0,0:0|0:0,0:0:0:0:
187,16,156957,2,0,P|237:2|289:0,1,104.65000199604,2|0,0:0|0:0,0:0:0:0:
454,25,157216,1,8,0:0:0:0:
254,146,157343,6,0,P|279:234|287:372,1,209.300003992081,2|0,0:0|0:0,0:0:0:0:
99,230,157724,2,0,P|89:281|91:333,1,104.65000199604,8|0,0:0|0:0,0:0:0:0:
143,137,157988,1,2,0:0:0:0:
199,296,158117,1,0,0:0:0:0:
4,212,158246,1,8,0:0:0:0:
225,61,158375,6,0,B|334:42|314:127|432:91,1,209.300003992081,2|0,0:0|0:0,0:0:0:0:
401,302,158763,2,0,P|371:259|360:208,1,104.65000199604,8|0,0:0|0:0,0:0:0:0:
472,9,159022,2,0,P|506:64|510:133,1,104.65000199604,2|0,0:0|0:0,0:0:0:0:
280,104,159280,2,0,P|323:115|397:122,1,104.65000199604,8|0,0:0|0:0,0:0:0:0:
512,332,159539,6,0,P|407:334|294:357,1,209.300003992081,4|8,0:0|0:0,0:0:0:0:
137,229,159925,2,0,P|183:238|242:245,1,104.65000199604,2|0,0:0|0:0,0:0:0:0:
280,104,160182,1,0,0:0:0:0:
171,358,160311,1,8,0:0:0:0:
23,174,160440,6,0,P|-14:109|32:-10,1,209.300003992081,2|0,0:0|0:0,0:0:0:0:
266,192,160822,1,8,0:0:0:0:
91,91,160950,1,0,0:0:0:0:
300,1,161078,2,0,P|288:43|279:107,1,104.65000199604,2|0,0:0|0:0,0:0:0:0:
99,269,161333,1,8,0:0:0:0:
157,18,161461,6,0,P|173:87|190:230,1,209.300003992081,2|0,0:0|0:0,0:0:0:0:
318,345,161854,2,0,P|356:365|423:361,1,104.65000199604,8|0,0:0|0:0,0:0:0:0:
201,309,162124,2,0,P|149:305|102:327,1,104.65000199604,2|0,0:0|0:0,0:0:0:0:
380,260,162382,1,8,0:0:0:0:
321,66,162511,6,0,P|259:108|280:246,1,209.300003992081,2|0,0:0|0:0,0:0:0:0:
460,179,162899,2,0,P|422:159|355:163,1,104.65000199604,8|0,0:0|0:0,0:0:0:0:
157,194,163158,5,8,0:0:0:0:
385,384,163287,1,8,0:0:0:0:
121,358,163416,5,8,0:0:0:0:
380,260,163546,1,2,0:0:0:0:
198,112,163675,6,0,B|90:86|111:172|-6:145,1,209.300003992081,4|8,0:0|0:0,0:0:0:0:
70,18,164063,1,0,0:0:0:0:
181,214,164192,2,0,P|193:165|196:79,1,104.65000199604,2|0,0:0|0:0,0:0:0:0:
282,8,164451,1,8,0:0:0:0:
385,275,164580,6,0,P|375:183|387:60,1,209.300003992081,2|0,0:0|0:0,0:0:0:0:
245,173,164968,2,0,P|194:185|142:187,1,104.65000199604,8|0,0:0|0:0,0:0:0:0:
330,317,165227,2,0,P|382:318|432:331,1,104.65000199604,2|0,0:0|0:0,0:0:0:0:
335,108,165485,1,8,0:0:0:0:
217,324,165607,1,0,0:0:0:0:
68,140,165730,6,0,P|55:89|33:26,1,104.65000199604,2|0,0:0|0:0,0:0:0:0:
164,0,165996,1,8,0:0:0:0:
267,231,166130,2,0,P|280:180|302:117,1,104.65000199604,2|0,0:0|0:0,0:0:0:0:
171,91,166391,1,0,0:0:0:0:
68,322,166519,2,0,P|55:271|33:208,1,104.65000199604,10|0,0:0|0:0,0:0:0:0:
164,182,166775,1,0,0:0:0:0:
253,354,166904,2,0,P|309:372|352:363,2,104.65000199604,0|8|0,0:0|0:0|0:0,0:0:0:0:
34,327,167293,5,10,0:0:0:0:
308,282,167423,1,10,0:0:0:0:
149,109,167553,5,10,0:0:0:0:
100,383,167683,1,10,0:0:0:0:
282,178,167813,6,0,P|291:123|318:61,1,104.65000199604,6|0,0:0|0:0,0:0:0:0:
122,8,168070,2,0,P|140:56|148:108,1,104.65000199604,10|0,0:0|0:0,0:0:0:0:
253,286,168328,2,0,P|301:275|361:269,1,104.65000199604,2|0,0:0|0:0,0:0:0:0:
512,214,168585,1,8,0:0:0:0:
340,7,168714,6,0,P|277:60|286:184,1,209.300003992081,2|0,0:0|0:0,0:0:0:0:
464,122,169101,2,0,P|411:116|360:105,1,104.65000199604,8|0,0:0|0:0,0:0:0:0:
253,286,169365,2,0,P|301:275|361:269,1,104.65000199604,2|0,0:0|0:0,0:0:0:0:
214,59,169622,2,0,P|225:107|231:167,1,104.65000199604,8|0,0:0|0:0,0:0:0:0:
292,374,169873,5,8,0:0:0:0:
364,60,170002,1,8,0:0:0:0:
374,54,170260,5,8,0:0:0:0:
121,271,170390,1,8,0:0:0:0:
107,278,170648,5,8,0:0:0:0:
441,244,170778,1,8,0:0:0:0:
464,256,171036,5,0,0:0:0:0:
464,256,171101,1,0,0:0:0:0:
464,256,171166,1,0,0:0:0:0:
166,77,171295,1,0,0:0:0:0:
139,370,171424,5,0,3:0:0:0:
320,263,171555,1,0,3:0:0:0:
150,203,171687,2,0,L|100:189,3,52.3250009980202,8|0|0|0,3:0|0:0|0:0|0:0,0:0:0:0:
218,286,171950,5,4,0:0:0:0:
218,286,172221,6,0,P|235:229|246:205,1,81.8999975006104
158,122,172750,1,0,0:0:0:0:
158,122,172879,2,0,P|141:65|130:41,2,81.8999975006104
244,208,173785,1,0,0:0:0:0:
248,211,174043,6,0,P|291:225|337:218,1,81.8999975006104
373,132,174560,2,0,P|416:118|462:125,1,81.8999975006104
512,187,174948,6,0,P|502:223|496:267,1,81.8999975006104
410,333,175336,2,0,P|403:292|393:252,1,81.8999975006104
309,193,175724,2,0,L|268:186,2,40.9499987503052
199,242,176112,5,0,0:0:0:0:
199,242,176371,2,0,P|172:220|117:217,1,81.8999975006104
22,268,176888,1,0,0:0:0:0:
22,268,177017,2,0,P|13:223|3:186,1,81.8999975006104
144,134,177405,2,0,P|133:173|125:213,1,81.8999975006104
241,326,177791,2,0,P|230:286|222:246,1,81.8999975006104
317,193,178172,6,0,P|357:175|405:183,2,81.8999975006104
222,246,178947,1,0,0:0:0:0:
222,246,179077,2,0,P|178:249|139:231,1,81.8999975006104
127,102,179465,2,0,P|136:123|144:150,1,40.9499987503052,2|0,0:0|0:0,0:0:0:0:
240,26,179723,2,0,P|229:48|223:74,1,40.9499987503052,2|0,0:0|0:0,0:0:0:0:
284,155,179986,2,0,P|319:164|352:161,1,61.4249981254578,8|0,0:3|0:0,0:0:0:0:
404,88,180249,5,4,0:0:0:0:
404,88,180509,2,0,P|385:171|378:241,1,154.700002950668,8|2,0:0|0:0,0:0:0:0:
328,366,180898,1,0,0:0:0:0:
274,255,181026,1,8,0:0:0:0:
202,348,181154,2,0,B|137:309|124:380|52:330,1,154.700002950668,2|0,0:0|0:0,0:0:0:0:
0,230,181539,1,8,0:0:0:0:
44,130,181667,2,0,P|102:179|102:273,1,154.700002950668,2|0,0:0|0:0,0:0:0:0:
202,348,182052,2,0,P|215:300|236:262,1,77.3500014753342,8|0,0:0|0:0,0:0:0:0:
275,163,182310,6,0,P|313:169|349:183,1,77.3500014753342,2|0,0:0|0:0,0:0:0:0:
383,347,182565,2,0,P|369:310|363:272,1,77.3500014753342,10|0,0:0|0:0,0:0:0:0:
489,160,182820,2,0,P|464:189|434:214,1,77.3500014753342,2|0,0:0|0:0,0:0:0:0:
279,249,183075,1,8,0:0:0:0:
311,22,183203,6,0,P|346:48|356:159,1,154.700002950668,2|0,0:0|0:0,0:0:0:0:
249,94,183586,1,8,0:0:0:0:
175,177,183718,2,0,P|94:161|18:160,1,154.700002950668,2|0,0:0|0:0,0:0:0:0:
112,71,184114,1,8,0:0:0:0:
112,71,184378,6,0,P|134:121|137:153,1,77.3500014753342,4|0,0:0|0:0,0:0:0:0:
222,264,184635,2,0,P|229:226|246:191,1,77.3500014753342,8|0,0:0|0:0,0:0:0:0:
345,124,184893,1,2,0:0:0:0:
426,216,185021,1,0,0:0:0:0:
413,57,185150,2,0,P|380:35|327:37,2,77.3500014753342,8|2|0,0:0|0:0|0:0,0:0:0:0:
275,148,185537,2,0,P|313:144|344:123,2,77.3500014753342,8|2|8,0:0|0:0|0:0,0:0:0:0:
127,59,185925,2,0,P|149:109|152:141,1,77.3500014753342,2|8,0:0|0:0,0:0:0:0:
237,252,186183,2,0,P|244:214|261:179,1,77.3500014753342,8|0,0:0|0:0,0:0:0:0:
124,351,186435,5,0,0:0:0:0:
361,277,186564,1,0,0:0:0:0:
131,200,186693,1,12,0:0:0:0:
131,200,186822,1,0,0:0:0:0:
390,152,186952,5,2,0:0:0:0:
182,278,187081,1,2,0:0:0:0:
419,376,187210,1,12,0:0:0:0:
419,376,187340,1,0,0:0:0:0:
264,115,187469,5,2,0:0:0:0:
210,377,187598,1,2,0:0:0:0:
401,260,187728,1,12,0:0:0:0:
401,260,187857,1,0,0:0:0:0:
141,88,187986,5,8,0:0:0:0:
301,319,188116,1,8,0:0:0:0:
268,20,188245,5,8,0:0:0:0:
145,293,188371,1,2,0:0:0:0:
368,107,188497,6,0,P|403:92|442:95,1,77.3500014753342,6|0,0:0|0:0,0:0:0:0:
315,222,188755,2,0,P|272:222|239:208,1,77.3500014753342,10|0,0:0|0:0,0:0:0:0:
258,29,189014,1,8,0:0:0:0:
427,194,189414,6,0,P|418:233|410:297,1,77.3500014753342,2|0,0:0|0:0,0:0:0:0:
289,126,189661,1,2,0:0:0:0:
212,318,189785,2,0,P|206:279|197:241,1,77.3500014753342,10|0,0:0|0:0,0:0:0:0:
253,39,190056,5,4,3:0:0:0:
303,32,190142,1,0,3:0:0:0:
349,54,190228,1,0,3:0:0:0:
377,96,190314,2,0,P|387:121|395:160,2,51.5666676502228,4|0|0,3:0|3:0|3:0,3:0:0:0:
244,231,190573,6,0,P|235:189|251:150,1,77.3500014753342,2|0,0:0|0:0,0:0:0:0:
378,266,190839,2,0,P|387:308|371:347,1,77.3500014753342,2|0,0:0|0:0,0:0:0:0:
207,364,191106,1,8,0:0:0:0:
83,149,191499,6,0,P|122:158|186:166,1,77.3500014753342,2|0,0:0|0:0,0:0:0:0:
15,287,191750,1,2,0:0:0:0:
207,364,191875,2,0,P|168:370|130:379,1,77.3500014753342,10|0,0:0|0:0,0:0:0:0:
239,126,192134,2,0,P|232:100|226:76,2,51.5666676502228,8|0|8,3:0|3:0|3:0,3:0:0:0:
198,220,192386,2,0,P|179:237|161:256,2,51.5666676502228,8|0|8,3:0|3:0|3:0,3:0:0:0:
317,197,192638,6,0,P|359:206|420:226,1,77.3500014753342,2|0,0:0|0:0,0:0:0:0:
483,77,192898,2,0,P|445:87|408:95,1,77.3500014753342,10|0,0:0|0:0,0:0:0:0:
470,255,193159,1,8,0:0:0:0:
302,89,193551,6,0,P|293:44|281:9,1,77.3500014753342,2|0,0:0|0:0,0:0:0:0:
241,194,193809,1,2,0:0:0:0:
426,60,193938,2,0,P|415:97|408:135,1,77.3500014753342,8|0,0:0|0:0,0:0:0:0:
276,287,194204,1,0,3:0:0:0:
231,291,194289,1,0,3:0:0:0:
189,276,194374,1,0,3:0:0:0:
158,244,194460,1,0,3:0:0:0:
145,201,194545,1,0,3:0:0:0:
152,157,194631,1,0,3:0:0:0:
178,120,194716,6,0,P|222:125|267:135,1,77.3500014753342,2|0,0:0|0:0,0:0:0:0:
351,12,194974,2,0,P|314:21|275:26,1,77.3500014753342,2|0,0:0|0:0,0:0:0:0:
370,266,195233,2,0,P|417:201|393:133,1,154.700002950668,10|0,0:0|0:0,0:0:0:0:
254,131,195624,2,0,P|258:170|261:219,1,77.3500014753342,4|0,0:0|0:0,0:0:0:0:
216,356,195887,5,8,0:0:0:0:
193,360,195952,1,8,0:0:0:0:
170,364,196018,5,10,0:0:0:0:
373,276,196150,1,2,0:0:0:0:
133,187,196281,5,8,0:0:0:0:
391,278,196413,1,8,0:0:0:0:
122,282,196540,5,8,0:0:0:0:
346,152,196668,1,0,0:0:0:0:
147,36,196788,6,0,P|160:66|165:93,2,60.6666666666667,2|0|0,0:0|0:0|0:0,0:0:0:0:
276,89,197046,2,0,P|263:116|258:146,2,60.6666666666667,2|0|0,0:0|0:0|0:0,0:0:0:0:
133,187,197305,1,2,0:0:0:0:
99,152,197391,1,2,0:0:0:0:
52,140,197477,1,2,0:0:0:0:
7,160,197563,2,0,P|18:196|20:228,1,60.6666666666667,10|0,0:0|0:0,0:0:0:0:
146,362,197730,1,0,0:0:0:0:
146,362,197814,6,0,P|176:375|214:381,2,60.6666666666667,2|0|0,0:0|0:0|0:0,0:0:0:0:
285,243,198076,2,0,P|255:249|227:261,2,60.6666666666667,10|0|0,0:0|0:0|0:0,0:0:0:0:
143,98,198338,1,2,0:0:0:0:
177,63,198423,1,2,0:0:0:0:
223,50,198508,1,2,0:0:0:0:
269,71,198594,2,0,P|258:107|256:139,2,60.6666666666667,10|0|0,0:0|0:0|0:0,0:0:0:0:
381,23,198850,6,0,P|425:32|485:33,1,91,2|0,0:0|0:0,0:0:0:0:
360,157,199108,2,0,P|314:158|270:167,1,91,8|0,0:0|0:0,0:0:0:0:
412,259,199367,2,0,P|463:213|445:102,1,182,2|8,0:0|0:0,0:0:0:0:
294,44,199750,1,0,0:0:0:0:
174,143,199876,6,0,P|184:173|189:198,3,45.5,2|0|0|0,0:0|0:0|0:0|0:0,0:0:0:0:
286,249,200139,2,0,P|276:278|268:319,3,45.5,10|0|0|0,0:0|0:0|0:0|0:0,0:0:0:0:
141,360,200402,1,2,0:0:0:0:
124,343,200468,1,0,0:0:0:0:
101,334,200533,1,0,0:0:0:0:
76,334,200599,1,0,0:0:0:0:
54,344,200665,2,0,P|49:279|36:214,1,121.333333333333,10|0,0:0|0:0,0:0:0:0:
119,144,200923,6,0,P|123:98|131:53,1,91,6|0,0:0|0:0,0:0:0:0:
215,186,201182,1,8,0:0:0:0:
26,111,201312,1,2,0:0:0:0:
210,24,201442,1,2,0:0:0:0:
110,233,201572,1,2,0:0:0:0:
320,206,201702,2,0,P|366:197|415:190,1,91,10|0,0:0|0:0,0:0:0:0:
210,137,201961,6,0,P|223:224|235:332,1,182,2|8,0:0|0:0,0:0:0:0:
320,206,202351,1,0,0:0:0:0:
436,343,202481,2,0,P|390:334|341:327,1,91,2|0,0:0|0:0,0:0:0:0:
410,156,202741,1,8,0:0:0:0:
233,317,202871,1,2,0:0:0:0:
320,112,203000,6,0,P|393:60|485:91,1,182,4|8,0:0|0:0,0:0:0:0:
320,206,203381,1,0,0:0:0:0:
499,218,203508,2,0,P|487:268|479:326,1,91,2|0,0:0|0:0,0:0:0:0:
410,156,203762,1,10,0:0:0:0:
332,358,203889,1,2,0:0:0:0:
320,112,204016,1,2,0:0:0:0:
166,258,204144,6,0,B|71:247|100:328|-2:313,1,182,2|0,0:0|0:0,0:0:0:0:
159,350,204525,1,8,0:0:0:0:
19,233,204654,1,8,0:0:0:0:
164,363,204783,1,8,0:0:0:0:
110,150,204912,1,0,0:0:0:0:
171,381,205042,5,2,0:0:0:0:
220,355,205126,1,2,0:0:0:0:
256,311,205211,1,2,0:0:0:0:
270,258,205296,5,14,0:0:0:0:
260,202,205378,1,2,0:0:0:0:
228,157,205461,1,2,0:0:0:0:
181,128,205543,6,0,P|149:130|121:139,2,60.6666666666667,2|0|0,0:0|0:0|0:0,0:0:0:0:
252,43,205791,2,0,P|282:42|311:34,2,60.6666666666667,10|0|0,0:0|0:0|0:0,0:0:0:0:
163,269,206053,5,2,0:0:0:0:
215,247,206140,1,2,0:0:0:0:
270,258,206227,1,2,0:0:0:0:
304,310,206315,5,10,0:0:0:0:
350,353,206402,1,2,0:0:0:0:
414,360,206489,1,2,0:0:0:0:
480,328,206577,5,2,0:0:0:0:
512,257,206664,1,2,0:0:0:0:
498,183,206751,1,2,0:0:0:0:
418,168,206839,6,0,P|427:202|431:233,2,60.6666666666667,10|2|2,0:0|0:0|0:0,0:0:0:0:
501,95,207101,6,0,B|447:31|370:73|370:73|373:58|373:58|306:118|229:66,1,313.950005988121,6|0,0:0|0:0,0:0:0:0:
83,66,207625,2,0,P|115:111|129:166,1,100.10000305481,2|0,0:0|0:0,0:0:0:0:
104,264,207887,1,8,0:0:0:0:
283,7,208018,6,0,B|301:78|262:132|262:132|274:191|274:191|223:263|257:346,1,341.25,6|8,0:0|0:0,0:0:0:0:
167,208,208535,1,0,0:0:0:0:
375,130,208664,1,0,0:0:0:0:
195,29,208793,1,0,0:0:0:0:
368,238,208923,2,0,P|419:246|485:256,1,91,8|0,0:0|0:0,0:0:0:0:
296,60,209181,5,8,0:0:0:0:
227,280,209311,1,0,0:0:0:0:
290,44,209441,5,8,0:0:0:0:
357,315,209572,1,0,0:0:0:0:
296,28,209702,5,8,0:0:0:0:
219,301,209833,1,8,0:0:0:0:
290,12,209963,5,8,0:0:0:0:
362,335,210094,1,0,0:0:0:0:
152,212,210224,5,8,0:0:0:0:
354,136,210353,1,0,0:0:0:0:
139,115,210482,5,8,0:0:0:0:
373,235,210611,1,0,0:0:0:0:
56,263,210741,5,8,0:0:0:0:
408,56,210870,1,8,0:0:0:0:
64,46,210999,5,8,0:0:0:0:
456,295,211129,1,8,0:0:0:0:
193,18,211258,6,0,P|217:87|221:127,1,100.10000305481,4|0,0:0|0:0,0:0:0:0:
252,379,211527,2,0,P|260:329|279:283,1,100.10000305481,8|0,0:0|0:0,0:0:0:0:
71,251,211781,2,0,P|113:223|166:223,1,100.10000305481,4|0,0:0|0:0,0:0:0:0:
433,186,212035,2,0,P|386:187|337:157,1,100.10000305481,8|0,0:0|0:0,0:0:0:0:
198,31,212289,5,2,0:0:0:0:
253,146,212420,6,0,L|264:100,1,47.7749985420228,2|0,0:0|0:0,0:0:0:0:
206,288,212683,6,0,L|190:215,1,75.0750022911072,2|0,0:0|0:0,0:0:0:0:
272,362,212946,5,8,0:0:0:0:
373,143,213070,1,8,0:0:0:0:
272,362,213194,1,2,0:0:0:0:
157,126,213319,6,0,P|94:183|118:287,1,200.200006109619,4|8,0:0|0:0,0:0:0:0:
288,232,213706,1,0,0:0:0:0:
288,232,213836,2,0,P|236:220|187:214,1,100.10000305481,2|0,0:0|0:0,0:0:0:0:
272,362,214094,1,8,0:0:0:0:
272,362,214224,6,0,P|369:338|472:340,1,200.200006109619,2|0,0:0|0:0,0:0:0:0:
501,266,214547,1,0,0:0:0:0:
501,266,214612,2,0,P|516:211|502:165,1,100.10000305481,8|0,0:0|0:0,0:0:0:0:
275,140,214872,2,0,P|264:188|279:235,1,100.10000305481,2|0,0:0|0:0,0:0:0:0:
502,74,215133,1,8,0:0:0:0:
383,198,215264,1,0,0:0:0:0:
276,22,215394,6,0,B|185:-27|183:62|76:2,1,200.200006109619,4|8,0:0|0:0,0:0:0:0:
0,134,215781,1,0,0:0:0:0:
0,134,215911,2,0,P|9:176|13:245,1,100.10000305481,2|0,0:0|0:0,0:0:0:0:
182,278,216169,2,0,P|185:228|195:179,1,100.10000305481,8|0,0:0|0:0,0:0:0:0:
37,358,216428,5,2,0:0:0:0:
115,141,216557,1,0,0:0:0:0:
244,351,216687,2,0,P|293:351|341:331,1,100.10000305481,8|0,0:0|0:0,0:0:0:0:
480,233,216945,2,0,P|430:231|384:212,1,100.10000305481,2|0,0:0|0:0,0:0:0:0:
477,38,217204,2,0,P|463:86|450:155,1,100.10000305481,8|0,0:0|0:0,0:0:0:0:
275,247,217475,6,0,P|262:125|239:21,1,200.200006109619,6|8,0:0|0:0,0:0:0:0:
133,221,217859,1,0,0:0:0:0:
133,221,217987,2,0,P|82:245|20:233,1,100.10000305481,2|0,0:0|0:0,0:0:0:0:
18,116,218244,2,0,P|68:92|130:104,1,100.10000305481,8|0,0:0|0:0,0:0:0:0:
186,311,218500,5,2,0:0:0:0:
279,114,218629,1,0,0:0:0:0:
338,368,218758,2,0,P|352:305|372:261,1,100.10000305481,8|0,0:0|0:0,0:0:0:0:
177,126,219017,2,0,P|194:172|205:221,1,100.10000305481,2|0,0:0|0:0,0:0:0:0:
334,191,219211,1,0,0:0:0:0:
334,191,219275,2,0,P|385:188|431:215,1,100.10000305481,8|0,0:0|0:0,0:0:0:0:
206,222,219534,6,0,B|109:176|103:264|10:206,1,200.200006109619,6|8,0:0|0:0,0:0:0:0:
36,42,219922,1,0,0:0:0:0:
36,42,220051,2,0,P|58:86|72:134,1,100.10000305481,2|0,0:0|0:0,0:0:0:0:
206,222,220310,2,0,P|219:173|242:129,1,100.10000305481,8|0,0:0|0:0,0:0:0:0:
429,96,220579,5,2,0:0:0:0:
259,24,220704,1,0,0:0:0:0:
416,196,220830,2,0,P|461:194|510:167,1,100.10000305481,8|0,0:0|0:0,0:0:0:0:
450,0,221081,2,0,P|405:2|356:29,1,100.10000305481,2|0,0:0|0:0,0:0:0:0:
299,189,221339,2,0,P|314:235|322:291,1,100.10000305481,8|0,0:0|0:0,0:0:0:0:
152,371,221598,6,0,P|159:321|174:273,1,100.10000305481,4|0,0:0|0:0,0:0:0:0:
121,73,221861,2,0,P|75:46|29:48,1,100.10000305481,10|0,0:0|0:0,0:0:0:0:
164,167,222124,2,0,P|210:140|231:99,1,100.10000305481,2|0,0:0|0:0,0:0:0:0:
61,157,222387,2,0,P|60:210|85:249,1,100.10000305481,10|0,0:0|0:0,0:0:0:0:
236,351,222650,6,0,P|284:340|354:331,1,100.10000305481,2|0,0:0|0:0,0:0:0:0:
472,269,222905,1,8,0:0:0:0:
230,168,223032,2,0,P|278:178|328:186,1,100.10000305481,2|0,0:0|0:0,0:0:0:0:
470,134,223288,1,0,0:0:0:0:
269,260,223415,1,8,0:0:0:0:
324,48,223543,1,0,0:0:0:0:
472,269,223671,6,0,P|459:326|314:358,1,200.200006109619,6|8,0:0|0:0,0:0:0:0:
177,183,224058,1,0,0:0:0:0:
177,183,224188,2,0,P|190:229|201:291,1,100.10000305481,2|0,0:0|0:0,0:0:0:0:
317,186,224446,2,0,P|326:136|339:88,1,100.10000305481,8|0,0:0|0:0,0:0:0:0:
81,102,224705,5,2,0:0:0:0:
241,34,224834,1,0,0:0:0:0:
88,201,224964,2,0,P|32:190|-8:153,1,100.10000305481,8|0,0:0|0:0,0:0:0:0:
68,5,225222,2,0,P|124:16|164:53,1,100.10000305481,2|0,0:0|0:0,0:0:0:0:
156,42,225416,1,0,0:0:0:0:
156,42,225481,1,8,0:0:0:0:
211,233,225610,1,0,0:0:0:0:
391,78,225739,6,0,P|373:151|372:209,1,100.10000305481,6|0,0:0|0:0,0:0:0:0:
230,338,225998,2,0,P|171:335|134:311,1,100.10000305481,8|0,0:0|0:0,0:0:0:0:
311,266,226257,2,0,P|337:318|335:362,1,100.10000305481,2|0,0:0|0:0,0:0:0:0:
211,233,226515,2,0,P|243:183|282:163,1,100.10000305481,10|0,0:0|0:0,0:0:0:0:
472,115,226774,5,2,0:0:0:0:
277,40,226902,1,0,0:0:0:0:
484,99,227031,1,8,0:0:0:0:
277,164,227160,1,0,0:0:0:0:
407,13,227289,2,0,P|385:77|376:128,1,100.10000305481,2|0,0:0|0:0,0:0:0:0:
313,291,227546,2,0,P|301:242|284:195,1,100.10000305481,8|0,0:0|0:0,0:0:0:0:
154,41,227804,5,8,0:0:0:0:
90,319,227934,1,8,0:0:0:0:
81,325,228195,5,8,0:0:0:0:
305,132,228325,1,8,0:0:0:0:
318,126,228586,5,8,0:0:0:0:
21,156,228714,1,8,0:0:0:0:
1,145,228970,5,8,0:0:0:0:
265,304,229098,1,8,0:0:0:0:
289,310,229364,2,0,P|315:298|357:296,2,66.7333353698731
194,226,229622,2,0,P|159:220|132:201,2,66.7333353698731
298,188,229881,6,0,P|319:126|242:24,1,200.200006109619,2|8,0:0|0:0,0:0:0:0:
105,138,230268,1,0,0:0:0:0:
105,138,230398,2,0,P|154:128|211:117,1,100.10000305481,2|0,0:0|0:0,0:0:0:0:
363,250,230656,1,8,0:0:0:0:
363,250,230794,6,0,P|263:240|144:232,1,200.200006109619,2|0,0:0|0:0,0:0:0:0:
9,189,231175,2,0,P|-4:133|7:84,1,100.10000305481,8|0,0:0|0:0,0:0:0:0:
163,233,231429,2,0,P|176:289|165:338,1,100.10000305481,2|0,0:0|0:0,0:0:0:0:
125,116,231692,1,8,0:0:0:0:
125,116,231823,6,0,P|203:106|274:203,1,199.1115,2|0,0:0|0:0,0:0:0:0:
387,347,232210,2,0,P|445:365|494:355,1,100.10000305481,8|0,0:0|0:0,0:0:0:0:
498,190,232469,2,0,P|451:173|401:178,1,100.10000305481,2|0,0:0|0:0,0:0:0:0:
270,362,232727,1,8,0:0:0:0:
442,270,232857,1,0,0:0:0:0:
255,187,232986,6,0,P|264:210|276:244,2,50.0500015274048,2|0|0,0:0|0:0|0:0,0:0:0:0:
395,124,233242,1,8,0:0:0:0:
291,46,233370,2,0,P|300:22|312:-11,2,50.0500015274048,2|0|0,0:0|0:0|0:0,0:0:0:0:
418,134,233627,1,0,0:0:0:0:
255,187,233755,2,0,P|213:176|149:171,1,100.10000305481,8|0,0:0|0:0,0:0:0:0:
17,125,234011,6,0,P|7:67|-1:26,1,100.10000305481,2|0,0:0|0:0,0:0:0:0:
156,170,234274,2,0,P|145:218|138:268,1,100.10000305481,8|0,0:0|0:0,0:0:0:0:
17,376,234537,2,0,P|9:326|0:277,1,100.10000305481,2|0,0:0|0:0,0:0:0:0:
156,170,234800,1,8,0:0:0:0:
156,170,234932,6,0,B|237:166|237:166|267:180|267:180|355:174,1,200.200006109619,2|0,0:0|0:0,0:0:0:0:
449,67,235319,2,0,P|400:36|353:39,1,100.10000305481,8|0,0:0|0:0,0:0:0:0:
352,174,235578,2,0,P|359:195|367:227,2,50.0500015274048,2|0|0,0:0|0:0|0:0,0:0:0:0:
464,342,235837,1,8,0:0:0:0:
512,149,235966,1,8,0:0:0:0:
326,329,236097,6,0,P|280:321|222:317,1,100.10000305481,2|0,0:0|0:0,0:0:0:0:
40,232,236360,2,0,P|89:228|139:220,1,100.10000305481,8|0,0:0|0:0,0:0:0:0:
264,15,236623,2,0,P|199:66|238:180,1,200.200006109619,2|8,0:0|0:0,0:0:0:0:
438,115,236998,2,0,P|457:107|491:102,2,50.0500015274048,2|0|0,0:0|0:0|0:0,0:0:0:0:
299,103,237250,1,0,0:0:0:0:
490,195,237378,1,8,0:0:0:0:
397,28,237505,1,0,0:0:0:0:
272,210,237633,2,0,P|252:202|219:197,2,50.0500015274048,0|0|0,3:0|3:0|3:0,3:0:0:0:
438,115,237888,2,0,P|457:107|491:102,2,50.0500015274048,0|0|0,3:0|3:0|3:0,3:0:0:0:
392,323,238144,6,0,P|375:267|374:226,1,100.10000305481,4|0,0:0|0:0,0:0:0:0:
171,38,238402,2,0,P|188:94|189:135,1,100.10000305481,10|0,0:0|0:0,0:0:0:0:
54,247,238661,1,8,0:0:0:0:
281,170,238796,1,8,0:0:0:0:
35,270,238932,1,0,0:0:0:0:
265,340,239068,6,0,B|359:316|345:393|457:364,1,200.200006109619,2|0,0:0|0:0,0:0:0:0:
465,148,239449,2,0,P|439:191|427:242,1,100.10000305481,8|0,0:0|0:0,0:0:0:0:
278,67,239707,1,8,0:0:0:0:
341,253,239836,1,8,0:0:0:0:
274,49,239966,1,8,0:0:0:0:
203,284,240095,1,0,0:0:0:0:
343,142,240224,6,0,P|383:133|444:126,1,100.10000305481,2|0,0:0|0:0,0:0:0:0:
91,185,240482,5,8,0:0:0:0:
341,253,240611,1,8,0:0:0:0:
48,278,240741,5,8,0:0:0:0:
343,142,240874,1,8,0:0:0:0:
34,107,241007,5,8,0:0:0:0:
360,257,241141,1,8,0:0:0:0:
81,65,241787,6,0,P|105:63|128:56,1,47.7749985420228
18,109,242311,6,0,B|135:75|111:156|223:131,1,209.300003992081,4|8,0:0|0:0,0:0:0:0:
413,198,242698,1,0,0:0:0:0:
286,21,242828,1,2,0:0:0:0:
200,222,242957,1,0,0:0:0:0:
364,97,243086,2,0,P|426:77|467:82,1,104.65000199604,8|0,0:0|0:0,0:0:0:0:
446,308,243345,6,0,P|394:310|345:292,1,104.65000199604,2|0,0:0|0:0,0:0:0:0:
112,198,243600,1,8,0:0:0:0:
212,357,243727,2,0,P|228:246|263:152,1,209.300003992081,2|0,0:0|0:0,0:0:0:0:
59,21,244110,2,0,P|81:73|96:132,1,104.65000199604,8|0,0:0|0:0,0:0:0:0:
335,100,244366,6,0,P|286:68|228:67,1,104.65000199604,2|0,0:0|0:0,0:0:0:0:
419,13,244621,1,8,0:0:0:0:
419,186,244749,2,0,P|461:157|512:151,1,104.65000199604,2|0,0:0|0:0,0:0:0:0:
335,100,245004,1,0,0:0:0:0:
352,269,245132,2,0,P|303:237|245:236,1,104.65000199604,10|0,0:0|0:0,0:0:0:0:
15,362,245387,6,0,P|60:353|124:352,1,104.65000199604,2|0,0:0|0:0,0:0:0:0:
258,233,245642,2,0,P|205:231|154:222,1,104.65000199604,8|0,0:0|0:0,0:0:0:0:
200,18,245898,2,0,P|232:67|231:114,1,104.65000199604,2|0,0:0|0:0,0:0:0:0:
65,283,246156,2,0,P|33:234|34:187,1,104.65000199604,8|0,0:0|0:0,0:0:0:0:
261,339,246415,6,0,B|360:292|364:378|466:328,1,209.300003992081,2|8,0:0|0:0,0:0:0:0:
340,88,246802,1,0,0:0:0:0:
408,258,246932,1,2,0:0:0:0:
239,231,247061,1,0,0:0:0:0:
471,74,247190,2,0,P|461:145|461:180,1,104.65000199604,8|0,0:0|0:0,0:0:0:0:
163,13,247449,6,0,P|188:98|193:223,1,209.300003992081,2|8,0:0|0:0,0:0:0:0:
337,365,247837,1,0,0:0:0:0:
282,129,247966,1,2,0:0:0:0:
227,322,248096,1,0,0:0:0:0:
362,64,248225,2,0,P|372:135|372:170,1,104.65000199604,8|0,0:0|0:0,0:0:0:0:
208,189,248500,5,8,0:0:0:0:
457,134,248628,1,8,0:0:0:0:
339,335,248757,5,8,0:0:0:0:
248,84,248886,1,8,0:0:0:0:
421,231,249015,5,8,0:0:0:0:
166,306,249143,1,8,0:0:0:0:
347,111,249272,5,8,0:0:0:0:
439,363,249401,1,8,0:0:0:0:
180,197,249530,5,8,0:0:0:0:
439,26,249658,1,8,0:0:0:0:
301,335,249787,5,8,0:0:0:0:
99,79,249915,1,8,0:0:0:0:
408,187,250043,5,8,0:0:0:0:
122,355,250171,1,8,0:0:0:0:
218,22,250299,5,8,0:0:0:0:
412,342,250430,1,8,0:0:0:0:
6,207,250562,6,0,B|103:197|103:197|135:207|135:207|234:196,1,218.399993334961,4|8,0:0|0:0,0:0:0:0:
385,193,250946,1,0,0:0:0:0:
180,107,251074,1,2,0:0:0:0:
386,40,251203,1,0,0:0:0:0:
272,252,251331,2,0,P|261:187|247:138,1,109.199996667481,8|0,0:0|0:0,0:0:0:0:
424,278,251587,6,0,P|409:330|401:384,1,109.199996667481,2|0,0:0|0:0,0:0:0:0:
189,316,251850,1,8,0:0:0:0:
385,193,251981,2,0,P|443:182|505:316,1,218.399993334961,2|0,0:0|0:0,0:0:0:0:
272,252,252376,2,0,P|261:187|247:138,1,109.199996667481,10|0,0:0|0:0,0:0:0:0:
493,34,252639,6,0,P|478:86|470:140,1,109.199996667481,2|0,0:0|0:0,0:0:0:0:
335,0,252897,1,8,0:0:0:0:
249,145,253026,2,0,B|148:97|134:195|35:131,1,218.399993334961,2|0,0:0|0:0,0:0:0:0:
262,56,253414,2,0,P|310:87|330:139,1,109.199996667481,8|0,0:0|0:0,0:0:0:0:
250,328,253673,2,0,P|202:297|182:245,1,109.199996667481,2|0,0:0|0:0,0:0:0:0:
385,268,253932,6,0,P|439:274|493:282,1,109.199996667481,8|0,0:0|0:0,0:0:0:0:
336,154,254190,2,0,P|303:197|269:240,1,109.199996667481,2|0,0:0|0:0,0:0:0:0:
459,168,254449,2,0,P|437:117|417:67,1,109.199996667481,8|0,0:0|0:0,0:0:0:0:
186,198,254707,5,4,3:0:0:0:
151,220,254774,1,0,3:0:0:0:
111,224,254842,1,0,3:0:0:0:
73,209,254909,1,0,3:0:0:0:
45,180,254977,1,4,3:0:0:0:
125,115,255106,1,8,3:0:0:0:
101,316,255235,1,2,0:0:0:0:
101,316,255482,1,2,0:0:0:0:
186,198,255730,5,4,3:0:0:0:
221,176,255794,1,0,3:0:0:0:
261,172,255859,1,0,3:0:0:0:
299,187,255923,1,0,3:0:0:0:
327,216,255988,1,4,3:0:0:0:
247,281,256121,1,8,3:0:0:0:
271,80,256254,1,2,0:0:0:0:
271,80,256497,1,2,0:0:0:0:
186,198,256755,5,4,3:0:0:0:
154,230,256821,1,0,3:0:0:0:
143,269,256887,1,0,3:0:0:0:
149,310,256954,1,0,3:0:0:0:
173,341,257020,1,4,3:0:0:0:
247,281,257153,1,8,3:0:0:0:
52,261,257285,1,2,0:0:0:0:
52,261,257543,1,2,0:0:0:0:
186,198,257802,5,4,3:0:0:0:
218,166,257868,1,0,3:0:0:0:
229,127,257935,1,0,3:0:0:0:
223,86,258002,1,0,3:0:0:0:
199,55,258069,1,4,3:0:0:0:
125,115,258196,1,8,3:0:0:0:
320,135,258324,1,2,0:0:0:0:
320,135,258579,1,2,0:0:0:0:
320,135,258834,5,8,0:0:0:0:
110,222,258962,1,0,0:0:0:0:
320,244,259090,5,8,0:0:0:0:
125,115,259218,1,8,0:0:0:0:
345,124,259346,5,8,0:0:0:0:
82,232,259475,1,0,0:0:0:0:
345,260,259603,5,8,0:0:0:0:
101,99,259731,1,0,0:0:0:0:
370,113,259859,5,8,0:0:0:0:
54,242,259988,1,0,0:0:0:0:
370,276,260117,5,8,0:0:0:0:
77,83,260246,1,0,0:0:0:0:
210,362,260376,6,0,P|193:330|171:310,1,54.5999983337403,8|0,0:0|0:0,0:0:0:0:
265,250,260501,2,0,P|279:217|300:195,1,54.5999983337403,8|0,0:0|0:0,0:0:0:0:
209,150,260627,2,0,P|193:118|170:98,1,54.5999983337403,8|0,0:0|0:0,0:0:0:0:
245,25,260752,1,8,0:0:0:0:
200,129,261689,6,0,P|226:134|250:144,1,47.7749985420228,4|0,0:0|0:0,0:0:0:0:
383,200,261959,6,0,P|348:215|306:221,1,75.0750022911072,2|0,0:0|0:0,0:0:0:0:
276,64,262229,6,0,L|288:286,1,204.750007810593,4|0,0:0|0:0,0:0:0:0:
204,348,262487,1,4,3:0:0:0:
169,346,262553,1,0,3:0:0:0:
135,344,262620,1,0,3:0:0:0:
101,342,262687,1,0,3:0:0:0:
67,340,262754,1,4,3:0:0:0:
67,340,263022,6,0,P|46:217|19:118,1,209.300003992081,4|8,0:0|0:0,0:0:0:0:
265,123,263397,1,0,0:0:0:0:
60,38,263522,1,2,0:0:0:0:
264,0,263647,1,0,0:0:0:0:
158,199,263772,2,0,P|148:140|130:85,1,104.65000199604,8|0,0:0|0:0,0:0:0:0:
396,15,264034,6,0,P|380:64|373:116,1,104.65000199604,2|0,0:0|0:0,0:0:0:0:
280,263,264296,1,8,0:0:0:0:
474,187,264427,1,0,0:0:0:0:
231,54,264558,2,0,P|246:103|253:155,1,104.65000199604,2|0,0:0|0:0,0:0:0:0:
342,345,264820,2,0,P|376:295|375:242,1,104.65000199604,8|0,0:0|0:0,0:0:0:0:
75,274,265060,5,8,0:0:0:0:
339,175,265192,1,8,0:0:0:0:
355,183,265456,5,8,0:0:0:0:
91,84,265588,1,8,0:0:0:0:
78,99,265852,5,8,0:0:0:0:
342,0,265979,1,8,0:0:0:0:
353,0,266234,6,0,P|381:11|411:12,1,52.3250009980202
484,84,266362,2,0,P|458:86|434:96,1,52.3250009980202
384,200,266491,1,0,0:0:0:0:
384,200,266555,1,0,0:0:0:0:
384,200,266620,2,0,P|405:247|402:315,1,104.65000199604,2|0,0:0|0:0,0:0:0:0:
499,188,266879,1,2,0:0:0:0:
499,188,267008,1,2,0:0:0:0:
323,279,267137,6,0,B|213:251|233:344|95:304,1,222.949993196106
66,279,267665,6,0,P|52:154|34:60,1,218.399993334961,4|8,0:0|0:0,0:0:0:0:
257,17,268049,1,0,0:0:0:0:
160,221,268177,6,0,P|154:158|144:106,1,109.199996667481,2|0,0:0|0:0,0:0:0:0:
257,17,268434,1,8,0:0:0:0:
353,256,268562,2,0,P|359:193|369:141,1,109.199996667481,2|0,0:0|0:0,0:0:0:0:
241,299,268818,1,0,0:0:0:0:
466,221,268947,1,8,0:0:0:0:
272,124,269074,1,0,0:0:0:0:
408,351,269201,6,0,P|467:367|515:359,1,109.199996667481,2|0,0:0|0:0,0:0:0:0:
364,121,269455,1,8,0:0:0:0:
301,357,269582,2,0,P|242:373|194:365,1,109.199996667481,2|0,0:0|0:0,0:0:0:0:
272,124,269838,1,0,0:0:0:0:
449,274,269967,1,8,0:0:0:0:
192,224,270096,1,0,0:0:0:0:
413,77,270226,6,0,P|398:124|384:187,1,109.199996667481,2|0,0:0|0:0,0:0:0:0:
192,224,270478,2,0,P|180:170|163:118,1,109.199996667481,8|0,0:0|0:0,0:0:0:0:
350,17,270730,2,0,P|393:-3|461:4,1,109.199996667481,2|0,0:0|0:0,0:0:0:0:
237,303,270982,2,0,P|183:308|133:286,1,109.199996667481,8|0,0:0|0:0,0:0:0:0:
252,7,271245,6,0,P|276:100|289:222,1,218.399993334961,2|8,0:0|0:0,0:0:0:0:
166,115,271636,1,0,0:0:0:0:
394,180,271766,1,2,0:0:0:0:
160,250,271897,1,0,0:0:0:0:
339,40,272027,2,0,P|323:89|316:151,1,109.199996667481,8|0,0:0|0:0,0:0:0:0:
215,358,272288,6,0,P|128:362|40:273,1,218.399993334961,2|8,0:0|0:0,0:0:0:0:
101,47,272675,1,0,0:0:0:0:
160,250,272805,1,2,0:0:0:0:
240,80,272934,1,0,0:0:0:0:
99,170,273063,2,0,P|46:175|-14:185,1,109.199996667481,8|0,0:0|0:0,0:0:0:0:
240,80,273322,5,8,0:0:0:0:
354,278,273451,1,8,0:0:0:0:
145,185,273581,5,8,0:0:0:0:
370,137,273710,1,8,0:0:0:0:
216,307,273839,5,8,0:0:0:0:
236,48,273967,1,8,0:0:0:0:
373,301,274095,5,8,0:0:0:0:
122,194,274223,1,8,0:0:0:0:
394,122,274351,5,8,0:0:0:0:
209,340,274480,1,8,0:0:0:0:
231,22,274608,5,8,0:0:0:0:
393,325,274736,1,8,0:0:0:0:
98,205,274864,5,8,0:0:0:0:
421,106,274994,1,8,0:0:0:0:
203,375,275124,5,8,0:0:0:0:
224,4,275255,1,8,0:0:0:0:
512,105,275385,6,0,P|500:189|495:335,1,218.399993334961,4|8,0:0|0:0,0:0:0:0:
284,152,275772,1,0,0:0:0:0:
399,348,275902,1,2,0:0:0:0:
421,106,276031,1,0,0:0:0:0:
249,348,276160,2,0,P|243:280|230:228,1,109.199996667481,8|0,0:0|0:0,0:0:0:0:
301,14,276419,6,0,P|289:67|285:121,1,109.199996667481,2|0,0:0|0:0,0:0:0:0:
159,9,276678,1,8,0:0:0:0:
59,249,276807,2,0,P|55:195|44:142,1,109.199996667481,2|0,0:0|0:0,0:0:0:0:
337,287,277066,1,0,0:0:0:0:
150,197,277195,1,8,0:0:0:0:
332,88,277324,1,0,0:0:0:0:
168,349,277453,6,0,P|113:366|58:362,1,109.199996667481,2|0,0:0|0:0,0:0:0:0:
210,102,277712,1,8,0:0:0:0:
279,357,277842,2,0,P|334:374|389:370,1,109.199996667481,2|0,0:0|0:0,0:0:0:0:
210,102,278102,1,0,0:0:0:0:
268,376,278232,1,8,0:0:0:0:
286,47,278362,1,0,0:0:0:0:
154,259,278491,6,0,P|142:200|124:146,1,109.199996667481,2|0,0:0|0:0,0:0:0:0:
354,14,278751,2,0,P|337:65|327:119,1,109.199996667481,8|0,0:0|0:0,0:0:0:0:
47,88,279011,2,0,P|97:48|166:55,1,109.199996667481,2|0,0:0|0:0,0:0:0:0:
340,227,279265,2,0,P|286:220|246:184,1,109.199996667481,8|0,0:0|0:0,0:0:0:0:
462,62,279519,5,4,3:0:0:0:
464,102,279584,1,0,3:0:0:0:
467,143,279649,1,0,3:0:0:0:
469,184,279714,1,0,3:0:0:0:
472,225,279779,1,4,3:0:0:0:
356,106,279912,1,8,3:0:0:0:
479,344,280045,1,2,0:0:0:0:
479,344,280301,1,2,0:0:0:0:
367,270,280557,5,4,3:0:0:0:
364,229,280624,1,0,3:0:0:0:
361,188,280691,1,0,3:0:0:0:
359,147,280758,1,0,3:0:0:0:
356,106,280826,1,4,3:0:0:0:
473,226,280955,1,8,3:0:0:0:
351,0,281084,1,2,0:0:0:0:
351,0,281336,1,2,0:0:0:0:
226,72,281588,5,4,3:0:0:0:
229,113,281655,1,0,3:0:0:0:
232,154,281722,1,0,3:0:0:0:
234,195,281789,1,0,3:0:0:0:
237,236,281857,1,4,3:0:0:0:
120,116,281991,1,8,3:0:0:0:
242,342,282126,1,2,0:0:0:0:
242,342,282390,1,2,0:0:0:0:
131,280,282654,5,4,3:0:0:0:
128,239,282721,1,0,3:0:0:0:
125,198,282789,1,0,3:0:0:0:
123,157,282856,1,0,3:0:0:0:
120,116,282924,1,4,3:0:0:0:
237,236,283059,1,8,3:0:0:0:
115,10,283176,1,2,0:0:0:0:
115,10,283445,1,2,0:0:0:0:
115,10,283700,5,10,0:0:0:0:
56,306,283829,1,0,0:0:0:0:
215,68,283958,5,8,0:0:0:0:
248,362,284087,1,8,0:0:0:0:
318,7,284217,5,10,0:0:0:0:
259,342,284344,1,0,0:0:0:0:
422,67,284472,5,8,0:0:0:0:
462,379,284599,1,0,0:0:0:0:
154,199,284727,5,10,0:0:0:0:
368,178,284851,1,0,0:0:0:0:
79,149,284975,5,8,0:0:0:0:
451,231,285100,1,0,0:0:0:0:
11,211,285224,5,10,0:0:0:0:
511,166,285351,1,8,0:0:0:0:
241,0,285479,5,8,0:0:0:0:
271,375,285606,1,8,0:0:0:0:
256,192,286535,12,0,288081,0:0:0:0:
122,86,288547,5,0,0:0:0:0:
122,90,288612,1,0,0:0:0:0:
122,94,288677,1,0,0:0:0:0:
121,98,288742,1,0,0:0:0:0:
121,101,288807,1,0,0:0:0:0:
121,105,288873,1,0,0:0:0:0:
120,109,288938,1,0,0:0:0:0:
120,113,289003,1,0,0:0:0:0:
119,117,289068,1,0,0:0:0:0:
119,120,289133,1,0,0:0:0:0:
119,124,289199,1,0,0:0:0:0:
118,128,289264,1,0,0:0:0:0:
118,132,289329,5,0,0:0:0:0:
65,153,289393,1,0,0:0:0:0:
34,202,289458,1,0,0:0:0:0:
39,259,289522,1,0,0:0:0:0:
76,303,289587,1,0,0:0:0:0:
132,316,289652,1,0,0:0:0:0:
185,294,289716,1,0,0:0:0:0:
230,271,289781,1,0,0:0:0:0:
279,280,289846,1,0,0:0:0:0:
316,312,289910,1,0,0:0:0:0:
322,359,289975,2,0,P|292:345|240:333,1,50.0500015274048
385,219,290104,2,0,P|406:215|432:203,3,50.0500015274048
259,149,290363,5,0,0:0:0:0:
259,149,290428,2,0,L|252:44,1,100.10000305481,2|0,0:0|0:0,0:0:0:0:
401,69,290622,5,0,0:0:0:0:
401,69,290708,1,0,0:0:0:0:
401,69,290794,2,0,P|365:71|332:85,1,66.7333353698731,10|0,0:0|0:0,0:0:0:0:
148,211,290966,2,0,P|184:213|217:227,1,66.7333353698731,2|0,0:0|0:0,0:0:0:0:
354,363,291139,2,0,P|383:298|354:226,1,133.466670739746,2|0,0:0|0:0,0:0:0:0:
209,128,291384,6,0,P|220:168|222:200,2,66.7333353698731
257,363,291647,2,0,P|260:329|270:297,2,66.7333353698731,0|8|8,0:0|0:0|0:0,0:0:0:0:
131,327,291910,5,8,0:0:0:0:
65,323,291998,5,0,0:0:0:0:
17,279,292085,5,0,0:0:0:0:
9,214,292173,5,0,0:0:0:0:
44,159,292261,5,0,0:0:0:0:
106,139,292348,5,0,0:0:0:0:
167,163,292436,6,0,P|179:188|189:227,3,50.0500015274048
303,324,292694,2,0,P|310:300|321:277,3,50.0500015274048
424,256,292953,5,0,0:0:0:0:
402,200,293039,1,0,0:0:0:0:
348,175,293125,2,0,P|303:175|273:188,1,66.7333353698731,4|0,0:0|0:0,0:0:0:0:
131,327,293298,2,0,P|162:336|196:334,1,66.7333353698731
176,77,293470,2,0,P|188:134|194:220,1,133.466670739746,4|0,0:0|0:0,0:0:0:0:
300,83,293715,6,0,P|296:107|294:132,3,50.0500015274048
215,206,293994,2,0,P|219:232|221:255,3,50.0500015274048
329,345,294273,6,0,P|366:355|406:357,2,66.7333353698731
221,255,294552,2,0,P|187:258|155:267,2,66.7333353698731
277,54,294970,1,4,0:0:0:0:
424,214,295225,1,2,0:0:0:0:
378,116,295541,6,0,L|447:102,2,66.7333353698731,0|0|8,0:0|0:0|0:0,0:0:0:0:
277,54,295857,1,8,0:0:0:0:
277,54,295973,2,0,P|260:112|263:137,1,66.7333353698731,8|8,0:0|0:0,0:0:0:0:
175,224,296205,1,8,0:0:0:0:
175,224,296330,2,0,P|172:191|158:159,1,66.7333353698731,8|8,0:0|0:0,0:0:0:0:
75,124,296591,1,8,0:0:0:0:
75,124,296727,5,2,0:0:0:0:
334,270,297049,1,4,0:0:0:0:
95,349,297393,1,4,0:0:0:0:
228,82,297787,1,4,0:0:0:0:
256,192,297988,12,0,301016,0:0:0:0:
225,109,301601,5,2,0:0:0:0:
267,326,301762,1,4,0:0:0:0:
256,192,301870,12,0,302631,0:0:0:0:
