osu file format v14

[General]
AudioFilename: audio.mp3
AudioLeadIn: 0
PreviewTime: -1
Countdown: 1
SampleSet: Normal
StackLeniency: 0.7
Mode: 0
LetterboxInBreaks: 0
WidescreenStoryboard: 0

[Editor]
DistanceSpacing: 1.2
BeatDivisor: 4
GridSize: 32
TimelineZoom: 1.8

[Metadata]
Title:Six Trillion Years and Story Nights
TitleUnicode:六兆年零一夜物語
Artist:Wagakki Band
ArtistUnicode:和樂器BAND
Creator:alphuite
Version:The Storm [AR10]
Source:
Tags:
BeatmapID:927149
BeatmapSetID:429715

[Difficulty]
HPDrainRate:4
CircleSize:4
OverallDifficulty:8
ApproachRate:10
SliderMultiplier:1.4
SliderTickRate:1

[Events]
//Background and Video events
0,0,"japanese_landscape_by_finnfanfoodle-d8mjgdj.jpg",0,0
//Break Periods
2,79217,89654
2,99189,200524
//Storyboard Layer 0 (Background)
//Storyboard Layer 1 (Fail)
//Storyboard Layer 2 (Pass)
//Storyboard Layer 3 (Foreground)
//Storyboard Sound Samples

[TimingPoints]
19669.669747865,326.086956521739,4,1,0,100,1,0

[HitObjects]
128,224,1082,5,0,0:0:0:0:
288,96,1571,1,0,0:0:0:0:
320,96,2060,2,0,B|384:160|384:160|371:250|296:245|250:194,1,245
64,128,3120,5,0,0:0:0:0:
96,224,3609,1,0,0:0:0:0:
192,224,4017,1,0,0:0:0:0:
192,224,4099,2,0,B|256:224|288:192|288:128|256:128|192:96|224:32|320:32|480:64|480:224|384:320|384:320|224:288,1,700
160,160,6137,5,0,0:0:0:0:
288,64,6626,1,0,0:0:0:0:
352,192,7115,1,0,0:0:0:0:
256,224,7768,1,0,0:0:0:0:
256,224,7849,1,0,0:0:0:0:
256,224,7930,2,0,B|160:224|96:192|96:160|32:192|96:128|128:96|224:64|288:96|288:160|320:160|352:128,1,455
416,96,9479,5,0,0:0:0:0:
416,96,9968,2,0,B|448:128|448:192|448:256|384:288|288:320|192:288|192:256|192:192|256:128|256:64|192:64|160:32|128:32|64:64|32:128|0:192|32:256|64:288,1,805
160,160,12658,2,0,L|128:128,1,35
296,124,12821,2,0,L|264:92,1,35
352,128,12984,2,0,B|384:160|416:192|416:224|384:256|352:288|256:320|192:320|128:320|64:288|64:256,1,455
256,192,14778,12,0,16653,0:0:0:0:
128,160,17060,5,0,0:0:0:0:
416,160,17224,1,0,0:0:0:0:
416,160,18365,1,0,0:0:0:0:
128,160,18528,1,0,0:0:0:0:
160,192,19671,5,0,0:0:0:0:
96,96,19832,1,0,0:0:0:0:
160,192,19995,1,0,0:0:0:0:
160,64,20158,1,0,0:0:0:0:
160,192,20321,1,0,0:0:0:0:
224,96,20484,1,0,0:0:0:0:
160,192,20647,1,0,0:0:0:0:
256,160,20810,1,0,0:0:0:0:
291,37,20974,5,0,0:0:0:0:
388,15,21137,1,0,0:0:0:0:
476,57,21300,1,0,0:0:0:0:
463,161,21463,1,0,0:0:0:0:
406,242,21626,1,0,0:0:0:0:
328,264,21789,1,0,0:0:0:0:
231,253,21952,1,0,0:0:0:0:
156,222,22115,1,0,0:0:0:0:
83,74,22278,5,0,0:0:0:0:
88,81,22359,1,0,0:0:0:0:
96,88,22441,1,0,0:0:0:0:
104,97,22522,1,0,0:0:0:0:
114,106,22604,1,0,0:0:0:0:
125,114,22685,1,0,0:0:0:0:
132,121,22767,1,0,0:0:0:0:
144,131,22849,1,0,0:0:0:0:
163,220,22930,6,0,L|252:221,1,70
309,220,23256,1,0,0:0:0:0:
372,220,23419,1,0,0:0:0:0:
378,222,23582,2,0,L|422:210,3,35
437,191,23908,5,0,0:0:0:0:
393,29,24071,1,0,0:0:0:0:
213,28,24234,1,0,0:0:0:0:
58,100,24397,1,0,0:0:0:0:
79,175,24560,6,0,P|107:210|138:216,1,70
52,240,24887,2,0,P|80:264|132:274,1,70
38,310,25213,2,0,P|70:327|106:329,1,70
382,64,25539,2,0,P|352:90|310:102,1,70
411,134,25865,2,0,P|379:159|319:172,1,70
320,224,26191,1,0,0:0:0:0:
43,189,26354,1,0,0:0:0:0:
320,224,26517,1,0,0:0:0:0:
43,189,26680,1,0,0:0:0:0:
320,224,26843,1,0,0:0:0:0:
319,177,27006,2,0,L|374:181,4,35
66,62,27495,5,0,0:0:0:0:
66,62,27577,1,0,0:0:0:0:
66,62,27659,1,0,0:0:0:0:
66,62,27740,1,0,0:0:0:0:
66,62,27821,2,0,B|155:64|150:63,1,70
105,130,28147,6,0,L|183:129,1,70
157,192,28474,2,0,L|231:191,1,70
269,191,28800,1,0,0:0:0:0:
392,153,28963,1,0,0:0:0:0:
447,49,29126,1,0,0:0:0:0:
434,49,29289,2,0,P|362:50|350:60,1,70
122,99,29615,5,0,0:0:0:0:
122,99,29696,1,0,0:0:0:0:
122,99,29778,1,0,0:0:0:0:
122,99,29859,1,0,0:0:0:0:
122,99,29941,2,0,P|156:128|186:128,1,70
433,122,30267,2,0,P|429:160|400:185,1,70
116,324,30593,2,0,P|159:319|178:292,1,70
205,184,30919,2,0,B|184:144|187:109|231:76|281:65|329:71,1,210
332,72,31571,5,0,0:0:0:0:
151,297,31734,1,0,0:0:0:0:
447,319,31897,1,0,0:0:0:0:
169,105,32060,1,0,0:0:0:0:
293,357,32224,1,0,0:0:0:0:
459,132,32387,1,0,0:0:0:0:
151,297,32550,1,0,0:0:0:0:
316,87,32713,1,0,0:0:0:0:
316,87,32794,5,0,0:0:0:0:
316,87,32876,1,0,0:0:0:0:
316,87,32957,1,0,0:0:0:0:
316,87,33039,1,0,0:0:0:0:
454,186,33202,1,0,0:0:0:0:
357,359,33365,1,0,0:0:0:0:
159,319,33528,1,0,0:0:0:0:
75,192,33691,1,0,0:0:0:0:
146,139,33854,6,0,L|194:77,2,70
418,173,34343,2,0,P|379:218|356:230,2,70
428,179,34750,1,0,0:0:0:0:
428,179,34832,1,0,0:0:0:0:
428,179,34913,1,0,0:0:0:0:
428,179,34995,1,0,0:0:0:0:
122,293,35158,5,0,0:0:0:0:
70,241,35321,2,0,L|120:291,1,70
175,245,35647,1,0,0:0:0:0:
119,193,35810,2,0,L|172:245,1,70
227,191,36137,5,0,0:0:0:0:
160,137,36300,2,0,B|233:195|215:184,1,70
316,64,36626,1,0,0:0:0:0:
472,183,36789,1,0,0:0:0:0:
291,315,36952,1,0,0:0:0:0:
128,288,37115,1,0,0:0:0:0:
297,114,37278,5,0,0:0:0:0:
172,92,37441,2,0,P|236:92|268:108,1,70
89,223,37767,2,0,L|89:304,1,70
167,301,38093,2,0,L|167:232,1,70
235,233,38419,2,0,L|237:307,1,70
246,313,38664,5,0,0:0:0:0:
303,310,38745,1,0,0:0:0:0:
358,296,38827,1,0,0:0:0:0:
399,260,38908,1,0,0:0:0:0:
426,212,38990,1,0,0:0:0:0:
443,160,39071,1,0,0:0:0:0:
440,107,39153,1,0,0:0:0:0:
418,55,39234,1,0,0:0:0:0:
207,54,39397,5,0,0:0:0:0:
328,173,39560,1,0,0:0:0:0:
441,46,39724,1,0,0:0:0:0:
207,54,39887,1,0,0:0:0:0:
328,173,40050,1,0,0:0:0:0:
328,173,40213,2,0,B|368:176|389:186|413:209|426:247|414:279|393:303|340:311|299:299|270:271|259:227|280:194|312:178,1,350
0,0,41191,5,0,0:0:0:0:
256,96,41354,1,0,0:0:0:0:
0,192,41517,1,0,0:0:0:0:
256,288,41680,1,0,0:0:0:0:
307,269,41762,5,0,0:0:0:0:
354,244,41843,1,0,0:0:0:0:
394,208,41925,1,0,0:0:0:0:
430,166,42006,2,0,L|454:209,4,35
224,64,42495,6,0,P|179:78|160:128,1,105
281,110,42821,2,0,P|236:124|217:174,1,105
332,159,43147,2,0,P|287:173|268:223,1,105
386,208,43474,2,0,P|341:222|322:272,1,105
128,192,43963,5,0,0:0:0:0:
160,128,44126,2,0,L|224:64,1,70
448,96,44452,1,0,0:0:0:0:
416,160,44615,2,0,L|352:224,1,70
288,224,44941,1,0,0:0:0:0:
192,224,45104,2,0,L|224:160,1,70
256,96,45430,1,0,0:0:0:0:
256,96,45512,1,0,0:0:0:0:
256,96,45593,1,0,0:0:0:0:
256,96,45675,1,0,0:0:0:0:
256,96,45756,2,0,L|352:128,1,70
320,192,46082,6,0,B|288:224|256:224|224:192|192:160,1,140
192,160,46571,1,0,0:0:0:0:
128,96,46734,1,0,0:0:0:0:
256,32,46897,1,0,0:0:0:0:
416,192,47060,5,0,0:0:0:0:
128,320,47224,1,0,0:0:0:0:
160,64,47387,1,0,0:0:0:0:
384,352,47550,1,0,0:0:0:0:
362,323,47713,1,0,0:0:0:0:
390,303,47876,1,0,0:0:0:0:
355,275,48039,1,0,0:0:0:0:
224,256,48365,6,0,L|320:256,1,70
303,219,48691,2,0,L|217:219,1,70
227,175,49017,2,0,L|310:174,1,70
306,131,49343,2,0,L|224:131,1,70
166,58,49832,5,0,0:0:0:0:
166,58,49914,1,0,0:0:0:0:
166,58,49995,1,0,0:0:0:0:
166,58,50077,1,0,0:0:0:0:
166,58,50158,1,0,0:0:0:0:
166,58,50240,1,0,0:0:0:0:
306,109,50484,1,0,0:0:0:0:
289,192,50647,6,0,L|207:192,1,70
217,240,50974,2,0,L|303:240,1,70
291,287,51300,2,0,L|207:288,1,70
216,332,51626,2,0,L|300:335,1,70
242,209,51952,2,0,B|208:210|222:163|232:127|264:125|309:138|336:176|370:198|357:294|272:285|193:304|150:238|157:172,1,420
70,154,53256,6,0,B|86:99|104:69|147:38,1,140
211,71,53745,1,0,0:0:0:0:
317,79,53908,2,0,B|356:112|370:157|370:179,1,105
267,150,54234,2,0,B|294:180|319:223|321:260,1,105
205,200,54560,2,0,B|228:240|252:294|282:319|441:333,1,280
443,264,55376,5,0,0:0:0:0:
453,245,55539,1,0,0:0:0:0:
464,221,55702,1,0,0:0:0:0:
119,234,55865,1,0,0:0:0:0:
133,258,56028,1,0,0:0:0:0:
148,286,56191,1,0,0:0:0:0:
239,217,56354,5,0,0:0:0:0:
327,107,56517,1,0,0:0:0:0:
400,228,56680,1,0,0:0:0:0:
178,282,56843,1,0,0:0:0:0:
348,25,57006,1,0,0:0:0:0:
464,325,57169,1,0,0:0:0:0:
103,332,57332,1,0,0:0:0:0:
378,27,57495,2,0,B|419:51|439:97|393:134|321:155|344:148,1,175
192,128,58147,6,0,L|320:128,1,105
320,224,58474,2,0,L|192:224,1,105
165,313,58800,5,0,0:0:0:0:
69,234,58963,1,0,0:0:0:0:
62,126,59126,1,0,0:0:0:0:
126,37,59289,1,0,0:0:0:0:
338,186,59452,1,0,0:0:0:0:
69,234,59615,1,0,0:0:0:0:
259,57,59778,1,0,0:0:0:0:
135,314,59941,1,0,0:0:0:0:
311,61,60104,6,0,L|384:61,1,70
249,183,60430,2,0,L|159:184,1,70
318,307,60756,2,0,L|409:306,1,70
412,303,61082,1,0,0:0:0:0:
442,255,61164,1,0,0:0:0:0:
458,201,61245,1,0,0:0:0:0:
465,149,61327,1,0,0:0:0:0:
411,155,61408,1,0,0:0:0:0:
356,169,61490,1,0,0:0:0:0:
306,191,61571,1,0,0:0:0:0:
258,216,61653,1,0,0:0:0:0:
209,240,61734,1,0,0:0:0:0:
91,301,61897,5,0,0:0:0:0:
280,166,62060,1,0,0:0:0:0:
430,48,62224,1,0,0:0:0:0:
118,115,62387,6,0,L|172:102,1,35
174,177,62550,2,0,L|213:165,1,35
246,241,62713,2,0,L|294:224,1,35
320,320,62876,2,0,B|364:306|404:286|416:224,1,140
192,192,63365,5,0,0:0:0:0:
320,192,63528,1,0,0:0:0:0:
160,192,63691,1,0,0:0:0:0:
352,192,63854,1,0,0:0:0:0:
128,192,64017,1,0,0:0:0:0:
384,192,64180,1,0,0:0:0:0:
96,192,64343,1,0,0:0:0:0:
416,192,64506,1,0,0:0:0:0:
64,192,64669,5,0,0:0:0:0:
448,192,64832,1,0,0:0:0:0:
32,192,64995,1,0,0:0:0:0:
480,192,65158,1,0,0:0:0:0:
128,32,65321,1,0,0:0:0:0:
256,352,65484,1,0,0:0:0:0:
416,64,65647,1,0,0:0:0:0:
64,288,65810,2,0,B|96:320|128:288|160:256|192:256,1,140
224,224,66300,1,0,0:0:0:0:
192,128,66626,5,0,0:0:0:0:
192,128,66707,1,0,0:0:0:0:
192,128,66789,1,0,0:0:0:0:
256,224,66952,5,0,0:0:0:0:
256,224,67033,1,0,0:0:0:0:
256,224,67115,1,0,0:0:0:0:
320,128,67278,5,0,0:0:0:0:
320,128,67359,1,0,0:0:0:0:
320,128,67441,1,0,0:0:0:0:
320,128,67522,1,0,0:0:0:0:
320,128,67604,1,0,0:0:0:0:
412,97,67767,5,0,0:0:0:0:
469,206,67930,1,0,0:0:0:0:
397,300,68093,1,0,0:0:0:0:
282,289,68256,1,0,0:0:0:0:
201,226,68419,1,0,0:0:0:0:
242,144,68582,2,0,B|277:97|280:96|288:97|319:96,1,70
504,60,68908,6,0,L|355:61,1,140
384,115,69397,2,0,L|527:115,1,140
70,93,69887,2,0,L|37:139,1,35
154,55,70050,2,0,L|179:21,1,35
237,111,70213,2,0,L|204:157,1,35
319,79,70376,2,0,L|344:45,1,35
381,140,70539,2,0,L|358:183,1,35
448,108,70702,2,0,L|465:70,1,35
490,200,70865,2,0,L|457:246,1,35
509,113,71028,2,0,L|513:71,1,35
508,44,71191,5,0,0:0:0:0:
448,44,71272,1,0,0:0:0:0:
385,47,71354,1,0,0:0:0:0:
325,54,71435,1,0,0:0:0:0:
260,64,71517,1,0,0:0:0:0:
202,87,71599,1,0,0:0:0:0:
179,142,71680,1,0,0:0:0:0:
186,204,71762,1,0,0:0:0:0:
213,257,71843,1,0,0:0:0:0:
269,270,71925,5,0,0:0:0:0:
269,270,72006,1,0,0:0:0:0:
269,270,72088,1,0,0:0:0:0:
326,276,72169,1,0,0:0:0:0:
385,267,72251,1,0,0:0:0:0:
426,221,72332,1,0,0:0:0:0:
432,159,72414,1,0,0:0:0:0:
438,75,72495,1,0,0:0:0:0:
280,61,72658,1,0,0:0:0:0:
105,87,72821,6,0,B|78:121|61:174|67:186,1,105
129,200,73147,2,0,B|154:174|165:131|167:94,1,105
230,102,73474,2,0,B|229:154|213:203|194:226|194:226,1,105
160,224,73963,5,0,0:0:0:0:
352,64,74126,1,0,0:0:0:0:
416,256,74289,1,0,0:0:0:0:
160,32,74452,1,0,0:0:0:0:
320,352,74615,1,0,0:0:0:0:
416,32,74778,1,0,0:0:0:0:
160,224,74941,1,0,0:0:0:0:
256,96,75104,1,0,0:0:0:0:
128,128,75267,21,0,0:0:0:0:
512,256,75430,1,0,0:0:0:0:
0,64,75593,1,0,0:0:0:0:
509,374,75756,1,0,0:0:0:0:
509,0,75919,1,0,0:0:0:0:
4,378,76082,1,0,0:0:0:0:
257,3,76245,1,0,0:0:0:0:
510,306,76408,1,0,0:0:0:0:
160,128,76897,5,0,0:0:0:0:
160,128,76979,1,0,0:0:0:0:
160,128,77060,1,0,0:0:0:0:
384,224,77224,5,0,0:0:0:0:
384,224,77305,1,0,0:0:0:0:
384,224,77387,1,0,0:0:0:0:
160,288,77550,5,0,0:0:0:0:
160,288,77631,1,0,0:0:0:0:
160,288,77713,1,0,0:0:0:0:
160,288,77794,1,0,0:0:0:0:
160,288,77876,1,0,0:0:0:0:
160,288,77957,1,0,0:0:0:0:
160,288,78039,1,0,0:0:0:0:
160,288,78120,1,0,0:0:0:0:
416,64,78365,5,0,0:0:0:0:
128,128,78528,1,0,0:0:0:0:
416,192,78691,1,0,0:0:0:0:
128,256,78854,1,0,0:0:0:0:
416,352,79017,1,0,0:0:0:0:
128,64,90104,6,0,L|64:128,1,70
160,160,90430,2,0,L|224:96,1,70
320,128,90756,2,0,L|256:192,1,70
352,256,91082,2,0,L|416:192,1,70
480,160,91408,5,0,0:0:0:0:
384,0,91571,1,0,0:0:0:0:
224,32,91734,1,0,0:0:0:0:
96,160,91897,1,0,0:0:0:0:
192,288,92061,1,0,0:0:0:0:
192,288,92142,1,0,0:0:0:0:
192,288,92224,2,0,B|256:320|288:320|320:288,1,140
352,288,92713,6,0,B|352:224|288:160|320:192,1,105
288,192,93039,2,0,P|224:224|192:256,1,105
160,256,93365,2,0,P|96:224|96:224,1,70
96,128,93691,5,0,0:0:0:0:
352,0,93854,1,0,0:0:0:0:
448,288,94017,1,0,0:0:0:0:
352,288,94180,6,0,L|288:320,1,70
255,270,94506,2,0,L|325:232,1,70
291,182,94832,2,0,L|216:221,1,70
192,153,95158,2,0,B|190:73|205:24|294:1|366:112,1,280
372,122,95974,2,0,B|401:172|384:251|392:241,1,105
326,250,96463,6,0,B|88:260|168:265|68:240|146:131|178:137,1,315
249,55,97522,2,0,B|322:44|382:57|421:73|449:119|466:184|445:255|394:267|322:268|241:267|147:277|100:227|133:176|160:160,1,630
482,224,200974,6,0,B|494:87|381:30|265:30|226:48|178:293|122:363|22:370|-6:330|2:107|34:61|99:79|145:135|242:329|292:341|382:309|469:278,1,1085
463,274,203664,2,0,B|471:236|477:173|475:125|463:60|441:54|389:-15|342:89|338:191|339:376|323:319|263:322|237:279|228:60|239:-7|201:-10|178:-14|142:111|131:193|154:357|75:386|29:276|20:192|21:157|32:31,1,1015
116,47,206191,1,0,0:0:0:0:
241,111,206354,1,0,0:0:0:0:
338,175,206517,1,0,0:0:0:0:
257,191,206843,5,0,0:0:0:0:
