osu file format v14

[General]
AudioFilename: Senbonzakura.mp3
AudioLeadIn: 0
PreviewTime: 80061
Countdown: 0
SampleSet: Soft
StackLeniency: 0.7
Mode: 0
LetterboxInBreaks: 0
WidescreenStoryboard: 0

[Editor]
Bookmarks: 30454,55552,68102,80650,105748,118297,130846,143395,168494,174768,187318,203396,212415,228102,253198,270452
DistanceSpacing: 1.5
BeatDivisor: 4
GridSize: 32
TimelineZoom: 1.6

[Metadata]
Title:Senbonzakura
TitleUnicode:千本桜
Artist:Wagakki Band
ArtistUnicode:和楽器バンド
Creator:pkk
Version:Hard
Source:
Tags:Vocalo Zanmai ボカロ三昧 Yasou Emaki 八奏絵巻 pkmnyab
BeatmapID:1035280
BeatmapSetID:427508

[Difficulty]
HPDrainRate:5
CircleSize:4
OverallDifficulty:5.5
ApproachRate:7.5
SliderMultiplier:1.5
SliderTickRate:1

[Events]
//Background and Video events
0,0,"BG.png",0,0
Video,-70,"senbonzakura.avi"
//Break Periods
2,212615,223355
//Storyboard Layer 0 (Background)
//Storyboard Layer 1 (Fail)
//Storyboard Layer 2 (Pass)
//Storyboard Layer 3 (Foreground)
//Storyboard Sound Samples

[TimingPoints]
6142,392.156862745098,4,2,2,60,1,0
6142,-100,4,2,2,60,0,0
6240,-100,4,2,2,20,0,0
6338,-100,4,2,2,60,0,0
12416,-100,4,2,2,60,0,0
12906,-100,4,2,2,20,0,0
13004,-100,4,2,2,60,0,0
13102,-100,4,2,2,20,0,0
13200,-100,4,2,2,60,0,0
13298,-100,4,2,2,20,0,0
13396,-100,4,2,2,60,0,0
13494,-100,4,2,2,20,0,0
13592,-100,4,2,2,60,0,0
13691,-100,4,2,2,20,0,0
13789,-100,4,2,2,60,0,0
13887,-100,4,2,2,20,0,0
13985,-100,4,2,2,60,0,0
14083,-100,4,2,2,20,0,0
14181,-100,4,2,2,60,0,0
14279,-100,4,2,2,20,0,0
14377,-100,4,2,2,60,0,0
14475,-100,4,2,2,20,0,0
14573,-100,4,2,2,60,0,0
14671,-100,4,2,2,20,0,0
14769,-100,4,2,2,60,0,0
14965,-100,4,2,2,40,0,0
15161,-100,4,2,2,60,0,0
15847,-100,4,2,2,40,0,0
16043,-100,4,2,2,20,0,0
16142,-100,4,2,2,60,0,0
16240,-100,4,2,2,20,0,0
16338,-100,4,2,2,60,0,0
16436,-100,4,2,2,20,0,0
16534,-100,4,2,2,60,0,0
16632,-100,4,2,2,20,0,0
16730,-100,4,2,2,60,0,0
16828,-100,4,2,2,20,0,0
16926,-100,4,2,2,60,0,0
17024,-100,4,2,2,20,0,0
17122,-100,4,2,2,60,0,0
17220,-100,4,2,2,20,0,0
17318,-100,4,2,2,60,0,0
17416,-100,4,2,2,30,0,0
17514,-100,4,2,2,60,0,0
17612,-100,4,2,2,20,0,0
17710,-100,4,2,2,60,0,0
17808,-100,4,2,2,20,0,0
17906,-100,4,2,2,60,0,0
18396,-100,4,2,2,20,0,0
18494,-100,4,2,2,60,0,0
18592,-100,4,2,2,20,0,0
18691,-100,4,2,2,60,0,0
18887,-100,4,2,2,60,0,0
18985,-100,4,2,2,60,0,0
19181,-100,4,2,2,20,0,0
19279,-100,4,2,2,60,0,0
19377,-100,4,2,2,20,0,0
19475,-100,4,2,2,60,0,0
19573,-100,4,2,2,20,0,0
19671,-100,4,2,2,60,0,0
19769,-100,4,2,2,20,0,0
19867,-100,4,2,2,60,0,0
19965,-100,4,2,2,20,0,0
20063,-100,4,2,2,60,0,0
20161,-100,4,2,2,20,0,0
20259,-100,4,2,2,60,0,0
20357,-100,4,2,2,20,0,0
20455,-100,4,2,2,60,0,0
20553,-100,4,2,2,20,0,0
20651,-100,4,2,2,60,0,0
20749,-100,4,2,2,20,0,0
20847,-100,4,2,2,60,0,0
20945,-100,4,2,2,20,0,0
21043,-100,4,2,2,60,0,0
21240,-100,4,2,2,20,0,0
21338,-100,4,2,2,60,0,0
21926,-100,4,2,2,20,0,0
22024,-100,4,2,2,60,0,0
22122,-100,4,2,2,20,0,0
22220,-100,4,2,2,60,0,0
22318,-100,4,2,2,20,0,0
22416,-100,4,2,2,60,0,0
22514,-100,4,2,2,20,0,0
22612,-100,4,2,2,60,0,0
22710,-100,4,2,2,20,0,0
22808,-100,4,2,2,60,0,0
22906,-100,4,2,2,20,0,0
23004,-100,4,2,2,60,0,0
23102,-100,4,2,2,20,0,0
23200,-100,4,2,2,60,0,0
23298,-100,4,2,2,20,0,0
23396,-100,4,2,2,60,0,0
23494,-100,4,2,2,20,0,0
23592,-100,4,2,2,60,0,0
24180,-100,4,1,1,60,0,0
26828,-100,4,1,1,20,0,0
26926,-100,4,1,1,60,0,0
27220,-100,4,1,1,20,0,0
27318,-100,4,1,1,60,0,0
29671,-100,4,1,2,60,0,0
30063,-100,4,1,2,75,0,0
30455,392.156862745098,4,1,1,60,1,0
30455,-100,4,1,1,60,0,0
54180,-100,4,1,1,15,0,0
54278,-100,4,1,1,60,0,0
54474,-100,4,1,1,15,0,0
54572,-100,4,1,1,60,0,0
55553,-133.333333333333,4,2,2,45,0,0
59669,-133.333333333333,4,2,2,20,0,0
59767,-133.333333333333,4,2,2,45,0,0
59963,-133.333333333333,4,2,2,20,0,0
60061,-133.333333333333,4,2,2,45,0,0
65944,-133.333333333333,4,2,2,20,0,0
66042,-133.333333333333,4,2,2,45,0,0
66238,-133.333333333333,4,2,2,20,0,0
66336,-100,4,2,2,45,0,0
68102,-100,4,2,2,65,0,0
68200,-100,4,2,2,25,0,0
68298,-100,4,2,2,65,0,0
68592,-100,4,2,2,25,0,0
68690,-100,4,2,2,65,0,0
68788,-100,4,2,2,25,0,0
68886,-100,4,2,2,65,0,0
68984,-100,4,2,2,25,0,0
69082,-100,4,2,2,65,0,0
69180,-100,4,2,2,25,0,0
69278,-100,4,2,2,65,0,0
69376,-100,4,2,2,25,0,0
69474,-100,4,2,2,65,0,0
70356,-100,4,2,2,25,0,0
70454,-100,4,2,2,65,0,0
70553,-100,4,2,2,25,0,0
70651,-100,4,2,2,65,0,0
71337,-100,4,2,2,25,0,0
71435,-100,4,2,2,65,0,0
71729,-100,4,2,2,25,0,0
71827,-100,4,2,2,65,0,0
72513,-100,4,2,2,25,0,0
72611,-100,4,2,2,65,0,0
73494,-100,4,2,2,25,0,0
73592,-100,4,2,2,65,0,0
74082,-100,4,2,2,25,0,0
74180,-100,4,2,2,65,0,0
74278,-100,4,2,2,25,0,0
74376,-100,4,2,2,65,0,0
74474,-100,4,2,2,25,0,0
74572,-100,4,2,2,65,0,0
74866,-100,4,2,2,25,0,0
74964,-100,4,2,2,65,0,0
75062,-100,4,2,2,25,0,0
75160,-100,4,2,2,65,0,0
75258,-100,4,2,2,25,0,0
75356,-100,4,2,2,65,0,0
75651,-100,4,2,2,25,0,0
75749,-100,4,2,2,65,0,0
75847,-100,4,2,2,25,0,0
75945,-100,4,2,2,65,0,0
77512,-100,4,1,1,65,0,0
78787,-100,4,1,1,20,0,0
78885,-100,4,1,1,50,0,0
78983,-100,4,1,1,20,0,0
79081,-100,4,1,1,50,0,0
80257,-100,4,2,2,30,0,0
80553,-100,4,2,1,20,0,0
80651,-100,4,1,1,70,0,1
91730,-100,4,1,1,20,0,1
91828,-100,4,1,1,70,0,1
91926,-100,4,1,1,20,0,1
92024,-100,4,1,1,70,0,1
92807,-100,4,1,1,65,0,0
93200,-100,4,1,1,70,0,1
93983,-100,4,1,1,70,0,1
101142,-100,4,1,1,20,0,1
101240,-100,4,1,1,70,0,1
101534,-100,4,1,1,20,0,1
101632,-100,4,1,1,70,0,1
101730,-100,4,1,1,20,0,1
101828,-100,4,1,1,70,0,1
105749,-100,4,1,1,65,0,0
110551,-100,4,1,1,20,0,0
110650,-100,4,1,1,60,0,0
111140,-100,4,1,1,20,0,0
111238,-100,4,1,1,60,0,0
118297,-100,4,1,2,60,0,0
123002,-100,4,1,2,60,0,0
124571,-100,4,1,1,60,0,0
130846,-100,4,2,2,65,0,0
140258,-100,4,1,1,60,0,0
143396,-100,4,1,1,70,0,1
154474,-100,4,1,1,20,0,1
154572,-100,4,1,1,70,0,1
154670,-100,4,1,1,20,0,1
154768,-100,4,1,1,70,0,1
155553,-100,4,1,1,65,0,0
155945,-100,4,1,1,70,0,1
163886,-100,4,1,1,20,0,1
163984,-100,4,1,1,70,0,1
164278,-100,4,1,1,20,0,1
164376,-100,4,1,1,70,0,1
164474,-100,4,1,1,20,0,1
164572,-100,4,1,1,70,0,1
168494,-100,4,1,2,55,0,0
173787,-100,4,1,1,40,0,0
173983,-100,4,1,1,55,0,0
174375,-100,4,1,1,70,0,0
174767,-100,4,1,2,65,0,0
181091,-100,4,1,1,20,0,0
181238,-100,4,1,1,65,0,0
181287,-100,4,1,1,20,0,0
181434,-100,4,1,1,65,0,0
181483,-100,4,1,1,20,0,0
181630,-100,4,1,1,65,0,0
181679,-100,4,1,1,20,0,0
181826,-100,4,1,1,65,0,0
181875,-100,4,1,1,20,0,0
182022,-100,4,1,1,65,0,0
182071,-100,4,1,1,20,0,0
182218,-100,4,1,1,65,0,0
182267,-100,4,1,1,20,0,0
182414,-100,4,1,1,65,0,0
182463,-100,4,1,1,20,0,0
182610,-100,4,1,1,65,0,0
182659,-100,4,1,1,20,0,0
182806,-100,4,1,1,65,0,0
182856,-100,4,1,1,20,0,0
183004,-100,4,1,1,65,0,0
183051,-100,4,1,1,20,0,0
183198,-100,4,1,1,65,0,0
183247,-100,4,1,1,20,0,0
183395,-100,4,1,1,65,0,0
183444,-100,4,1,1,20,0,0
183591,-100,4,1,1,65,0,0
183640,-100,4,1,1,20,0,0
183787,-100,4,1,1,65,0,0
183836,-100,4,1,1,20,0,0
183983,-100,4,1,1,65,0,0
184032,-100,4,1,1,20,0,0
184179,-100,4,1,1,65,0,0
184228,-100,4,1,1,20,0,0
184375,-100,4,1,1,65,0,0
184424,-100,4,1,1,20,0,0
184571,-100,4,1,1,65,0,0
184620,-100,4,1,1,20,0,0
184767,-100,4,1,1,65,0,0
184816,-100,4,1,1,20,0,0
184963,-100,4,1,1,65,0,0
185012,-100,4,1,1,20,0,0
185159,-100,4,1,1,65,0,0
185208,-100,4,1,1,20,0,0
185355,-100,4,1,1,65,0,0
185404,-100,4,1,1,20,0,0
185551,-100,4,1,1,65,0,0
185600,-100,4,1,1,20,0,0
185747,-100,4,1,1,70,0,0
187317,-100,4,1,1,55,0,1
197121,-100,4,1,1,90,0,1
197219,-100,4,1,1,55,0,1
199278,-100,4,1,2,65,0,1
199866,-100,4,2,2,65,0,0
209278,-100,4,1,1,65,0,0
212024,-100,4,1,1,35,0,0
225749,-100,4,1,2,60,0,0
226534,-100,4,1,2,70,0,0
226925,-100,4,2,1,20,0,0
227709,-133.333333333333,4,1,2,35,0,0
228004,-100,4,1,2,20,0,0
228102,-100,4,1,1,75,0,1
240651,-100,4,1,1,70,0,0
269671,-100,4,1,2,40,0,0
270062,-100,4,2,2,5,0,0

[Colours]
Combo1 : 251,170,170
Combo2 : 238,205,200
Combo3 : 197,208,226
Combo4 : 244,202,233

[HitObjects]
71,104,6142,6,0,L|145:94,1,75,2|0,1:0|1:0,0:0:0:0:
240,134,6534,1,0,1:0:0:0:
240,134,6730,1,2,1:0:0:0:
319,78,6926,2,0,P|338:110|356:143,1,75,0|0,1:0|1:0,0:0:0:0:
354,240,7318,2,0,P|316:235|279:229,1,75,0|0,1:0|1:0,0:0:0:0:
190,266,7710,6,0,P|156:282|120:293,1,75,0|2,1:0|1:0,0:0:0:0:
45,230,8102,2,0,L|32:156,1,75,0|0,1:0|1:0,0:0:0:0:
55,61,8494,1,2,1:0:0:0:
135,117,8691,1,0,1:0:0:0:
220,69,8887,2,0,P|256:61|293:54,1,75,0|2,1:0|1:0,0:0:0:0:
381,95,9279,6,0,P|394:129|404:165,1,75,2|0,1:0|1:0,0:0:0:0:
384,210,9573,1,0,1:0:0:0:
383,210,9671,2,0,P|347:216|310:224,1,75,0|2,1:0|1:0,0:0:0:0:
234,286,10063,2,0,P|270:295|307:302,1,75,0|2,1:0|1:0,0:0:0:0:
335,341,10357,1,0,1:0:0:0:
335,340,10455,2,0,L|408:326,1,75,2|0,1:0|1:0,0:0:0:0:
497,215,10847,6,0,L|492:327,2,112.5,2|2|2,1:0|1:0|1:0,0:0:0:0:
497,215,11632,1,2,1:0:0:0:
378,125,12416,6,0,P|345:144|310:158,1,75,0|0,1:0|1:0,0:0:0:0:
262,160,12710,1,0,0:0:0:0:
262,160,12808,2,0,L|187:151,1,75,2|2,1:0|1:0,0:0:0:0:
102,199,13200,2,0,P|75:174|45:151,1,75,2|0,1:0|1:0,0:0:0:0:
115,82,13593,2,0,P|142:57|172:34,1,75,2|0,1:0|1:0,0:0:0:0:
264,67,13985,5,2,1:0:0:0:
264,67,14181,1,0,1:0:0:0:
354,30,14377,1,2,1:0:0:0:
354,30,14573,1,2,1:0:0:0:
437,80,14769,2,0,L|424:153,1,75,2|2,1:0|1:0,0:0:0:0:
392,191,15063,1,2,0:1:0:0:
392,191,15161,2,0,L|404:265,1,75,2|2,1:0|1:0,0:0:0:0:
338,335,15553,6,0,P|301:327|264:320,1,75,2|0,1:0|1:0,0:0:0:0:
218,336,15847,1,2,0:1:0:0:
218,336,15945,2,0,P|181:328|144:321,1,75,2|2,1:0|1:0,0:0:0:0:
145,223,16338,2,0,P|163:190|182:158,1,75,2|0,1:0|1:0,0:0:0:0:
275,128,16730,2,0,P|256:95|237:63,1,75,2|2,1:0|1:0,0:0:0:0:
143,40,17122,5,2,1:0:0:0:
143,40,17318,1,0,1:0:0:0:
66,100,17514,1,2,1:0:0:0:
66,100,17710,1,2,1:0:0:0:
112,185,17906,2,0,P|116:222|120:259,1,75,2|2,1:0|1:0,0:0:0:0:
149,298,18200,1,2,0:1:0:0:
148,297,18298,2,0,P|183:286|220:280,1,75,2|2,1:0|1:0,0:0:0:0:
281,204,18691,6,0,P|245:197|209:186,1,75,2|0,1:0|1:0,0:0:0:0:
176,150,18985,1,2,0:1:0:0:
175,149,19083,2,0,P|159:116|147:80,1,75,2|2,1:0|1:0,0:0:0:0:
230,30,19475,2,0,B|258:41|258:41|282:33|282:33|300:38,1,75,2|0,1:0|1:0,0:0:0:0:
359,116,19867,2,0,B|377:110|377:110|401:118|401:118|429:107,1,75,2|2,1:0|1:0,0:0:0:0:
492,180,20259,6,0,P|477:213|466:249,1,75,2|0,1:0|1:0,0:0:0:0:
369,254,20651,2,0,P|375:291|387:327,1,75,2|2,1:0|1:0,0:0:0:0:
303,376,21044,1,2,1:0:0:0:
224,316,21240,1,2,1:0:0:0:
224,316,21338,1,2,0:1:0:0:
224,316,21436,2,0,L|149:305,1,75,2|0,1:0|1:0,0:0:0:0:
80,234,21828,6,0,P|102:204|119:171,1,75,2|0,1:0|1:0,0:0:0:0:
215,193,22220,2,0,P|209:156|198:121,1,75,2|2,1:0|1:0,0:0:0:0:
233,29,22612,2,0,P|264:52|288:80,1,75,2|0,1:0|1:0,0:0:0:0:
377,42,23004,2,0,P|383:80|379:117,1,75,2|0,1:0|1:0,0:0:0:0:
305,179,23396,5,2,1:0:0:0:
366,254,23593,1,0,1:0:0:0:
269,269,23789,2,0,L|194:266,1,75,2|2,1:0|1:0,0:0:0:0:
134,189,24181,6,0,B|149:147|149:147|135:122|135:122|146:84,2,112.5,4|4|0,0:0|0:0|0:0,0:0:0:0:
98,279,24965,2,0,B|54:287|54:287|39:311|39:311|0:319,2,112.5,4|4|0,0:0|0:0|0:0,0:0:0:0:
194,266,25749,2,0,B|222:299|222:299|251:300|251:300|277:329,2,112.5,4|4|0,0:0|0:0|0:0,0:0:0:0:
223,172,26534,2,0,B|281:166|281:166|311:191|311:191|363:185,1,150,4|4,0:0|0:0,0:0:0:0:
191,91,27318,6,0,P|151:128|136:182,2,112.5,4|4|0,0:0|0:0|0:0,0:0:0:0:
289,96,28102,2,0,P|275:43|236:3,2,112.5,4|4|0,0:0|0:0|0:0,0:0:0:0:
234,178,28887,5,4,0:0:0:0:
428,178,29279,1,4,0:0:0:0:
308,41,29671,2,0,L|233:32,1,75,4|0,0:0|0:0,0:0:0:0:
120,88,30063,2,0,L|82:92,1,37.5,4|0,0:0|0:0,0:0:0:0:
41,118,30259,2,0,L|26:152,1,37.5,0|0,0:0|0:0,0:0:0:0:
43,198,30455,6,0,P|53:234|62:270,1,75,4|10,3:1|3:2,0:0:0:0:
156,294,30847,2,0,L|188:275,3,37.5,0|0|10|0,3:0|3:0|3:1|3:0,0:0:0:0:
234,292,31239,2,0,P|270:301|306:309,1,75,4|10,3:1|3:2,0:0:0:0:
398,277,31631,2,0,L|416:243,3,37.5,0|0|10|0,3:0|3:0|3:1|3:0,0:0:0:0:
440,201,32023,6,0,B|423:138|420:128,1,75,4|10,3:1|3:2,0:0:0:0:
336,78,32415,2,0,L|325:113,3,37.5,0|0|10|0,3:0|3:0|3:1|3:0,0:0:0:0:
291,148,32807,2,0,P|257:165|220:173,1,75,2|8,3:0|3:1,0:0:0:0:
175,156,33102,1,0,3:0:0:0:
174,155,33200,2,0,P|140:138|103:130,1,75,0|8,3:0|0:0,0:0:0:0:
30,194,33592,6,0,L|42:267,1,75,4|10,3:1|3:2,0:0:0:0:
129,310,33984,2,0,L|152:280,3,37.5,0|0|10|0,3:0|3:0|3:1|3:0,0:0:0:0:
179,240,34376,2,0,L|166:166,1,75,4|10,3:1|3:2,0:0:0:0:
207,77,34768,2,0,L|240:93,3,37.5,0|0|10|0,3:0|3:0|3:1|3:0,0:0:0:0:
287,101,35160,6,0,P|324:90|360:81,1,75,4|10,3:1|3:1,0:0:0:0:
421,157,35553,2,0,P|458:166|494:176,1,75,0|10,3:0|3:1,0:0:0:0:
484,273,35945,2,0,L|447:282,3,37.5,2|2|8|2,3:0|3:0|3:2|3:0,0:0:0:0:
400,295,36337,1,2,3:0:0:0:
323,234,36533,1,10,3:1:0:0:
323,234,36631,1,8,0:0:0:0:
322,234,36729,6,0,P|286:225|249:218,1,75,4|10,3:1|3:2,0:0:0:0:
168,163,37121,2,0,L|149:195,3,37.5,0|0|10|0,3:0|3:0|3:1|3:0,0:0:0:0:
111,225,37513,2,0,P|114:263|120:300,1,75,4|10,3:1|3:2,0:0:0:0:
198,359,37906,2,0,L|233:369,3,37.5,0|0|10|0,3:0|3:0|3:1|3:0,0:0:0:0:
279,350,38298,6,0,P|313:335|348:322,1,75,4|10,3:1|3:2,0:0:0:0:
443,302,38690,2,0,L|456:267,3,37.5,0|0|10|0,3:0|3:0|3:1|3:0,0:0:0:0:
479,223,39082,2,0,P|475:185|466:149,1,75,2|8,3:0|3:1,0:0:0:0:
431,117,39376,1,0,3:0:0:0:
430,116,39474,2,0,P|395:105|358:100,1,75,0|8,3:0|0:0,0:0:0:0:
292,173,39866,6,0,P|257:184|220:189,1,75,4|8,3:1|3:1,0:0:0:0:
173,176,40160,1,0,3:0:0:0:
173,175,40258,2,0,P|147:203|126:234,1,75,2|8,3:0|0:0,0:0:0:0:
142,281,40553,1,0,2:0:0:0:
142,281,40651,2,0,P|167:308|187:340,1,75,2|8,3:0|0:0,0:0:0:0:
277,302,41043,2,0,L|285:265,1,37.5,0|2,3:0|3:1,0:0:0:0:
318,229,41239,2,0,L|309:192,1,37.5,8|2,0:0|3:0,0:0:0:0:
325,146,41435,6,0,P|361:155|398:153,1,75,4|10,0:0|0:0,0:0:0:0:
435,121,41729,1,4,0:0:0:0:
434,120,41827,2,0,P|424:85|404:53,1,75,2|2,3:0|3:0,0:0:0:0:
306,53,42219,2,0,P|257:78|202:73,1,112.5,2|8,3:0|0:0,0:0:0:0:
157,54,42611,2,0,L|150:90,1,37.5,4|0,3:1|2:0,0:0:0:0:
111,119,42807,2,0,L|113:156,1,37.5,0|0,3:0|2:0,0:0:0:0:
135,200,43004,5,4,3:1:0:0:
83,282,43200,1,10,3:2:0:0:
163,336,43396,2,0,L|199:344,3,37.5,0|0|10|0,3:0|3:0|3:1|3:0,0:0:0:0:
246,356,43788,1,4,3:1:0:0:
321,293,43984,1,10,3:2:0:0:
259,217,44180,2,0,L|256:179,3,37.5,0|0|10|0,3:0|3:0|3:1|3:0,0:0:0:0:
288,142,44572,5,4,3:1:0:0:
224,68,44768,1,10,3:2:0:0:
140,118,44964,2,0,L|103:125,3,37.5,0|0|10|0,3:0|3:0|3:1|3:0,0:0:0:0:
54,113,45357,2,0,P|40:147|31:183,1,75,2|10,3:0|3:1,0:0:0:0:
55,227,45651,1,0,3:0:0:0:
54,226,45749,2,0,P|69:261|78:298,1,75,0|10,3:0|0:0,0:0:0:0:
167,259,46141,5,4,3:1:0:0:
245,316,46337,1,10,3:2:0:0:
333,276,46533,2,0,L|369:266,3,37.5,0|0|10|0,3:0|3:0|3:1|3:0,0:0:0:0:
415,251,46925,1,4,3:1:0:0:
366,166,47121,1,10,3:2:0:0:
432,95,47317,2,0,L|440:58,3,37.5,0|0|10|0,3:0|3:0|3:1|3:0,0:0:0:0:
412,18,47709,5,4,3:1:0:0:
326,65,47906,1,10,3:1:0:0:
233,31,48102,1,0,3:0:0:0:
249,127,48298,1,10,3:1:0:0:
157,92,48494,2,0,L|120:83,1,37.5,2|2,3:0|3:0,0:0:0:0:
80,110,48690,2,0,L|87:146,1,37.5,8|2,3:2|3:0,0:0:0:0:
117,185,48886,2,0,P|113:222|107:259,1,75,2|10,3:0|3:1,0:0:0:0:
74,295,49180,1,8,0:0:0:0:
74,295,49278,5,4,3:1:0:0:
152,352,49474,1,10,3:2:0:0:
240,310,49670,2,0,L|276:300,3,37.5,0|0|10|0,3:0|3:0|3:1|3:0,0:0:0:0:
323,287,50062,1,4,3:1:0:0:
379,207,50258,1,10,3:2:0:0:
308,138,50455,2,0,L|271:128,3,37.5,0|0|10|0,3:0|3:0|3:1|3:0,0:0:0:0:
224,116,50847,5,4,3:1:0:0:
147,176,51043,1,10,3:2:0:0:
78,106,51239,2,0,L|88:69,3,37.5,0|0|10|0,3:0|3:0|3:1|3:0,0:0:0:0:
125,39,51631,2,0,P|161:27|199:25,1,75,2|8,3:0|3:1,0:0:0:0:
239,53,51925,1,0,3:0:0:0:
238,52,52023,2,0,P|275:63|312:65,1,75,0|8,3:0|0:0,0:0:0:0:
406,44,52415,6,0,P|415:59|423:76,3,37.5,0|0|10|0,3:0|3:0|3:1|3:0,0:0:0:0:
456,113,52807,2,0,P|450:132|443:149,3,37.5,0|0|10|0,3:0|3:0|3:1|3:0,0:0:0:0:
412,186,53200,1,2,3:1:0:0:
319,154,53396,1,10,3:1:0:0:
241,213,53592,2,0,L|247:287,1,75,2|10,3:1|3:1,0:0:0:0:
161,333,53984,6,0,L|154:258,1,75,4|0,0:0|0:0,0:0:0:0:
110,236,54278,2,0,L|122:162,1,75,4|0,0:0|0:0,0:0:0:0:
139,116,54572,1,4,0:0:0:0:
235,106,54768,2,0,P|298:115|279:54,1,150,4|4,0:0|0:3,0:0:0:0:
64,60,55553,6,0,L|73:172,1,112.5,6|0,0:1|0:0,0:0:0:0:
127,236,56141,1,2,0:0:0:0:
127,235,56337,2,0,P|180:218|236:209,1,112.500004291535,8|0,0:0|0:0,0:0:0:0:
385,210,57121,6,0,P|404:173|416:133,2,84.3750032186509,6|2|2,0:1|0:0|0:0,0:0:0:0:
309,248,57906,2,0,P|267:250|226:259,2,84.3750032186509,10|8|2,0:0|0:0|0:0,0:0:0:0:
383,291,58690,6,0,P|422:330|476:343,1,112.500004291535,6|0,0:1|0:0,0:0:0:0:
467,259,59278,1,0,0:0:0:0:
467,259,59474,2,0,B|475:175,2,84.3750032186509,8|8|10,0:0|0:0|0:0,0:0:0:0:
405,316,60258,6,0,P|351:329|298:313,1,112.500004291535,6|0,0:1|0:0,0:0:0:0:
235,257,60847,1,2,0:0:0:0:
178,194,61043,2,0,P|138:181|96:187,1,84.3750032186509,8|8,0:0|0:0,0:0:0:0:
56,199,61435,2,0,P|42:175|37:148,1,56.2500021457673,10|0,0:0|0:0,0:0:0:0:
84,78,61827,6,0,B|155:93|155:93|193:81,1,112.500004291535,6|0,0:1|0:0,0:0:0:0:
273,54,62415,2,0,L|258:165,1,112.500004291535,2|0,1:3|0:0,0:0:0:0:
311,231,63004,1,2,1:3:0:0:
311,231,63200,1,2,0:0:0:0:
392,214,63396,6,0,P|416:249|430:289,1,84.3750032186509,6|0,0:3|1:0,0:0:0:0:
414,328,63788,2,0,P|398:350|374:365,1,56.2500021457673,2|2,1:3|0:1,0:0:0:0:
290,367,64180,1,2,1:3:0:0:
290,367,64376,1,0,1:0:0:0:
226,311,64572,2,0,P|199:300|172:293,1,56.2500021457673,2|2,1:3|0:0,0:0:0:0:
95,327,64964,6,0,P|49:262|87:191,1,168.750006437302,6|2,0:1|0:0,0:0:0:0:
162,151,65749,2,0,L|217:158,1,56.2500021457673,8|0,0:0|0:0,0:0:0:0:
258,171,66043,2,0,L|313:163,1,56.2500021457673,8|0,0:0|0:0,0:0:0:0:
361,132,66337,1,2,0:0:0:0:
463,177,66533,6,0,P|454:214|448:251,1,75,6|0,0:1|0:0,0:0:0:0:
407,276,66827,1,2,0:0:0:0:
407,276,66925,2,0,P|371:265|334:259,1,75,8|0,0:0|0:0,0:0:0:0:
257,319,67317,2,0,P|221:330|184:336,1,75,2|8,1:0|0:3,0:0:0:0:
88,354,67709,2,0,P|69:350|52:343,1,37.5,2|8,0:0|0:0,0:0:0:0:
15,310,67906,2,0,P|12:291|13:272,1,37.5,2|2,0:3|0:0,0:0:0:0:
51,242,68102,6,0,P|58:205|64:168,1,75,2|0,1:0|1:0,0:0:0:0:
20,80,68494,1,8,1:0:0:0:
105,32,68690,1,0,1:0:0:0:
176,97,68886,2,0,P|213:107|249:115,1,75,0|2,1:0|1:0,0:0:0:0:
312,189,69278,2,0,P|275:198|239:206,1,75,8|0,1:0|1:0,0:0:0:0:
146,173,69670,5,2,1:0:0:0:
66,229,69866,1,0,1:0:0:0:
66,229,69964,1,2,0:0:0:0:
66,229,70062,2,0,L|70:303,1,75,8|0,1:0|1:0,0:0:0:0:
151,359,70455,1,0,1:0:0:0:
228,300,70651,1,0,1:0:0:0:
314,345,70847,2,0,L|388:356,1,75,8|0,1:0|1:0,0:0:0:0:
475,312,71239,5,6,1:0:0:0:
416,234,71435,1,0,1:0:0:0:
472,154,71631,2,0,P|480:117|485:80,1,75,8|0,1:0|1:0,0:0:0:0:
390,56,72023,2,0,P|356:71|320:85,1,75,0|0,1:0|1:0,0:0:0:0:
255,157,72415,2,0,P|220:145|187:128,1,75,8|0,1:0|1:0,0:0:0:0:
107,73,72807,6,0,P|140:139|134:213,1,150,6|8,1:0|1:0,0:0:0:0:
66,284,73396,1,2,1:0:0:0:
145,338,73592,2,0,P|215:310|287:288,1,150,0|0,1:0|1:0,0:0:0:0:
378,323,74180,1,0,1:0:0:0:
471,293,74376,6,0,P|483:258|490:221,1,75,6|0,1:0|1:0,0:0:0:0:
413,159,74768,2,0,P|401:124|394:87,1,75,8|0,1:0|1:0,0:0:0:0:
310,39,75160,1,0,1:0:0:0:
242,108,75357,1,0,1:0:0:0:
159,54,75553,2,0,P|122:62|85:72,1,75,8|0,1:0|1:0,0:0:0:0:
35,156,75945,6,0,P|72:164|108:173,1,75,6|0,1:0|1:0,0:0:0:0:
156,185,76239,1,8,0:0:0:0:
156,185,76337,2,0,P|192:177|229:169,1,75,2|0,1:0|1:0,0:0:0:0:
306,110,76729,1,0,1:0:0:0:
344,199,76925,1,2,1:0:0:0:
436,167,77121,1,8,1:0:0:0:
276,279,77513,5,4,1:0:0:0:
276,279,77709,1,4,1:0:0:0:
132,146,78102,1,0,1:0:0:0:
132,146,78298,2,0,B|90:126|90:126|99:229,1,150,4|4,1:0|1:0,0:0:0:0:
152,310,78886,1,4,1:0:0:0:
230,252,79082,5,4,1:0:0:0:
310,307,79278,1,0,0:0:0:0:
390,252,79474,1,4,1:0:0:0:
369,156,79670,1,4,1:0:0:0:
50,146,80651,6,0,P|83:130|120:124,1,75,12|0,0:0|3:0,0:0:0:0:
182,49,81043,2,0,P|218:62|248:84,1,75,8|2,0:0|3:2,0:0:0:0:
322,147,81435,1,10,0:3:0:0:
408,102,81631,1,0,3:0:0:0:
408,102,81729,1,0,3:0:0:0:
408,102,81827,2,0,L|403:176,1,75,8|0,0:0|3:0,0:0:0:0:
356,262,82219,5,10,0:0:0:0:
356,262,82415,1,0,3:0:0:0:
273,210,82611,1,10,0:0:0:0:
273,210,82807,1,0,3:0:0:0:
200,276,83004,2,0,L|126:292,1,75,10|0,0:3|3:0,0:0:0:0:
52,214,83396,2,0,L|125:197,1,75,10|0,0:3|3:0,0:0:0:0:
186,123,83788,6,0,P|220:137|257:142,1,75,8|0,0:0|3:0,0:0:0:0:
298,116,84082,1,0,3:0:0:0:
297,115,84180,2,0,P|331:101|368:96,1,75,8|0,0:0|3:0,0:0:0:0:
452,145,84572,2,0,L|445:219,1,75,8|0,0:0|3:0,0:0:0:0:
356,259,84964,2,0,L|349:333,1,75,8|0,0:0|3:0,0:0:0:0:
256,363,85357,5,8,0:0:0:0:
256,363,85553,1,0,3:0:0:0:
181,299,85749,1,8,0:0:0:0:
181,299,85945,1,0,3:0:0:0:
218,208,86141,2,0,P|226:172|229:135,1,75,8|0,0:0|3:0,0:0:0:0:
123,74,86533,2,0,P|125:112|134:148,1,75,8|0,0:0|3:0,0:0:0:0:
228,136,86925,6,0,L|302:127,1,75,12|0,0:0|3:0,0:0:0:0:
346,148,87219,1,0,2:0:0:0:
346,148,87317,2,0,L|420:139,1,75,8|0,0:0|3:0,0:0:0:0:
470,223,87709,2,0,P|460:259|452:295,1,75,10|0,0:0|3:0,0:0:0:0:
366,343,88102,2,0,P|330:331|293:324,1,75,10|0,0:0|3:0,0:0:0:0:
199,350,88494,5,8,0:0:0:0:
199,350,88690,1,0,3:0:0:0:
135,276,88886,1,8,0:0:0:0:
135,276,89082,1,0,3:0:0:0:
194,197,89278,2,0,P|205:162|212:125,1,75,10|0,0:3|3:0,0:0:0:0:
309,121,89670,2,0,P|300:85|284:51,1,75,10|0,0:3|3:0,0:0:0:0:
189,28,90062,6,0,P|141:58|87:75,1,112.5,8|0,0:0|2:0,0:0:0:0:
47,103,90455,2,0,P|94:133|148:149,1,112.5,8|0,0:0|2:0,0:0:0:0:
187,177,90847,2,0,P|241:163|297:160,1,112.5,8|0,0:0|3:0,0:0:0:0:
330,195,91239,2,0,P|315:248|290:299,1,112.5,8|0,0:0|0:0,0:0:0:0:
252,329,91631,5,8,0:0:0:0:
252,329,91827,1,0,3:0:0:0:
170,276,92023,1,8,0:0:0:0:
170,276,92219,1,0,3:0:0:0:
81,317,92415,2,0,P|55:291|37:258,1,75,8|0,0:0|3:0,0:0:0:0:
30,161,92807,2,0,P|34:142|43:126,1,37.5,8|0,0:0|3:0,0:0:0:0:
80,91,93004,2,0,P|94:79|110:71,1,37.5,0|0,3:0|3:0,0:0:0:0:
155,87,93200,6,0,P|190:101|228:104,1,75,12|0,0:0|3:0,0:0:0:0:
271,83,93494,1,0,2:0:0:0:
271,82,93592,2,0,P|305:68|342:64,1,75,8|2,0:0|3:2,0:0:0:0:
416,130,93984,2,0,P|400:163|386:199,1,75,10|0,0:3|3:0,0:0:0:0:
290,214,94376,2,0,P|297:251|307:288,1,75,8|0,0:0|3:0,0:0:0:0:
233,351,94768,5,10,0:0:0:0:
233,351,94964,1,0,3:0:0:0:
141,317,95160,1,10,0:0:0:0:
141,317,95357,1,0,3:0:0:0:
175,225,95553,2,0,L|178:150,1,75,10|0,0:3|3:0,0:0:0:0:
260,98,95945,2,0,L|256:172,1,75,10|0,0:3|3:0,0:0:0:0:
320,245,96337,6,0,P|354:261|392:264,1,75,8|0,0:0|3:0,0:0:0:0:
433,238,96631,1,0,3:0:0:0:
433,237,96729,2,0,P|449:204|471:173,1,75,8|0,0:0|3:0,0:0:0:0:
426,86,97121,2,0,P|393:101|356:105,1,75,8|0,0:0|3:0,0:0:0:0:
273,157,97513,2,0,P|239:144|211:119,1,75,8|0,0:0|3:0,0:0:0:0:
142,48,97906,6,0,P|124:82|103:113,1,75,8|0,0:0|3:0,0:0:0:0:
33,180,98298,2,0,P|51:214|72:245,1,75,8|0,0:0|3:0,0:0:0:0:
154,295,98690,2,0,P|189:280|225:271,1,75,8|0,0:0|3:0,0:0:0:0:
317,303,99082,1,8,0:0:0:0:
317,303,99278,1,0,3:0:0:0:
407,266,99474,6,0,P|421:232|429:195,1,75,12|0,0:0|3:0,0:0:0:0:
414,149,99768,1,0,2:0:0:0:
414,148,99866,2,0,P|399:114|386:79,1,75,8|0,0:0|3:0,0:0:0:0:
302,30,100258,2,0,P|265:37|228:43,1,75,10|0,0:0|3:0,0:0:0:0:
162,117,100651,2,0,P|199:124|236:130,1,75,10|0,0:0|3:0,0:0:0:0:
319,182,101043,5,8,0:0:0:0:
319,182,101239,1,0,3:0:0:0:
400,128,101435,1,8,0:0:0:0:
400,128,101631,1,0,3:0:0:0:
470,194,101827,2,0,L|477:268,1,75,10|0,0:3|3:0,0:0:0:0:
387,305,102219,2,0,L|330:353,1,75,10|0,0:3|3:0,0:0:0:0:
238,316,102611,6,0,P|184:303|128:297,1,112.5,8|0,0:0|2:0,0:0:0:0:
83,275,103004,2,0,P|131:245|176:210,1,112.5,8|0,0:0|2:0,0:0:0:0:
218,188,103396,2,0,P|174:155|134:115,1,112.5,8|0,0:0|3:0,0:0:0:0:
151,69,103788,2,0,L|263:58,1,112.5,8|0,0:0|0:0,0:0:0:0:
308,75,104180,5,8,0:0:0:0:
308,75,104376,1,0,3:0:0:0:
365,153,104572,1,8,0:0:0:0:
365,153,104768,1,0,3:0:0:0:
455,117,104964,2,0,L|463:191,1,75,8|2,0:0|3:0,0:0:0:0:
435,231,105258,1,2,3:0:0:0:
435,231,105357,2,0,L|432:268,3,37.5,8|0|2|2,0:0|3:0|3:2|3:2,0:0:0:0:
394,300,105749,5,4,3:1:0:0:
312,246,105945,1,10,3:2:0:0:
225,289,106141,2,0,L|232:325,3,37.5,0|0|10|0,3:0|3:0|3:1|3:0,0:0:0:0:
205,366,106533,1,4,3:1:0:0:
117,322,106729,1,10,3:2:0:0:
125,224,106925,2,0,L|133:187,3,37.5,0|0|10|0,3:0|3:0|3:1|3:0,0:0:0:0:
113,143,107317,5,4,3:1:0:0:
193,88,107513,1,10,3:2:0:0:
265,153,107709,2,0,L|302:159,3,37.5,0|0|10|0,3:0|3:0|3:1|3:0,0:0:0:0:
340,188,108102,2,0,P|376:177|413:168,1,75,2|10,3:0|3:1,0:0:0:0:
452,196,108396,1,0,3:0:0:0:
452,195,108494,2,0,P|450:233|444:270,1,75,0|10,3:0|0:0,0:0:0:0:
368,330,108886,5,4,3:1:0:0:
289,272,109082,1,10,3:2:0:0:
202,317,109278,2,0,L|165:324,3,37.5,0|0|10|0,3:0|3:0|3:1|3:0,0:0:0:0:
117,334,109670,1,4,3:1:0:0:
147,241,109866,1,10,3:2:0:0:
79,170,110062,2,0,L|42:161,3,37.5,0|0|10|0,3:0|3:0|3:1|3:0,0:0:0:0:
9,125,110455,5,4,3:1:0:0:
78,56,110651,1,10,3:1:0:0:
153,117,110847,1,0,3:0:0:0:
232,60,111043,1,10,3:1:0:0:
322,96,111239,2,0,L|332:132,1,37.5,2|2,3:0|3:0,0:0:0:0:
378,147,111435,2,0,L|413:133,1,37.5,8|2,3:2|3:0,0:0:0:0:
459,119,111631,2,0,P|467:155|474:192,1,75,2|10,3:0|3:1,0:0:0:0:
458,238,111925,1,8,0:0:0:0:
458,238,112023,5,4,3:1:0:0:
377,293,112219,1,10,3:2:0:0:
303,226,112415,2,0,P|286:220|268:216,3,37.5,0|0|10|0,3:0|3:0|3:1|3:0,0:0:0:0:
219,218,112807,1,4,3:1:0:0:
257,128,113004,1,10,3:2:0:0:
173,76,113200,2,0,P|155:78|138:85,3,37.5,0|0|10|0,3:0|3:0|3:1|3:0,0:0:0:0:
97,113,113592,5,4,3:1:0:0:
60,203,113788,1,10,3:2:0:0:
156,193,113984,2,0,P|175:197|192:204,3,37.5,0|0|10|0,3:0|3:0|3:1|3:0,0:0:0:0:
229,234,114376,2,0,P|263:251|300:255,1,75,2|8,3:0|3:1,0:0:0:0:
342,232,114670,1,0,3:0:0:0:
341,232,114768,2,0,P|375:214|412:210,1,75,0|8,3:0|0:0,0:0:0:0:
488,150,115160,6,0,L|486:112,3,37.5,0|0|10|0,3:0|3:0|3:1|3:0,0:0:0:0:
444,85,115553,2,0,L|445:47,3,37.5,0|0|10|0,3:0|3:0|3:1|3:0,0:0:0:0:
405,19,115945,1,2,3:1:0:0:
319,65,116141,1,10,3:1:0:0:
228,30,116337,2,0,L|153:22,1,75,2|10,3:1|3:1,0:0:0:0:
72,77,116729,6,0,B|90:130|90:130|74:184,2,112.5,4|4|4,0:0|0:0|0:0,0:0:0:0:
166,102,117513,2,0,L|205:207,1,112.5,4|0,0:0|0:0,0:0:0:0:
205,207,117906,1,4,0:3:0:0:
394,163,118298,6,0,P|362:133|406:132,1,112.5,2|2,0:0|0:0,0:0:0:0:
404,131,118690,1,0,0:0:0:0:
207,233,119866,6,0,P|252:232|219:203,1,112.5,2|2,0:0|0:0,0:0:0:0:
217,203,120258,1,0,0:0:0:0:
110,78,120651,6,0,P|140:110|141:67,1,112.5,2|2,0:0|0:0,0:0:0:0:
136,65,121043,1,0,0:0:0:0:
323,94,121435,6,0,P|279:94|310:62,1,112.5,2|2,0:0|0:0,0:0:0:0:
309,60,121827,1,0,0:0:0:0:
312,62,123004,6,0,L|322:136,1,75,6|2,0:0|0:0,0:0:0:0:
292,174,123298,1,2,0:3:0:0:
291,174,123396,2,0,P|274:206|262:242,1,75,2|2,0:0|0:0,0:0:0:0:
331,311,123788,1,2,0:3:0:0:
244,354,123984,1,2,0:0:0:0:
175,282,124180,2,0,P|124:263|72:283,1,112.5,8|0,0:0|0:0,0:0:0:0:
32,311,124572,6,0,P|8:242|38:175,1,150,6|0,0:0|3:0,0:0:0:0:
127,137,125160,1,2,3:0:0:0:
208,190,125357,2,0,L|281:203,1,75,8|0,0:0|0:0,0:0:0:0:
328,187,125651,1,0,0:0:0:0:
328,187,125749,2,0,L|401:170,1,75,2|0,3:0|0:0,0:0:0:0:
458,91,126141,6,0,B|424:82|424:82|385:86|385:86|348:75,2,112.5,2|0|0,3:0|3:0|3:0,0:0:0:0:
503,177,126925,1,10,3:0:0:0:
427,238,127121,1,0,0:0:0:0:
427,238,127219,1,0,0:0:0:0:
427,238,127317,2,0,L|437:312,1,75,10|0,0:3|0:0,0:0:0:0:
349,353,127709,6,0,B|281:327|279:380|202:351,1,150,4|0,3:1|0:0,0:0:0:0:
142,273,128298,1,0,0:0:0:0:
202,195,128494,2,0,P|238:204|271:220,1,75,8|0,0:0|3:0,0:0:0:0:
310,253,128788,1,0,0:0:0:0:
309,253,128886,2,0,P|345:243|378:227,1,75,0|0,0:0|0:0,0:0:0:0:
463,176,129278,6,0,B|479:226|479:226|461:265|461:265|475:317,2,150,6|2|2,0:2|0:2|0:2,0:0:0:0:
270,147,130455,1,4,0:3:0:0:
269,147,130847,6,0,P|233:159|196:167,1,75,2|0,1:0|1:0,0:0:0:0:
118,111,131239,1,8,1:0:0:0:
49,180,131435,1,0,1:0:0:0:
125,238,131631,2,0,P|146:270|162:304,1,75,0|2,1:0|1:0,0:0:0:0:
240,361,132023,2,0,P|255:328|275:296,1,75,8|0,1:0|1:0,0:0:0:0:
359,245,132415,5,2,1:0:0:0:
452,271,132611,1,0,1:0:0:0:
452,271,132709,1,2,0:0:0:0:
452,271,132807,2,0,L|440:196,1,75,8|0,1:0|1:0,0:0:0:0:
359,141,133200,2,0,L|347:215,1,75,0|0,1:0|1:0,0:0:0:0:
254,244,133592,2,0,P|223:222|189:206,1,75,8|0,1:0|1:0,0:0:0:0:
93,185,133984,6,0,P|166:185|205:124,1,150,6|8,1:0|1:0,0:0:0:0:
273,55,134572,1,0,1:0:0:0:
356,105,134768,2,0,L|360:179,1,75,0|0,1:0|1:0,0:0:0:0:
309,262,135160,2,0,P|274:250|238:241,1,75,8|0,1:0|1:0,0:0:0:0:
160,181,135553,6,0,B|125:194|125:194|84:176|84:176|52:196|19:195,1,150,6|8,1:0|1:0,0:0:0:0:
19,98,136141,1,2,1:0:0:0:
99,42,136337,2,0,P|133:56|168:68,1,75,0|0,1:0|1:0,0:0:0:0:
218,64,136631,1,8,0:0:0:0:
218,64,136729,2,0,L|292:52,1,75,0|0,1:0|1:0,0:0:0:0:
389,52,137121,6,0,P|371:86|360:122,1,75,6|0,1:0|1:0,0:0:0:0:
270,158,137513,2,0,P|282:194|300:227,1,75,8|0,1:0|1:0,0:0:0:0:
396,211,137906,1,0,1:0:0:0:
441,297,138102,1,0,1:0:0:0:
354,342,138298,2,0,L|279:350,1,75,8|0,1:0|1:0,0:0:0:0:
181,358,138690,6,0,P|165:323|153:288,1,75,6|0,1:0|1:0,0:0:0:0:
171,243,138984,1,8,0:0:0:0:
171,243,139082,2,0,P|185:208|197:173,1,75,2|0,1:0|1:0,0:0:0:0:
169,80,139474,1,0,1:0:0:0:
264,98,139670,1,2,1:0:0:0:
336,32,139866,1,8,1:0:0:0:
198,173,140258,5,8,0:0:0:0:
198,173,140455,1,8,0:0:0:0:
373,258,140847,5,8,0:0:0:0:
373,258,141043,1,8,0:0:0:0:
360,64,141435,5,8,0:0:0:0:
360,64,141631,1,8,0:0:0:0:
272,107,141827,5,8,0:0:0:0:
204,36,142023,1,8,0:0:0:0:
108,53,142219,1,8,0:0:0:0:
77,145,142415,1,12,0:2:0:0:
104,153,143396,6,0,P|140:159|177:167,1,75,12|0,0:0|3:0,0:0:0:0:
258,114,143788,2,0,P|279:144|299:176,1,75,8|2,0:0|3:2,0:0:0:0:
253,262,144180,1,10,0:3:0:0:
344,295,144376,1,0,3:0:0:0:
344,295,144474,1,0,3:0:0:0:
344,295,144572,2,0,L|417:280,1,75,8|0,0:0|3:0,0:0:0:0:
478,204,144964,5,10,0:0:0:0:
478,204,145160,1,0,3:0:0:0:
412,131,145357,1,10,0:0:0:0:
412,131,145553,1,0,3:0:0:0:
321,167,145749,2,0,L|247:150,1,75,10|0,0:3|3:0,0:0:0:0:
183,77,146141,2,0,L|256:60,1,75,10|0,0:3|3:0,0:0:0:0:
344,19,146533,6,0,P|374:43|399:71,1,75,10|0,0:0|3:0,0:0:0:0:
413,118,146827,1,0,3:0:0:0:
413,117,146925,2,0,P|407:154|395:190,1,75,8|0,0:0|3:0,0:0:0:0:
302,216,147317,2,0,B|264:202|264:202|229:207,1,75,10|0,0:0|3:0,0:0:0:0:
196,115,147709,2,0,B|160:135|160:135|142:163,1,75,8|0,0:0|3:0,0:0:0:0:
154,261,148102,5,8,0:0:0:0:
154,261,148298,1,0,3:0:0:0:
63,224,148494,1,8,0:0:0:0:
63,224,148690,1,0,3:0:0:0:
30,132,148886,2,0,L|89:86,1,75,10|0,0:0|3:0,0:0:0:0:
187,91,149278,2,0,L|246:136,1,75,10|0,0:0|3:0,0:0:0:0:
338,168,149670,6,0,P|313:197|296:230,1,75,12|0,0:0|3:0,0:0:0:0:
321,272,149964,1,0,2:0:0:0:
321,272,150062,2,0,L|395:263,1,75,8|0,0:0|3:0,0:0:0:0:
492,262,150455,2,0,P|482:298|474:334,1,75,10|0,0:0|3:0,0:0:0:0:
382,369,150847,2,0,L|307:360,1,75,10|0,0:0|3:0,0:0:0:0:
226,306,151239,5,8,0:0:0:0:
226,306,151435,1,0,3:0:0:0:
135,342,151631,1,8,0:0:0:0:
135,342,151827,1,0,3:0:0:0:
49,292,152023,2,0,P|38:257|31:220,1,75,10|0,0:3|3:0,0:0:0:0:
110,163,152415,2,0,P|125:129|134:93,1,75,10|0,0:3|3:0,0:0:0:0:
220,48,152807,6,0,P|246:94|300:91,1,112.5,8|0,0:0|2:0,0:0:0:0:
331,129,153200,2,0,P|295:167|314:217,1,112.5,8|0,0:0|2:0,0:0:0:0:
283,255,153592,2,0,P|235:232|194:266,1,112.5,8|0,0:0|3:0,0:0:0:0:
146,254,153984,2,0,P|152:201|107:172,1,112.5,8|0,0:0|2:0,0:0:0:0:
114,123,154376,6,0,P|145:103|170:76,1,75,8|0,0:0|3:0,0:0:0:0:
266,62,154768,2,0,P|292:90|324:110,1,75,8|0,0:0|3:0,0:0:0:0:
407,61,155160,1,8,0:0:0:0:
487,115,155357,1,0,3:0:0:0:
487,115,155455,1,0,0:0:0:0:
487,115,155553,2,0,L|495:189,1,75,8|0,0:0|3:0,0:0:0:0:
450,276,155945,6,0,P|414:262|378:254,1,75,12|0,0:0|3:0,0:0:0:0:
330,258,156239,1,0,2:0:0:0:
330,257,156337,2,0,P|295:273|264:293,1,75,8|2,0:0|3:2,0:0:0:0:
174,256,156729,2,0,P|138:244|103:230,1,75,10|0,0:3|3:0,0:0:0:0:
180,170,157121,2,0,P|215:159|250:145,1,75,8|0,0:0|3:0,0:0:0:0:
289,55,157513,5,10,0:0:0:0:
289,55,157709,1,0,3:0:0:0:
201,11,157906,1,10,0:0:0:0:
201,11,158102,1,0,3:0:0:0:
118,63,158298,2,0,L|115:138,1,75,10|0,0:3|3:0,0:0:0:0:
180,210,158690,2,0,L|176:284,1,75,10|0,0:3|3:0,0:0:0:0:
270,305,159082,6,0,P|304:289|342:286,1,75,10|0,0:0|3:0,0:0:0:0:
388,300,159376,1,0,3:0:0:0:
388,299,159474,2,0,P|406:267|419:232,1,75,8|0,0:0|3:0,0:0:0:0:
399,137,159866,2,0,P|366:152|329:156,1,75,10|0,0:0|3:0,0:0:0:0:
253,216,160258,2,0,P|215:213|182:197,1,75,8|0,0:0|3:0,0:0:0:0:
109,132,160651,6,0,P|129:100|147:67,1,75,8|0,0:0|3:0,0:0:0:0:
230,17,161043,2,0,P|248:51|269:82,1,75,8|0,0:0|3:0,0:0:0:0:
280,179,161435,2,0,P|264:212|250:247,1,75,10|0,0:0|3:0,0:0:0:0:
299,331,161827,1,8,0:0:0:0:
299,331,162023,1,0,3:0:0:0:
205,359,162219,6,0,L|131:345,1,75,12|0,0:0|3:0,0:0:0:0:
83,355,162513,1,0,2:0:0:0:
83,354,162611,2,0,P|68:320|55:285,1,75,8|0,0:0|3:0,0:0:0:0:
93,195,163004,2,0,P|130:202|167:208,1,75,10|0,0:0|3:0,0:0:0:0:
232,281,163396,2,0,P|268:273|305:267,1,75,10|0,0:0|3:0,0:0:0:0:
376,200,163788,5,8,0:0:0:0:
376,200,163984,1,0,3:0:0:0:
309,128,164180,1,8,0:0:0:0:
309,128,164376,1,0,3:0:0:0:
381,62,164572,2,0,L|454:48,1,75,10|0,0:3|3:0,0:0:0:0:
503,133,164964,2,0,P|492:168|482:205,1,75,10|0,0:3|3:0,0:0:0:0:
401,259,165357,6,0,P|352:232|296:225,1,112.5,8|0,0:0|2:0,0:0:0:0:
333,193,165749,2,0,P|277:198|228:225,1,112.5,8|0,0:0|2:0,0:0:0:0:
250,181,166141,2,0,P|207:217|182:267,1,112.5,8|0,0:0|3:0,0:0:0:0:
166,221,166533,2,0,P|152:275|160:330,1,112.5,8|0,0:0|0:0,0:0:0:0:
204,352,166925,6,0,L|284:343,1,75,8|0,0:0|3:0,0:0:0:0:
348,275,167317,2,0,L|273:266,1,75,8|4,0:0|3:0,0:0:0:0:
200,201,167709,1,8,0:0:0:0:
200,201,167906,1,0,3:0:0:0:
200,200,168102,2,0,L|200:122,1,75,4|4,3:0|3:0,0:0:0:0:
269,57,168494,5,4,3:1:0:0:
269,57,168690,1,0,0:0:0:0:
269,57,168886,1,0,0:0:0:0:
269,57,169082,1,0,0:0:0:0:
269,57,169278,2,0,L|369:42,1,75,0|0,0:0|0:0,0:0:0:0:
433,82,169670,1,2,0:3:0:0:
433,82,169768,1,0,0:0:0:0:
433,82,169866,1,2,0:3:0:0:
393,171,170062,5,0,0:0:0:0:
393,171,170258,1,0,0:0:0:0:
393,171,170455,1,0,0:0:0:0:
393,171,170651,1,0,0:0:0:0:
393,171,170847,2,0,P|378:226|374:247,1,75,0|0,0:0|0:0,0:0:0:0:
292,295,171239,1,2,0:3:0:0:
292,295,171337,1,0,0:0:0:0:
292,295,171435,1,2,0:3:0:0:
214,235,171631,5,0,0:0:0:0:
214,235,171827,1,0,0:0:0:0:
214,235,172023,1,0,0:0:0:0:
214,235,172219,1,0,0:0:0:0:
214,235,172415,2,0,P|166:220|140:213,1,75,0|0,0:0|0:0,0:0:0:0:
103,124,172807,1,2,0:3:0:0:
103,124,172906,1,0,0:0:0:0:
103,124,173004,1,2,0:3:0:0:
158,44,173200,6,0,P|193:30|230:28,1,75,0|0,0:0|0:0,0:0:0:0:
310,85,173592,2,0,P|344:98|381:100,1,75,0|0,0:0|0:0,0:0:0:0:
426,80,173886,1,0,0:0:0:0:
426,80,173984,2,0,L|439:125,3,37.5,0|0|0|0,0:0|0:0|0:0|0:0,0:0:0:0:
449,162,174376,2,0,L|436:207,3,37.5,0|0|0|0,0:0|0:0|0:0|0:0,0:0:0:0:
405,234,174768,6,0,L|418:329,1,75,4|8,0:0|0:0,0:0:0:0:
422,356,175062,1,0,0:0:0:0:
422,356,175160,1,0,0:0:0:0:
328,329,175357,1,8,0:0:0:0:
239,370,175553,2,0,L|152:359,1,75,2|8,0:0|0:0,0:0:0:0:
116,352,175847,1,0,0:0:0:0:
116,352,175945,1,2,0:0:0:0:
171,271,176141,1,8,0:0:0:0:
92,212,176337,6,0,P|76:166|68:112,1,75,2|8,0:0|0:0,0:0:0:0:
81,92,176631,1,0,0:0:0:0:
81,92,176729,2,0,P|117:50|138:34,1,75,0|8,0:0|0:0,0:0:0:0:
181,39,177023,1,0,0:0:0:0:
181,39,177121,2,0,P|239:56|262:58,1,75,2|8,0:0|0:0,0:0:0:0:
297,38,177415,1,0,0:0:0:0:
297,37,177513,2,0,P|332:25|369:19,1,75,2|8,0:0|0:0,0:0:0:0:
424,99,177906,6,0,L|412:204,1,75,2|8,0:0|0:0,0:0:0:0:
406,221,178200,1,0,0:0:0:0:
406,221,178298,2,0,P|370:233|333:239,1,75,0|8,0:0|0:0,0:0:0:0:
288,220,178592,1,0,0:0:0:0:
288,220,178690,2,0,P|252:207|215:201,1,75,2|8,0:0|0:0,0:0:0:0:
169,215,178984,1,0,0:0:0:0:
169,215,179082,2,0,P|138:262|129:291,1,75,2|8,0:0|0:0,0:0:0:0:
83,282,179376,1,0,0:0:0:0:
83,282,179474,6,0,L|66:235,3,37.5,2|0|8|0,0:0|0:0|0:0|0:0,0:0:0:0:
60,198,179866,2,0,L|77:151,3,37.5,0|2|8|0,0:0|0:0|0:0|0:0,0:0:0:0:
98,121,180258,1,2,0:0:0:0:
98,121,180455,1,8,0:0:0:0:
186,79,180651,1,2,0:0:0:0:
186,79,180847,1,8,0:0:0:0:
259,142,181043,6,0,L|266:233,1,75,2|8,0:0|3:0,0:0:0:0:
357,245,181435,2,0,L|350:336,1,75,2|8,3:0|0:0,0:0:0:0:
260,355,181827,1,0,0:0:0:0:
260,355,182023,1,8,0:0:0:0:
179,300,182219,2,0,L|90:287,1,75,2|8,3:0|3:0,0:0:0:0:
49,208,182611,5,0,3:0:0:0:
49,208,182807,1,8,0:0:0:0:
141,174,183004,2,0,P|169:131|180:96,1,75,2|8,3:0|0:0,0:0:0:0:
265,148,183396,1,0,3:0:0:0:
265,148,183592,1,8,0:0:0:0:
341,87,183788,2,0,L|361:172,1,75,2|8,3:0|0:0,0:0:0:0:
448,195,184180,5,0,3:0:0:0:
448,195,184376,1,8,0:0:0:0:
372,256,184572,2,0,L|352:341,1,75,2|8,3:0|0:0,0:0:0:0:
270,280,184964,1,0,3:0:0:0:
270,280,185160,1,8,0:0:0:0:
195,342,185357,2,0,P|158:349|120:351,1,75,2|8,3:0|0:0,0:0:0:0:
45,289,185749,6,0,P|37:252|35:214,1,75,0|8,3:0|0:0,0:0:0:0:
64,175,186043,1,8,0:0:0:0:
64,175,186141,2,0,P|113:159|155:149,1,75,0|8,0:0|0:0,0:0:0:0:
221,198,186533,2,0,L|275:205,3,37.5,0|0|8|0,3:0|0:0|0:0|3:0,0:0:0:0:
300,179,186925,2,0,L|354:172,3,37.5,0|0|8|0,3:0|3:0|0:0|3:0,0:0:0:0:
382,192,187317,6,0,P|434:203|457:103,1,150,6|0,0:0|0:0,0:0:0:0:
419,47,187906,1,8,0:0:0:0:
324,74,188102,2,0,L|247:63,1,75,2|8,0:3|0:0,0:0:0:0:
154,85,188494,2,0,P|163:121|172:157,1,75,2|8,0:3|0:0,0:0:0:0:
120,240,188886,6,0,P|165:209|248:272,1,150,2|0,0:3|0:0,0:0:0:0:
288,334,189474,1,8,0:0:0:0:
288,334,189572,1,0,0:0:0:0:
288,334,189670,2,0,L|383:321,1,75,2|8,0:3|0:0,0:0:0:0:
419,245,190062,2,0,L|324:232,1,75,2|8,0:3|0:0,0:0:0:0:
285,156,190455,5,4,0:0:0:0:
285,156,190651,1,8,0:0:0:0:
194,192,190847,2,0,P|177:238|167:285,1,75,2|8,0:3|3:0,0:0:0:0:
127,285,191141,1,0,2:0:0:0:
127,285,191239,2,0,P|106:218|107:131,1,150,2|0,0:3|0:0,0:0:0:0:
173,66,191827,2,0,L|228:58,1,37.5,8|0,0:0|0:0,0:0:0:0:
254,80,192023,6,0,B|292:103|292:103|330:92|330:92|361:107|417:102,1,150,2|0,0:3|0:0,0:0:0:0:
481,146,192611,2,0,L|461:204,2,37.5,8|0|2,0:0|0:0|0:3,0:0:0:0:
391,184,193004,2,0,P|394:239|416:334,1,150,10|8,0:3|0:0,0:0:0:0:
324,366,193592,6,0,L|232:359,1,75,4|8,0:0|0:0,0:0:0:0:
210,330,193886,1,2,0:3:0:0:
210,330,193984,2,0,L|118:323,1,75,2|8,0:3|0:0,0:0:0:0:
50,276,194376,2,0,P|84:246|110:233,1,75,2|8,3:0|0:0,0:0:0:0:
207,235,194768,1,0,0:0:0:0:
207,235,194964,1,8,0:0:0:0:
286,178,195160,6,0,P|341:199|365:210,1,75,2|8,0:3|0:0,0:0:0:0:
389,241,195455,1,0,3:0:0:0:
389,241,195553,2,0,P|445:230|478:215,1,75,0|8,0:0|3:0,0:0:0:0:
430,130,195945,2,0,P|385:95|357:79,1,75,2|8,0:3|0:0,0:0:0:0:
321,77,196239,1,0,3:0:0:0:
321,77,196337,2,0,P|248:89|226:96,1,75,0|10,0:0|0:0,0:0:0:0:
172,151,196729,5,0,3:0:0:0:
172,151,196827,1,0,0:0:0:0:
172,151,196925,1,8,0:0:0:0:
84,193,197121,2,0,L|76:118,1,75,2|8,0:3|0:0,0:0:0:0:
146,50,197513,2,0,P|185:61|234:63,1,75,2|8,0:3|0:0,0:0:0:0:
262,40,197807,1,4,3:0:0:0:
262,40,197906,2,0,P|301:29|350:27,1,75,4|0,0:3|0:0,0:0:0:0:
414,83,198298,6,0,L|432:198,2,112.5,4|6|2,0:0|0:0|0:0,0:0:0:0:
335,141,199082,2,0,L|316:213,1,75,6|2,0:0|2:1,0:0:0:0:
304,260,199376,1,2,2:1:0:0:
304,260,199474,1,4,3:0:0:0:
116,313,199866,6,0,P|104:277|96:240,1,75,2|0,1:0|1:0,0:0:0:0:
100,143,200258,1,8,1:0:0:0:
190,179,200455,1,0,1:0:0:0:
277,134,200651,2,0,L|357:119,1,75,0|2,1:0|1:0,0:0:0:0:
424,182,201043,2,0,P|404:213|388:247,1,75,8|0,1:0|1:0,0:0:0:0:
370,343,201435,5,2,1:0:0:0:
288,289,201631,1,0,1:0:0:0:
288,289,201729,1,2,0:0:0:0:
288,289,201827,2,0,L|213:277,1,75,8|0,1:0|1:0,0:0:0:0:
130,225,202219,2,0,P|154:180|163:146,1,75,0|0,1:0|1:0,0:0:0:0:
74,108,202611,2,0,P|56:76|44:41,1,75,8|0,1:0|1:0,0:0:0:0:
140,34,203004,6,0,P|172:55|207:66,1,75,2|0,1:0|1:0,0:0:0:0:
302,91,203396,2,0,P|333:70|368:59,1,75,8|0,1:0|1:0,0:0:0:0:
454,103,203788,2,0,L|417:266,1,150,0|8,1:0|1:0,0:0:0:0:
343,309,204376,1,0,1:0:0:0:
262,251,204572,6,0,P|191:235|124:266,1,150,6|8,1:0|1:0,0:0:0:0:
47,325,205160,1,2,1:0:0:0:
12,234,205357,2,0,P|21:197|31:161,1,75,0|0,1:0|1:0,0:0:0:0:
74,138,205651,1,8,0:0:0:0:
74,138,205749,2,0,L|148:150,1,75,0|2,1:0|1:0,0:0:0:0:
230,97,206141,6,0,L|304:85,1,75,6|0,1:0|1:0,0:0:0:0:
398,109,206533,2,0,L|365:196,1,75,8|0,1:0|1:0,0:0:0:0:
334,268,206925,1,0,1:0:0:0:
396,343,207121,1,0,1:0:0:0:
302,369,207317,2,0,L|227:361,1,75,8|0,1:0|1:0,0:0:0:0:
136,326,207709,6,0,P|154:273|165:243,1,75,6|0,1:0|1:0,0:0:0:0:
205,235,208004,1,8,0:0:0:0:
205,235,208102,2,0,L|179:165,1,75,2|0,1:0|1:0,0:0:0:0:
143,73,208494,1,0,1:0:0:0:
75,142,208690,1,2,1:0:0:0:
48,48,208886,1,8,1:0:0:0:
235,100,209278,5,4,1:0:0:0:
235,100,209474,1,4,1:0:0:0:
359,249,209866,5,0,1:0:0:0:
359,249,210062,1,4,1:0:0:0:
167,281,210455,5,4,1:0:0:0:
167,281,210651,1,4,1:0:0:0:
86,225,210847,6,0,L|96:143,1,75,4|0,1:0|0:0,0:0:0:0:
109,54,211239,1,4,1:0:0:0:
185,114,211435,1,12,1:0:0:0:
437,192,212415,5,4,0:0:0:0:
256,192,224180,12,0,226925,0:0:0:0:
92,61,227709,6,0,L|72:142,1,84.3750032186509,0|0,0:0|0:0,0:0:0:0:
64,174,228102,6,0,P|102:164|143:165,1,75,12|0,0:0|3:0,0:0:0:0:
201,237,228494,2,0,P|239:247|280:246,1,75,8|2,0:0|3:2,0:0:0:0:
342,176,228886,1,10,0:3:0:0:
417,238,229082,1,0,3:0:0:0:
417,238,229180,1,0,3:0:0:0:
417,238,229278,2,0,L|398:333,1,75,8|0,0:0|3:0,0:0:0:0:
493,278,229670,6,0,L|507:204,1,75,10|0,0:0|3:0,0:0:0:0:
444,132,230062,2,0,P|425:87|418:55,1,75,10|0,0:0|3:0,0:0:0:0:
330,102,230455,2,0,P|296:84|260:74,1,75,10|0,0:3|3:0,0:0:0:0:
180,18,230847,2,0,P|144:29|111:47,1,75,10|0,0:3|3:0,0:0:0:0:
52,125,231239,6,0,P|72:177|84:220,1,75,8|0,0:0|3:0,0:0:0:0:
71,243,231533,1,0,3:0:0:0:
71,243,231631,2,0,P|106:267|141:276,1,75,8|0,0:0|3:0,0:0:0:0:
214,214,232023,2,0,P|244:192|280:181,1,75,8|0,0:0|3:0,0:0:0:0:
278,84,232415,2,0,P|314:90|347:107,1,75,8|0,0:0|3:0,0:0:0:0:
411,181,232807,5,8,0:0:0:0:
411,181,233004,1,0,3:0:0:0:
365,266,233200,1,8,0:0:0:0:
365,266,233396,1,0,3:0:0:0:
277,223,233592,2,0,L|199:230,1,75,8|0,0:0|3:0,0:0:0:0:
122,174,233984,1,8,0:0:0:0:
58,248,234180,1,0,3:0:0:0:
20,158,234376,6,0,B|43:84,1,75,12|0,0:0|3:0,0:0:0:0:
80,55,234670,1,0,2:0:0:0:
80,55,234768,2,0,P|125:45|157:38,1,75,8|0,0:0|3:0,0:0:0:0:
248,59,235160,1,10,0:0:0:0:
276,152,235356,1,0,3:0:0:0:
373,132,235553,2,0,P|418:142|450:149,1,75,10|0,0:0|3:0,0:0:0:0:
496,231,235945,6,0,P|479:272|468:306,1,75,8|0,0:0|3:0,0:0:0:0:
382,343,236337,2,0,P|370:307|356:272,1,75,8|0,0:0|3:0,0:0:0:0:
268,228,236729,2,0,P|240:252|210:275,1,75,10|0,0:3|3:0,0:0:0:0:
170,186,237121,2,0,P|132:190|95:191,1,75,10|0,0:3|3:0,0:0:0:0:
35,114,237513,6,0,P|87:93|141:77,1,112.5,12|0,0:0|0:0,0:0:0:0:
188,89,237906,2,0,P|240:109|294:125,1,112.5,8|0,0:0|0:0,0:0:0:0:
338,103,238298,2,0,B|365:137|365:137|346:203,1,112.5,8|0,0:0|3:0,0:0:0:0:
299,218,238690,2,0,B|272:252|272:252|290:318,1,112.5,8|0,0:0|0:0,0:0:0:0:
330,346,239082,6,0,P|371:333|418:329,1,75,8|0,0:0|3:0,0:0:0:0:
479,269,239474,2,0,P|438:256|391:252,1,75,8|0,0:0|3:0,0:0:0:0:
348,173,239866,1,12,0:0:0:0:
275,237,240062,1,4,0:0:0:0:
191,186,240258,1,12,0:0:0:0:
220,93,240455,1,8,0:0:0:0:
220,93,240553,1,8,0:0:0:0:
220,93,240651,6,0,L|295:82,1,75,4|10,3:1|3:2,0:0:0:0:
383,121,241043,2,0,L|377:166,3,37.5,0|0|10|0,3:0|3:0|3:1|3:0,0:0:0:0:
338,186,241435,2,0,P|344:224|352:260,1,75,4|10,3:1|3:2,0:0:0:0:
290,335,241827,2,0,L|244:328,3,37.5,0|0|10|0,3:0|3:0|3:1|3:0,0:0:0:0:
215,298,242219,6,0,P|177:300|140:306,1,75,4|10,3:1|3:2,0:0:0:0:
76,233,242611,2,0,L|100:188,3,37.5,0|0|10|0,3:0|3:0|3:1|3:0,0:0:0:0:
124,161,243004,2,0,P|159:173|195:182,1,75,2|8,3:0|3:1,0:0:0:0:
234,153,243298,1,0,3:0:0:0:
234,153,243396,2,0,P|269:140|305:131,1,75,0|8,3:0|0:0,0:0:0:0:
374,199,243788,6,0,P|367:235|356:271,1,75,4|10,3:1|3:2,0:0:0:0:
445,312,244180,2,0,L|476:292,3,37.5,0|0|10|0,3:0|3:0|3:1|3:0,0:0:0:0:
488,244,244572,2,0,P|477:208|470:171,1,75,4|10,3:1|3:2,0:0:0:0:
384,126,244964,2,0,L|352:161,3,37.5,0|0|10|0,3:0|3:0|3:1|3:0,0:0:0:0:
316,177,245356,6,0,P|279:185|242:188,1,75,4|10,3:1|3:1,0:0:0:0:
149,157,245749,1,0,3:0:0:0:
221,91,245945,1,10,3:1:0:0:
137,40,246141,2,0,L|84:27,3,37.5,2|2|8|2,3:0|3:0|3:2|3:0,0:0:0:0:
53,41,246533,2,0,P|39:76|31:113,1,75,2|10,3:0|3:1,0:0:0:0:
56,155,246827,1,8,0:0:0:0:
56,155,246925,6,0,P|69:189|77:226,1,75,4|10,3:1|3:2,0:0:0:0:
172,248,247317,2,0,L|201:218,3,37.5,0|0|10|0,3:0|3:0|3:1|3:0,0:0:0:0:
246,214,247709,2,0,P|280:227|314:243,1,75,4|10,3:1|3:2,0:0:0:0:
400,195,248102,2,0,L|393:149,3,37.5,0|0|10|0,3:0|3:0|3:1|3:0,0:0:0:0:
414,112,248494,6,0,P|419:75|423:38,1,75,4|10,3:1|3:2,0:0:0:0:
329,14,248886,2,0,L|299:39,3,37.5,0|0|10|0,3:0|3:0|3:1|3:0,0:0:0:0:
254,56,249278,2,0,P|218:49|180:47,1,75,2|8,3:0|3:1,0:0:0:0:
135,66,249572,1,0,3:0:0:0:
135,65,249670,2,0,P|106:90|81:118,1,75,0|8,3:0|0:0,0:0:0:0:
81,215,250062,6,0,P|99:247|122:277,1,75,4|8,3:1|3:1,0:0:0:0:
168,292,250356,1,0,3:0:0:0:
168,291,250455,2,0,P|203:280|240:273,1,75,2|8,3:0|0:0,0:0:0:0:
286,290,250749,1,0,2:0:0:0:
286,290,250847,2,0,P|321:301|358:308,1,75,2|8,3:0|0:0,0:0:0:0:
421,233,251239,2,0,L|402:187,1,37.5,0|2,3:0|3:1,0:0:0:0:
384,154,251435,2,0,L|390:100,1,37.5,8|2,0:0|3:0,0:0:0:0:
413,75,251631,6,0,P|379:52|320:37,1,75,4|10,0:0|0:0,0:0:0:0:
298,38,251925,1,4,0:0:0:0:
298,38,252023,2,0,P|264:61|205:76,1,75,2|6,3:0|1:3,0:0:0:0:
139,40,252415,2,0,P|103:81|102:136,1,112.5,2|8,1:3|0:0,0:0:0:0:
129,177,252807,2,0,P|162:195|181:198,1,37.5,4|0,3:1|1:0,0:0:0:0:
210,194,253004,2,0,P|244:187|261:179,1,37.5,0|0,3:0|1:0,0:0:0:0:
288,160,253200,5,4,3:1:0:0:
357,227,253396,1,10,3:2:0:0:
284,291,253592,2,0,L|278:337,3,37.5,0|0|10|0,3:0|3:0|3:1|3:0,0:0:0:0:
241,359,253984,1,4,3:1:0:0:
147,331,254180,1,10,3:2:0:0:
168,235,254376,2,0,L|163:197,3,37.5,0|0|10|0,3:0|3:0|3:1|3:0,0:0:0:0:
155,149,254768,5,4,3:1:0:0:
65,187,254964,1,10,3:2:0:0:
23,98,255160,2,0,L|27:60,3,37.5,0|0|10|0,3:0|3:0|3:1|3:0,0:0:0:0:
69,33,255553,2,0,P|111:54|158:56,1,75,2|10,3:0|3:1,0:0:0:0:
186,47,255847,1,0,3:0:0:0:
186,47,255945,2,0,P|218:28|255:22,1,75,0|10,3:0|0:0,0:0:0:0:
351,36,256337,5,4,3:1:0:0:
289,111,256533,1,10,3:2:0:0:
370,164,256729,2,0,L|423:154,3,37.5,0|0|10|0,3:0|3:0|3:1|3:0,0:0:0:0:
454,147,257121,1,4,3:1:0:0:
450,244,257317,1,10,3:2:0:0:
354,263,257513,2,0,L|301:253,3,37.5,0|0|10|0,3:0|3:0|3:1|3:0,0:0:0:0:
270,242,257906,5,4,3:1:0:0:
186,293,258102,1,10,3:1:0:0:
109,232,258298,1,0,3:0:0:0:
147,142,258494,1,10,3:1:0:0:
89,63,258690,2,0,L|32:50,3,37.5,2|2|8|2,3:0|3:0|3:2|3:0,0:0:0:0:
5,42,259082,2,0,P|16:84|21:124,1,75,2|10,3:0|3:1,0:0:0:0:
20,163,259376,1,0,0:0:0:0:
20,163,259474,5,4,3:1:0:0:
1,258,259670,1,10,3:2:0:0:
93,227,259866,2,0,L|143:232,3,37.5,0|0|10|0,3:0|3:0|3:1|3:0,0:0:0:0:
178,235,260258,1,4,3:1:0:0:
227,319,260455,1,10,3:2:0:0:
312,271,260651,2,0,L|349:267,3,37.5,0|0|10|0,3:0|3:0|3:1|3:0,0:0:0:0:
397,259,261043,5,4,3:1:0:0:
442,173,261239,1,10,3:2:0:0:
369,112,261435,2,0,L|358:63,3,37.5,0|0|10|0,3:0|3:0|3:1|3:0,0:0:0:0:
343,28,261827,2,0,P|310:47|276:63,1,75,2|8,3:0|3:1,0:0:0:0:
229,77,262121,1,0,3:0:0:0:
229,77,262219,2,0,P|158:68|130:57,1,75,0|8,3:0|0:0,0:0:0:0:
60,42,262611,6,0,L|47:94,3,37.5,0|0|10|0,3:0|3:0|3:1|3:0,0:0:0:0:
29,122,263004,2,0,L|42:174,3,37.5,0|0|10|0,3:0|3:0|3:1|3:0,0:0:0:0:
74,190,263396,1,2,3:0:0:0:
30,276,263592,1,10,3:0:0:0:
123,302,263788,2,0,P|135:337|145:373,1,75,2|10,3:0|3:0,0:0:0:0:
233,330,264180,6,0,P|274:312|346:316,2,112.5,4|4|4,0:0|0:0|0:0,0:0:0:0:
143,290,264964,2,0,P|87:294|35:274,1,112.5,4|4,0:0|0:3,0:0:0:0:
33,271,265356,1,4,0:3:0:0:
207,123,265749,6,0,L|217:235,2,112.5,4|4|4,0:0|0:0|0:0,0:0:0:0:
272,50,266533,1,6,0:0:0:0:
256,192,266729,12,0,270062,0:0:0:0:
