osu file format v14

[General]
AudioFilename: audio.mp3
AudioLeadIn: 0
PreviewTime: 62445
Countdown: 0
SampleSet: Soft
StackLeniency: 0.7
Mode: 0
LetterboxInBreaks: 0
WidescreenStoryboard: 1

[Editor]
Bookmarks: 510,6703,19090,31477,37671,50058,62445,76380,90315,99605,105798,118185,124379,136766,149927,162316,174703,187090
DistanceSpacing: 1
BeatDivisor: 4
GridSize: 8
TimelineZoom: 1.2

[Metadata]
Title:Noushou Sakuretsu Girl
TitleUnicode:脳漿炸裂ガール
Artist:Wagakki Band
ArtistUnicode:和楽器バンド
Creator:YGOkid8
Version:molneya's Easy
Source:
Tags:corsace closed 2022 cc22 gf dt2 japanese folk traditional metal rock jrock j-rock VOCALO Zanmai ボカロ三昧 brain fluid explosion girl rerulili れるりり ToushahiP 当社比P Sasaki Kouhei 佐々木貢平 hatsune miku 初音ミク gumi グミ megpoid メグッポイド vocaloid utaite cover suzuhana yuko yuuko 鈴華ゆう子 machiya 町屋 molneya
BeatmapID:4046437
BeatmapSetID:1779254

[Difficulty]
HPDrainRate:2
CircleSize:3
OverallDifficulty:3
ApproachRate:3
SliderMultiplier:0.8
SliderTickRate:1

[Events]
//Background and Video events
0,0,"background.jpg",0,0
//Break Periods
2,76580,79972
2,99805,104358
2,177999,179456
//Storyboard Layer 0 (Background)
//Storyboard Layer 1 (Fail)
//Storyboard Layer 2 (Pass)
//Storyboard Layer 3 (Foreground)
//Storyboard Layer 4 (Overlay)
//Storyboard Sound Samples

[TimingPoints]
510,387.096774193548,4,2,1,70,1,0
6703,-100,4,2,1,70,0,0
40380,-100,4,2,2,70,0,0
40477,-100,4,2,1,70,0,0
40574,-100,4,2,2,70,0,0
40671,-100,4,2,1,70,0,0
49864,-100,4,2,3,70,0,0
49961,-100,4,2,1,70,0,0
56058,-100,4,2,2,70,0,0
56155,-100,4,2,1,70,0,0
59058,-100,4,2,4,70,0,0
59155,-100,4,2,1,70,0,0
59251,-100,4,2,4,70,0,0
59348,-100,4,2,1,70,0,0
62445,-100,4,2,1,70,0,1
68542,-100,4,2,4,70,0,1
68639,-100,4,2,1,70,0,1
74542,-100,4,2,4,70,0,1
74639,-100,4,2,2,70,0,1
74735,-100,4,2,4,70,0,1
74832,-100,4,2,1,70,0,1
75606,-100,4,2,4,70,0,1
76187,-100,4,2,1,70,0,1
76380,387.096774193548,3,2,1,70,1,0
79863,-100,3,2,5,70,0,0
80057,-100,3,2,1,70,0,0
99605,387.096774193548,4,2,1,70,1,0
117798,-100,4,2,1,70,0,0
123701,-100,4,2,4,70,0,0
123798,-100,4,2,1,70,0,0
124088,-100,4,2,4,70,0,0
124379,-100,4,2,1,70,0,0
145766,-100,4,2,4,70,0,0
145863,-100,4,2,1,70,0,0
145959,-100,4,2,4,70,0,0
146056,-100,4,2,1,70,0,0
149927,-100,4,2,1,70,0,1
149929,387.096774193548,4,2,1,70,1,1
162122,-100,4,2,1,70,0,0
162316,-100,4,2,1,70,0,1
174509,-100,4,2,1,70,0,0
174703,-100,4,2,1,70,0,1
174896,-100,4,2,1,70,0,0
187283,-100,4,2,2,70,0,0
188058,-100,4,2,1,70,0,0
188154,-100,4,2,2,70,0,0
188251,-100,4,2,1,70,0,0

[Colours]
Combo1 : 179,0,89
Combo2 : 255,128,128
Combo3 : 176,0,176
Combo4 : 255,128,64

[HitObjects]
40,0,510,6,0,P|72:64|64:160,1,160,4|2,2:2|2:2,0:0:0:0:
16,304,2058,1,0,2:2:0:0:
80,352,2445,1,0,2:2:0:0:
160,336,2832,1,2,2:2:0:0:
312,384,3606,6,0,P|344:320|336:224,1,160,4|2,2:2|2:2,0:0:0:0:
464,136,5155,1,0,2:2:0:0:
400,80,5542,1,0,2:2:0:0:
416,0,5929,1,0,2:2:0:0:
256,24,6703,6,0,L|176:32,1,80,6|8,3:2|3:2,0:0:0:0:
112,80,7477,2,0,L|40:72,2,60,2|2|2,3:2|2:2|2:2,0:0:0:0:
208,144,8639,1,8,3:2:0:0:
256,210,9026,2,0,P|259:250|244:287,1,80,2|8,3:2|3:2,0:0:0:0:
280,360,9800,6,0,L|360:368,1,80,4|8,3:2|3:2,0:0:0:0:
424,320,10574,2,0,L|496:312,2,60,2|2|2,3:2|2:2|2:2,0:0:0:0:
352,224,11735,1,8,3:2:0:0:
272,216,12122,1,0,3:3:0:0:
192,208,12509,1,8,3:2:0:0:
128,152,12897,6,0,L|48:144,1,80,4|8,3:2|3:2,0:0:0:0:
16,224,13671,2,0,L|88:232,2,60,2|2|2,3:2|2:2|2:2,0:0:0:0:
64,328,14832,1,8,3:2:0:0:
136,296,15219,2,0,P|176:293|213:308,1,80,2|10,3:2|3:2,0:0:0:0:
280,264,15993,6,0,L|272:184,1,80,4|8,3:2|3:2,0:0:0:0:
320,120,16767,2,0,L|328:48,2,60,2|2|2,3:2|2:2|2:2,0:0:0:0:
424,184,17929,1,0,3:3:0:0:
416,264,18316,1,0,3:3:0:0:
408,344,18703,1,0,3:3:0:0:
331,376,19090,6,0,P|294:361|254:364,1,80,4|10,3:2|3:2,0:0:0:0:
187,320,19864,1,0,3:3:0:0:
107,336,20251,1,8,3:2:0:0:
27,352,20639,2,0,L|35:272,1,80,2|10,3:2|3:2,0:0:0:0:
35,192,21413,2,0,B|76:189|104:225|104:225|149:241|185:215,1,160,2|6,3:2|3:2,0:0:0:0:
216,144,22574,5,10,3:2:0:0:
240,64,22961,2,0,P|276:48|316:50,1,80,2|10,3:2|3:2,0:0:0:0:
384,96,23735,2,0,B|448:112|448:80|504:96,2,120,2|2|10,3:2|2:2|3:2,0:0:0:0:
328,160,25284,6,0,P|291:145|251:148,1,80,6|10,3:2|3:2,0:0:0:0:
176,184,26058,1,2,3:2:0:0:
96,168,26445,1,10,3:2:0:0:
16,152,26832,2,0,L|24:232,1,80,2|10,3:2|3:2,0:0:0:0:
88,280,27606,2,0,L|80:360,1,80,2|10,3:2|3:2,0:0:0:0:
160,384,28380,6,0,P|197:368|236:370,1,80,6|10,3:2|3:2,0:0:0:0:
312,336,29155,1,2,3:2:0:0:
392,352,29542,1,10,3:2:0:0:
456,304,29929,2,0,B|459:263|423:235|423:235|407:190|433:154,1,160,6|2,3:2|3:2,0:0:0:0:
472,88,31090,1,10,3:2:0:0:
424,24,31477,6,0,B|304:0|320:64|184:32,1,240,6|8,3:2|3:2,0:0:0:0:
120,80,33026,2,0,B|56:72|8:120|8:120|32:176|104:192,1,240,4|8,3:2|3:2,0:0:0:0:
152,248,34574,2,0,B|195:266|231:242|231:242|263:221|309:233,2,160,4|0|4,3:2|3:3|3:2,0:0:0:0:
80,288,36509,2,0,P|48:280|0:288,2,80,8|4|10,3:2|3:2|3:2,0:0:0:0:
128,352,37671,5,4,3:2:0:0:
183,38,39219,1,2,3:2:0:0:
104,56,39606,1,2,3:2:0:0:
24,72,39993,2,0,B|27:113|68:133|68:133|91:171|71:215,1,160,2|6,3:2|3:2,0:0:0:0:
32,280,41155,5,10,3:2:0:0:
76,351,41542,2,0,P|113:335|152:337,1,80,2|10,3:2|3:2,0:0:0:0:
216,288,42316,2,0,B|280:304|280:272|336:288,2,120,2|2|10,3:2|2:2|3:2,0:0:0:0:
240,208,43864,6,0,P|225:171|228:131,1,80,6|10,3:2|3:2,0:0:0:0:
272,64,44639,1,2,3:2:0:0:
352,56,45026,1,10,3:2:0:0:
432,48,45413,2,0,L|424:128,1,80,2|10,3:2|3:2,0:0:0:0:
472,192,46187,2,0,L|480:272,1,80,2|10,3:2|3:2,0:0:0:0:
440,344,46961,6,0,P|403:328|364:330,1,80,6|10,3:2|3:2,0:0:0:0:
296,376,47735,1,2,3:2:0:0:
216,360,48122,1,10,3:2:0:0:
136,344,48509,2,0,B|104:272|176:200|176:200|240:136|184:48,1,320,2|6,3:2|3:2,0:0:0:0:
8,136,51026,6,0,P|56:112|128:128,1,120,2|2,2:2|2:2,0:0:0:0:
176,184,51993,1,2,2:2:0:0:
256,160,52380,2,0,P|336:144|416:136,1,160,0|6,0:0|2:2,0:0:0:0:
480,184,53542,1,2,2:2:0:0:
408,216,53929,2,0,P|320:229|240:248,1,160,6|6,2:2|2:2,0:0:0:0:
208,312,55090,1,2,2:2:0:0:
288,320,55477,2,0,P|327:310|376:304,1,80,0|10,3:3|2:2,0:0:0:0:
448,312,56251,6,0,B|456:271|422:241|422:241|410:198|442:161,1,160,6|0,3:2|2:2,0:0:0:0:
480,96,57413,1,2,2:2:0:0:
432,32,57800,2,0,P|352:16|272:8,1,160,10|2,2:2|3:2,0:0:0:0:
192,8,58961,1,2,2:2:0:0:
112,32,59348,5,14,3:2:0:0:
256,104,60122,1,14,3:2:0:0:
400,32,60897,1,14,3:2:0:0:
400,32,62445,5,4,3:2:0:0:
440,104,62832,1,10,3:2:0:0:
408,176,63219,2,0,P|392:213|394:252,1,80,0|10,3:3|3:2,0:0:0:0:
424,328,63993,1,4,3:2:0:0:
368,384,64380,1,8,3:2:0:0:
288,360,64768,2,0,B|247:368|217:334|217:334|174:322|137:354,1,160,0|6,3:3|3:2,0:0:0:0:
64,360,65929,5,10,3:2:0:0:
16,296,66316,1,2,3:2:0:0:
64,232,66703,1,10,3:2:0:0:
144,240,67090,2,0,L|136:160,1,80,4|8,3:2|3:2,0:0:0:0:
208,128,67864,2,0,L|216:48,1,80,0|8,3:3|3:2,0:0:0:0:
144,8,68639,5,4,3:2:0:0:
72,48,69026,1,10,3:2:0:0:
104,120,69413,2,0,P|120:157|118:196,1,80,0|10,3:3|3:2,0:0:0:0:
88,272,70187,1,4,3:2:0:0:
144,336,70574,1,10,3:2:0:0:
224,312,70961,2,0,B|265:303|298:332|298:332|326:300|374:302,1,160,0|6,3:3|3:2,0:0:0:0:
448,320,72122,5,10,3:2:0:0:
504,264,72509,1,2,3:2:0:0:
472,192,72897,1,10,3:2:0:0:
392,200,73284,2,0,L|312:208,2,80,4|10|2,3:2|3:2|3:2,0:0:0:0:
416,120,74445,1,8,3:2:0:0:
432,40,74832,2,0,B|360:8|288:80|288:80|216:152|128:96,1,320,4|4,3:2|3:2,0:0:0:0:
40,136,81412,5,10,2:2:0:0:
112,176,81799,1,10,2:2:0:0:
184,136,82186,2,0,P|219:66|288:26,1,160,2|10,3:2|2:2,0:0:0:0:
368,24,83347,1,2,3:2:0:0:
496,120,84121,1,10,2:2:0:0:
512,200,84509,2,0,P|477:270|408:310,1,160,2|8,3:2|2:2,0:0:0:0:
352,368,85670,6,0,L|256:352,2,80,6|10|10,3:2|2:2|2:2,0:0:0:0:
408,310,86831,2,0,L|384:136,1,160,2|10,3:2|2:2,0:0:0:0:
376,72,87992,1,2,3:2:0:0:
304,32,88379,1,10,2:2:0:0:
224,48,88767,1,10,2:2:0:0:
144,64,89154,2,0,L|64:48,2,80,2|0|0,3:2|3:3|3:3,0:0:0:0:
160,144,90315,5,4,3:2:0:0:
176,224,90702,2,0,P|213:240|252:238,1,80,2|2,3:2|3:2,0:0:0:0:
328,272,91476,2,0,P|365:256|404:258,2,80,2|2|2,3:2|3:2|3:2,0:0:0:0:
288,344,92638,1,2,3:2:0:0:
208,336,93025,2,0,L|128:328,1,80,2|2,3:2|3:2,0:0:0:0:
80,264,93799,2,0,L|0:272,2,80,2|2|2,3:2|3:2|3:2,0:0:0:0:
120,192,94960,6,0,P|152:165|190:157,1,80,6|0,3:2|3:3,0:0:0:0:
272,176,95734,1,0,3:3:0:0:
296,256,96121,2,0,P|328:283|366:291,1,80,2|0,3:2|3:3,0:0:0:0:
448,272,96896,1,2,3:2:0:0:
472,192,97283,2,0,P|462:154|436:125,1,80,2|2,3:2|3:2,0:0:0:0:
352,112,98057,1,2,3:2:0:0:
280,152,98444,5,10,3:2:0:0:
256,232,98831,1,10,3:2:0:0:
184,272,99218,1,10,3:2:0:0:
104,256,99605,1,14,3:2:0:0:
328,104,105798,6,0,P|343:141|340:181,1,80,2|2,3:2|3:2,0:0:0:0:
384,248,106572,1,2,3:2:0:0:
288,360,107346,2,0,L|208:352,1,80,2|2,3:2|3:2,0:0:0:0:
128,352,108120,2,0,B|125:311|161:283|161:283|177:238|151:202,1,160,2|0,3:2|3:3,0:0:0:0:
88,160,109282,2,0,P|56:176|7:169,1,80,2|2,3:2|3:2,0:0:0:0:
104,40,110443,2,0,B|145:31|178:60|178:60|206:28|254:30,1,160,2|2,3:2|3:2,0:0:0:0:
328,48,111604,1,2,3:2:0:0:
344,128,111992,6,0,P|327:163|329:203,1,80,2|2,3:2|3:2,0:0:0:0:
376,272,112766,1,2,3:2:0:0:
240,368,113540,2,0,L|248:288,1,80,2|2,3:2|3:2,0:0:0:0:
192,232,114314,2,0,L|184:152,1,80,2|2,3:2|3:2,0:0:0:0:
224,79,115088,6,0,P|263:81|299:64,1,80,0|2,3:3|3:2,0:0:0:0:
360,8,115863,1,2,3:2:0:0:
448,136,116637,2,0,B|445:177|481:205|481:205|497:250|471:286,1,160,2|2,3:2|3:2,0:0:0:0:
432,352,117798,1,10,3:2:0:0:
352,360,118185,6,0,P|316:344|276:347,2,80,6|8|2,3:2|3:2|3:2,0:0:0:0:
472,280,119734,1,2,3:2:0:0:
464,200,120121,1,10,3:2:0:0:
456,120,120508,1,2,3:2:0:0:
312,80,121282,6,0,P|309:40|325:4,2,80,6|8|2,3:2|3:2|3:2,0:0:0:0:
176,144,122830,1,2,3:2:0:0:
96,128,123217,1,10,3:2:0:0:
32,176,123604,2,0,P|15:211|18:251,1,80,2|10,3:2|3:2,0:0:0:0:
80,304,124379,6,0,P|117:289|157:292,1,80,4|10,3:2|3:2,0:0:0:0:
224,240,125153,1,2,3:2:0:0:
304,256,125540,1,10,3:2:0:0:
384,272,125927,2,0,L|392:192,1,80,2|10,3:2|3:2,0:0:0:0:
408,112,126701,2,0,B|367:103|334:132|334:132|306:100|258:102,1,160,2|4,3:2|3:2,0:0:0:0:
184,120,127863,5,10,3:2:0:0:
168,200,128250,2,0,P|183:237|180:277,1,80,2|10,3:2|3:2,0:0:0:0:
120,336,129024,2,0,B|56:320|56:352|0:336,2,120,2|2|10,3:2|2:2|3:2,0:0:0:0:
180,276,130572,1,6,3:2:0:0:
170,194,130959,1,10,3:2:0:0:
160,112,131346,2,0,L|152:48,1,60,2|10,3:2|3:2,0:0:0:0:
256,24,132121,6,0,L|336:32,1,80,4|10,3:2|3:2,0:0:0:0:
384,96,132895,2,0,L|464:88,1,80,0|10,3:3|3:2,0:0:0:0:
504,160,133669,2,0,P|488:197|490:236,1,80,6|10,3:2|3:2,0:0:0:0:
512,312,134443,1,0,3:3:0:0:
448,360,134830,1,10,3:2:0:0:
376,320,135217,2,0,B|296:288|221:337|221:337|138:390|60:321,1,320,2|6,3:2|3:2,0:0:0:0:
136,136,137734,6,0,P|160:184|144:256,1,120,2|0,2:2|2:2,0:0:0:0:
200,312,138701,1,2,2:2:0:0:
280,296,139088,2,0,P|360:280|440:272,1,160,0|4,0:0|2:2,0:0:0:0:
488,208,140250,1,2,2:2:0:0:
408,192,140637,2,0,P|328:203|250:219,1,160,2|6,3:2|2:2,0:0:0:0:
182,173,141798,1,2,3:2:0:0:
256,136,142185,2,0,P|303:126|352:120,1,80,2|2,2:2|3:2,0:0:0:0:
416,112,142959,6,0,B|424:153|390:183|390:183|378:226|410:263,1,160,6|0,2:2|2:2,0:0:0:0:
422,340,144121,1,2,2:2:0:0:
344,368,144508,2,0,P|265:351|186:341,1,160,2|2,2:2|3:2,0:0:0:0:
104,344,145669,1,2,2:2:0:0:
24,360,146057,5,14,3:2:0:0:
44,200,146830,1,14,3:2:0:0:
64,40,147604,1,14,3:2:0:0:
64,40,149153,2,0,L|72:120,1,80,2|2,2:2|2:2,0:0:0:0:
128,184,149929,5,4,3:2:0:0:
120,264,150316,1,10,3:2:0:0:
192,304,150703,2,0,P|229:288|268:290,1,80,0|10,3:3|3:2,0:0:0:0:
336,336,151477,1,4,3:2:0:0:
416,312,151864,1,8,3:2:0:0:
496,320,152251,2,0,B|504:279|470:249|470:249|458:206|490:169,1,160,0|6,3:3|3:2,0:0:0:0:
476,92,153412,5,10,3:2:0:0:
396,76,153799,1,2,3:2:0:0:
332,128,154187,1,10,3:2:0:0:
252,116,154574,2,0,L|172:108,1,80,4|8,3:2|3:2,0:0:0:0:
108,156,155348,2,0,L|28:164,1,80,0|8,3:3|3:2,0:0:0:0:
0,88,156122,5,4,3:2:0:0:
40,16,156509,1,10,3:2:0:0:
120,24,156896,2,0,P|157:40|196:38,1,80,0|10,3:3|3:2,0:0:0:0:
256,96,157670,1,4,3:2:0:0:
336,80,158058,1,10,3:2:0:0:
416,64,158445,6,0,B|425:105|396:138|396:138|428:166|426:214,1,160,0|6,3:3|3:2,0:0:0:0:
480,272,159606,1,10,3:2:0:0:
456,352,159993,1,2,3:2:0:0:
376,352,160380,1,10,3:2:0:0:
320,296,160767,2,0,L|240:304,2,80,6|10|0,3:2|3:2|3:3,0:0:0:0:
464,224,162316,5,4,3:2:0:0:
480,145,162703,1,10,3:2:0:0:
408,104,163090,2,0,P|371:120|332:118,1,80,0|10,3:3|3:2,0:0:0:0:
272,64,163864,2,0,B|240:48|240:48|200:72|157:57|157:57|124:91,1,160,4|0,3:2|3:3,0:0:0:0:
54,61,165025,1,8,3:2:0:0:
8,128,165412,6,0,P|24:165|22:204,1,80,6|10,3:2|3:2,0:0:0:0:
0,280,166187,1,2,3:2:0:0:
48,344,166574,1,8,3:2:0:0:
128,328,166961,2,0,L|136:248,1,80,6|8,3:2|3:2,0:0:0:0:
208,208,167735,2,0,L|200:128,1,80,0|8,3:3|3:2,0:0:0:0:
256,64,168509,5,4,3:2:0:0:
333,96,168896,1,10,3:2:0:0:
400,48,169283,2,0,P|440:46|476:62,1,80,0|10,3:3|3:2,0:0:0:0:
480,144,170058,2,0,B|440:152|416:192|416:192|440:232|480:240,1,160,4|0,3:2|3:3,0:0:0:0:
480,320,171219,1,8,3:2:0:0:
416,368,171606,6,0,P|380:352|341:353,1,80,6|10,3:2|3:2,0:0:0:0:
272,312,172380,1,2,3:2:0:0:
192,328,172767,1,10,3:2:0:0:
120,288,173154,2,0,L|28:306,2,80,4|10|2,3:2|3:2|3:2,0:0:0:0:
152,216,174316,1,8,3:2:0:0:
184,144,174703,1,4,3:2:0:0:
256,192,174896,12,4,177799,3:2:0:0:
256,192,180896,6,0,L|336:184,1,80,4|8,3:2|3:2,0:0:0:0:
400,136,181670,2,0,L|472:144,2,60,2|2|2,3:2|2:2|2:2,0:0:0:0:
312,56,182832,1,8,3:2:0:0:
240,88,183219,2,0,P|200:91|163:76,1,80,2|8,3:2|3:2,0:0:0:0:
96,120,183993,6,0,L|104:200,1,80,4|8,3:2|3:2,0:0:0:0:
48,256,184767,2,0,L|40:328,2,60,2|2|2,3:2|2:2|2:2,0:0:0:0:
160,296,185928,1,0,3:3:0:0:
240,320,186316,2,0,P|243:280|228:243,1,80,0|0,3:3|3:3,0:0:0:0:
272,176,187090,5,4,3:2:0:0:
352,168,187477,1,0,2:2:0:0:
432,160,187864,2,0,L|504:152,2,60,10|10|2,2:2|2:2|3:2,0:0:0:0:
