osu file format v14

[General]
AudioFilename: audio.mp3
AudioLeadIn: 0
PreviewTime: 62445
Countdown: 0
SampleSet: Soft
StackLeniency: 0.7
Mode: 0
LetterboxInBreaks: 0
WidescreenStoryboard: 1

[Editor]
Bookmarks: 510,6703,19090,31477,37671,50058,62445,76380,90315,99605,105798,118185,124379,136766,149929,162316,174703,187090
DistanceSpacing: 1
BeatDivisor: 4
GridSize: 8
TimelineZoom: 4.399998

[Metadata]
Title:Noushou Sakuretsu Girl
TitleUnicode:脳漿炸裂ガール
Artist:Wagakki Band
ArtistUnicode:和楽器バンド
Creator:YGOkid8
Version:Normal
Source:
Tags:corsace closed 2022 cc22 gf dt2 japanese folk traditional metal rock jrock j-rock VOCALO Zanmai ボカロ三昧 brain fluid explosion girl rerulili れるりり ToushahiP 当社比P Sasaki Kouhei 佐々木貢平 hatsune miku 初音ミク gumi グミ megpoid メグッポイド vocaloid utaite cover suzuhana yuko yuuko 鈴華ゆう子 machiya 町屋 molneya
BeatmapID:4034012
BeatmapSetID:1779254

[Difficulty]
HPDrainRate:4
CircleSize:4
OverallDifficulty:5
ApproachRate:5
SliderMultiplier:1.1
SliderTickRate:2

[Events]
//Background and Video events
0,0,"background.jpg",0,0
//Break Periods
2,76580,78663
2,99805,104598
2,177999,179696
//Storyboard Layer 0 (Background)
//Storyboard Layer 1 (Fail)
//Storyboard Layer 2 (Pass)
//Storyboard Layer 3 (Foreground)
//Storyboard Layer 4 (Overlay)
//Storyboard Sound Samples

[TimingPoints]
510,387.096774193548,4,2,1,60,1,0
6703,-100,4,2,1,70,0,0
40380,-100,4,2,2,70,0,0
40477,-100,4,2,1,70,0,0
40574,-100,4,2,2,70,0,0
40671,-100,4,2,1,70,0,0
49864,-100,4,2,3,70,0,0
49961,-100,4,2,1,70,0,0
56058,-100,4,2,2,70,0,0
56155,-100,4,2,1,70,0,0
59058,-100,4,2,4,70,0,0
59155,-100,4,2,1,70,0,0
59251,-100,4,2,4,70,0,0
59348,-100,4,2,1,70,0,0
62445,-100,4,2,1,70,0,1
68542,-100,4,2,4,70,0,1
68639,-100,4,2,1,70,0,1
74542,-100,4,2,4,70,0,1
74639,-100,4,2,2,70,0,1
74735,-100,4,2,4,70,0,1
74832,-100,4,2,1,70,0,1
75606,-100,4,2,4,70,0,1
76187,-100,4,2,1,70,0,1
76380,387.096774193548,3,2,1,60,1,0
79863,-100,3,2,5,60,0,0
80057,-100,3,2,1,60,0,0
99605,387.096774193548,4,2,1,60,1,0
117798,-100,4,2,1,70,0,0
123701,-100,4,2,4,70,0,0
123798,-100,4,2,1,70,0,0
124088,-100,4,2,4,70,0,0
124379,-100,4,2,1,70,0,0
145766,-100,4,2,4,70,0,0
145863,-100,4,2,1,70,0,0
145959,-100,4,2,4,70,0,0
146056,-100,4,2,1,70,0,0
149929,387.096774193548,4,2,1,70,1,1
162122,-100,4,2,1,70,0,0
162316,-90.9090909090909,4,2,1,70,0,1
163090,-90.9090909090909,4,2,1,70,0,1
174509,-90.9090909090909,4,2,1,70,0,0
174703,-90.9090909090909,4,2,1,70,0,1
174896,-90.9090909090909,4,2,1,70,0,0
187283,-90.9090909090909,4,2,2,70,0,0
188058,-90.9090909090909,4,2,1,70,0,0
188154,-90.9090909090909,4,2,2,70,0,0
188251,-90.9090909090909,4,2,1,70,0,0

[Colours]
Combo1 : 179,0,89
Combo2 : 255,128,128
Combo3 : 176,0,176
Combo4 : 255,128,64

[HitObjects]
96,128,510,5,4,2:2:0:0:
96,128,703,2,1,L|264:112,2,165,2|2|2,2:2|2:2|2:2,0:0:0:0:
56,168,2058,1,0,2:2:0:0:
56,168,2251,2,1,P|64:192|64:224,1,55,2|0,2:2|2:2,0:0:0:0:
152,288,2832,2,1,P|138:318|144:368,2,82.5,2|0|0,2:2|2:2|2:2,0:0:0:0:
212,296,3606,5,4,2:2:0:0:
212,296,3800,2,1,L|376:312,2,165,2|2|2,2:2|2:2|2:2,0:0:0:0:
192,248,5155,1,0,2:2:0:0:
192,248,5348,2,1,P|200:224|200:192,1,55,2|0,2:2|2:2,0:0:0:0:
128,112,5929,2,1,P|114:82|120:32,2,82.5,0|2|2,2:2|2:2|2:2,0:0:0:0:
176,144,6703,5,6,3:2:0:0:
248,56,7090,1,8,3:2:0:0:
328,136,7477,2,1,L|320:224,2,82.5,2|2|2,3:2|2:2|2:2,0:0:0:0:
368,96,8251,1,0,3:3:0:0:
368,96,8445,2,1,P|376:72|376:40,1,55,2|8,2:2|3:2,0:0:0:0:
488,72,9026,2,1,P|474:42|480:-8,2,82.5,2|2|2,3:2|2:2|2:2,0:0:0:0:
512,124,9800,5,4,3:2:0:0:
424,192,10187,1,8,3:2:0:0:
448,296,10574,2,1,L|536:304,2,82.5,2|2|2,3:2|2:2|2:2,0:0:0:0:
396,304,11348,1,0,3:3:0:0:
396,304,11542,2,1,P|388:328|392:364,1,55,2|8,2:2|3:2,0:0:0:0:
280,380,12122,2,1,P|242:382|200:364,1,82.5,0|2,3:3|2:2,0:0:0:0:
168,296,12703,1,2,2:2:0:0:
168,296,12897,5,4,3:2:0:0:
264,240,13284,1,8,3:2:0:0:
168,184,13671,2,1,P|154:154|160:104,2,82.5,2|2|2,3:2|2:2|2:2,0:0:0:0:
152,240,14445,1,0,3:3:0:0:
152,240,14639,2,1,L|64:248,1,82.5,2|2,2:2|2:2,0:0:0:0:
8,304,15219,2,1,P|0:328|0:360,1,55,2|0,3:2|2:2,0:0:0:0:
48,376,15606,2,1,P|72:368|104:368,1,55,10|0,3:2|2:2,0:0:0:0:
152,384,15993,5,4,3:2:0:0:
256,344,16380,1,8,3:2:0:0:
312,248,16768,2,1,P|282:234|224:240,2,82.5,2|2|2,3:2|2:2|2:2,0:0:0:0:
352,296,17542,1,0,3:3:0:0:
352,296,17735,2,1,L|360:240,1,55,10|0,2:2|3:3,0:0:0:0:
440,168,18316,2,1,L|432:80,1,82.5,0|2,3:3|2:2,0:0:0:0:
360,56,18897,1,10,2:2:0:0:
360,56,19090,6,1,P|352:32|352:0,2,55,4|0|10,3:2|0:0|3:2,0:0:0:0:
312,160,19864,1,0,3:3:0:0:
216,96,20251,1,8,3:2:0:0:
224,40,20445,1,0,0:0:0:0:
184,0,20639,2,1,P|128:-8|80:32,1,110,2|10,3:2|3:2,0:0:0:0:
64,72,21219,1,0,2:2:0:0:
80,124,21413,2,1,P|50:138|0:132,2,82.5,2|2|2,3:2|2:2|2:2,0:0:0:0:
120,88,22187,5,6,3:2:0:0:
216,144,22574,1,10,3:2:0:0:
152,240,22961,1,2,3:2:0:0:
152,240,23155,1,0,2:2:0:0:
152,240,23348,1,10,3:2:0:0:
224,328,23735,2,1,P|280:320|328:360,1,110,2|10,3:2|3:2,0:0:0:0:
376,368,24316,1,2,2:2:0:0:
424,336,24509,2,1,P|416:280|456:232,1,110,2|10,3:2|3:2,0:0:0:0:
504,144,25284,5,6,3:2:0:0:
480,92,25477,1,0,2:2:0:0:
428,72,25671,1,10,3:2:0:0:
328,24,26058,1,2,3:2:0:0:
336,136,26445,1,10,3:2:0:0:
296,176,26639,1,0,2:2:0:0:
240,184,26832,2,1,L|224:72,1,110,2|10,3:2|3:2,0:0:0:0:
176,48,27413,1,0,2:2:0:0:
136,88,27606,2,1,L|120:200,2,110,2|10|6,3:2|3:2|3:2,0:0:0:0:
32,128,28768,5,10,3:2:0:0:
56,24,29155,1,2,3:2:0:0:
56,24,29348,1,0,2:2:0:0:
56,24,29542,1,10,3:2:0:0:
136,96,29929,2,1,P|179:74|240:88,1,110,6|10,3:2|3:2,0:0:0:0:
288,64,30509,1,0,2:2:0:0:
336,96,30703,2,1,L|332:208,1,110,2|10,3:2|3:2,0:0:0:0:
300,315,31477,6,1,B|256:405|121:377|191:302|56:274|11:363|11:363,1,330,6|8,3:2|3:2,0:0:0:0:
0,256,33026,2,1,P|79:150|255:194,1,330,4|8,3:2|3:2,0:0:0:0:
304,288,34574,6,1,P|353:313|408:302,3,110,4|10|0|8,3:2|3:2|3:3|3:2,0:0:0:0:
480,224,36122,2,1,L|472:112,1,110,4|8,3:2|3:2,0:0:0:0:
384,56,36897,2,1,L|392:0,2,55,4|0|10,3:2|2:2|3:2,0:0:0:0:
328,152,37671,1,4,3:2:0:0:
272,264,39219,6,1,L|280:320,2,55,2|2|2,3:2|3:2|3:2,0:0:0:0:
168,304,39993,2,1,L|160:360,2,55,2|0|10,3:2|3:3|2:2,0:0:0:0:
80,232,40768,5,6,3:2:0:0:
18,135,41155,1,10,3:2:0:0:
115,73,41542,1,2,3:2:0:0:
176,170,41929,1,10,3:2:0:0:
288,160,42316,2,1,P|310:117|304:56,1,110,2|10,3:2|3:2,0:0:0:0:
344,16,42897,1,2,2:2:0:0:
400,24,43090,2,1,P|422:67|412:132,1,110,2|10,3:2|3:2,0:0:0:0:
356,220,43864,5,6,3:2:0:0:
392,264,44058,1,0,2:2:0:0:
448,272,44251,1,10,3:2:0:0:
440,384,44639,1,2,3:2:0:0:
328,384,45026,1,10,3:2:0:0:
264,296,45413,2,1,L|152:288,1,110,2|10,3:2|3:2,0:0:0:0:
128,240,45993,1,0,2:2:0:0:
176,208,46187,2,1,L|288:200,2,110,2|10|6,3:2|3:2|3:2,0:0:0:0:
72,160,47348,5,10,3:2:0:0:
64,280,47735,1,2,3:2:0:0:
64,280,47929,1,0,2:2:0:0:
64,280,48122,1,10,3:2:0:0:
152,352,48509,2,1,B|226:286|166:162|110:249|49:127|123:60|123:60,1,330,2|8,3:2|2:3,0:0:0:0:
224,8,50058,6,1,B|253:60|253:60|302:54|343:84|343:84|399:52,1,220,6|0,3:2|0:0,0:0:0:0:
456,48,51026,2,1,P|448:73|448:100,1,55,2|0,2:2|2:2,0:0:0:0:
512,208,51606,1,2,2:2:0:0:
512,208,51800,1,0,2:2:0:0:
512,208,51993,1,2,2:2:0:0:
448,296,52380,2,1,P|398:270|343:281,1,110,0|2,0:0|3:2,0:0:0:0:
236,288,53155,5,6,2:2:0:0:
209,240,53348,1,2,2:2:0:0:
227,187,53542,1,2,2:2:0:0:
205,76,53929,1,6,2:2:0:0:
156,102,54122,1,2,2:2:0:0:
103,84,54316,1,2,3:2:0:0:
16,152,54703,2,1,P|-9:102|1:47,2,110,6|2|0,2:2|2:2|3:3,0:0:0:0:
0,264,55864,2,1,P|7:289|7:316,1,55,10|6,2:2|2:2,0:0:0:0:
40,360,56251,6,1,B|80:383|119:351|119:351|158:377|158:377|196:343|239:369,1,220,6|0,3:2|2:2,0:0:0:0:
272,328,57219,2,1,L|264:272,1,55,2|2,2:2|2:2,0:0:0:0:
288,168,57800,1,10,2:2:0:0:
288,168,57993,1,0,2:2:0:0:
288,168,58187,1,2,3:2:0:0:
396,192,58574,2,1,P|370:241|381:296,1,110,2|2,3:2|2:2,0:0:0:0:
416,336,59155,1,10,2:2:0:0:
472,344,59348,5,14,3:2:0:0:
496,128,60122,1,14,3:2:0:0:
280,104,60897,1,14,3:2:0:0:
264,160,61090,1,0,2:2:0:0:
296,208,61284,1,2,2:2:0:0:
256,312,61671,2,1,B|202:293|202:329|149:312,1,110,2|2,2:2|2:2,0:0:0:0:
48,264,62445,5,4,3:2:0:0:
80,156,62832,1,10,3:2:0:0:
176,100,63219,2,1,P|192:138|190:179,2,82.5,0|0|0,3:3|2:2|2:2,0:0:0:0:
208,56,63993,1,4,3:2:0:0:
112,0,64380,1,8,3:2:0:0:
24,72,64768,2,1,B|5:125|41:125|24:178,1,110,0|8,3:3|3:2,0:0:0:0:
0,228,65348,1,2,2:2:0:0:
16,280,65542,5,6,3:2:0:0:
64,304,65735,1,0,2:2:0:0:
112,280,65929,1,10,3:2:0:0:
216,256,66316,1,2,3:2:0:0:
248,304,66509,1,0,2:2:0:0:
232,360,66703,1,10,3:2:0:0:
120,384,67090,2,1,L|36:375,2,82.5,4|2|2,3:2|2:2|2:2,0:0:0:0:
104,336,67864,1,0,3:3:0:0:
104,336,68058,2,1,P|93:282|117:234,1,110,2|2,2:2|3:2,0:0:0:0:
168,216,68639,5,4,3:2:0:0:
256,288,69026,1,10,3:2:0:0:
280,184,69413,1,0,3:3:0:0:
280,184,69606,1,0,2:2:0:0:
280,184,69800,1,10,3:2:0:0:
224,88,70187,1,4,3:2:0:0:
304,8,70574,1,10,3:2:0:0:
376,96,70961,2,1,B|429:114|429:78|482:96,1,110,0|8,3:3|3:2,0:0:0:0:
512,144,71542,1,2,2:2:0:0:
488,192,71735,5,6,3:2:0:0:
432,184,71929,1,0,2:2:0:0:
384,208,72122,1,10,3:2:0:0:
296,280,72509,1,2,3:2:0:0:
288,336,72703,1,0,2:2:0:0:
328,376,72897,1,10,3:2:0:0:
432,344,73284,2,1,P|473:346|511:329,2,82.5,4|0|0,3:2|2:2|2:2,0:0:0:0:
392,312,74058,1,2,3:2:0:0:
392,312,74251,2,1,L|383:197,1,110,2|10,2:2|2:2,0:0:0:0:
380,148,74832,1,4,3:2:0:0:
256,192,74929,12,4,76380,3:2:0:0:
392,112,79863,5,0,2:2:0:0:
392,112,80250,2,1,L|400:56,2,55,8|8|8,2:2|2:3|2:2,0:0:0:0:
352,216,81025,5,4,3:2:0:0:
256,168,81412,2,1,P|194:159|150:176,1,110,10|10,2:2|2:2,0:0:0:0:
96,272,82186,1,2,3:2:0:0:
48,376,82573,2,1,P|109:384|153:367,1,110,8|10,2:2|2:2,0:0:0:0:
96,272,83347,5,2,3:2:0:0:
8,200,83734,2,1,P|0:138|16:94,1,110,8|10,2:2|2:2,0:0:0:0:
96,16,84509,2,1,B|131:55|201:51|192:7|263:2|298:42,1,220,2|8,3:2|2:2,0:0:0:0:
360,136,85670,5,6,3:2:0:0:
320,240,86057,2,1,P|266:249|218:225,1,110,10|10,2:2|2:2,0:0:0:0:
128,288,86831,1,2,3:2:0:0:
208,368,87218,2,1,P|263:378|312:353,1,110,8|10,2:2|2:2,0:0:0:0:
416,384,87992,5,2,3:2:0:0:
472,288,88379,2,1,P|461:234|485:186,1,110,10|10,2:2|2:2,0:0:0:0:
384,144,89154,2,1,B|348:104|278:108|287:152|216:157|181:117,1,220,2|0,3:2|3:3,0:0:0:0:
232,16,90315,5,4,3:2:0:0:
344,0,90702,1,2,3:2:0:0:
392,96,91089,1,2,3:2:0:0:
480,168,91476,1,2,3:2:0:0:
512,64,91863,2,1,L|503:6,2,55,2|10|2,3:2|2:2|3:2,0:0:0:0:
400,56,92638,5,2,3:2:0:0:
360,161,93025,1,2,3:2:0:0:
430,249,93412,1,2,3:2:0:0:
369,346,93799,1,2,3:2:0:0:
264,376,94186,2,1,P|238:368|211:368,2,55,2|10|2,3:2|3:2|3:2,0:0:0:0:
288,272,94960,5,6,3:2:0:0:
240,240,95154,1,8,3:2:0:0:
184,256,95347,1,0,3:3:0:0:
128,352,95734,2,1,P|74:363|26:338,1,110,0|2,3:3|3:2,0:0:0:0:
0,232,96509,1,0,3:3:0:0:
8,176,96702,1,8,3:2:0:0:
48,136,96896,1,2,3:2:0:0:
160,120,97283,5,2,3:2:0:0:
176,232,97670,1,2,3:2:0:0:
232,248,97863,1,10,3:2:0:0:
280,216,98057,1,2,3:2:0:0:
320,112,98444,2,1,L|214:76,1,110,10|10,3:2|3:2,0:0:0:0:
104,96,99218,1,10,3:2:0:0:
48,0,99605,1,14,3:2:0:0:
48,32,105798,5,2,3:2:0:0:
48,32,105992,1,0,2:2:0:0:
48,32,106185,1,2,3:2:0:0:
160,48,106572,1,2,3:2:0:0:
200,88,106766,1,0,2:2:0:0:
200,144,106959,2,1,P|151:169|98:159,1,110,2|2,3:2|3:2,0:0:0:0:
44,152,107540,1,0,2:2:0:0:
0,188,107734,1,2,3:2:0:0:
72,272,108121,2,1,P|106:288|152:286,2,82.5,2|2|2,3:2|2:2|2:2,0:0:0:0:
32,312,108895,5,0,3:3:0:0:
32,312,109088,2,1,P|39:337|39:364,2,55,2|2|0,2:2|3:2|2:2,0:0:0:0:
24,256,109669,2,1,P|-3:203|7:146,1,110,2|2,3:2|3:2,0:0:0:0:
96,88,110443,2,1,P|144:113|197:103,1,110,2|2,3:2|3:2,0:0:0:0:
248,80,111024,1,2,2:2:0:0:
296,112,111217,2,1,L|287:226,1,110,2|2,3:2|3:2,0:0:0:0:
392,256,111992,5,2,3:2:0:0:
440,224,112185,1,0,2:2:0:0:
496,240,112379,1,2,3:2:0:0:
512,352,112766,1,2,3:2:0:0:
400,368,113153,1,2,3:2:0:0:
392,256,113540,1,2,3:2:0:0:
392,256,113734,1,0,2:2:0:0:
392,256,113927,2,1,L|383:141,1,110,2|2,3:2|3:2,0:0:0:0:
424,104,114508,2,1,P|449:111|476:111,1,55,0|2,2:2|3:2,0:0:0:0:
408,24,115088,6,1,P|382:16|355:16,2,55,0|2|2,3:3|2:2|3:2,0:0:0:0:
400,136,115863,1,2,3:2:0:0:
312,200,116250,1,2,3:2:0:0:
216,144,116637,2,1,P|166:118|111:129,1,110,2|2,3:2|3:2,0:0:0:0:
64,152,117217,1,0,2:2:0:0:
32,200,117411,2,1,L|40:314,1,110,2|10,3:2|3:2,0:0:0:0:
128,384,118185,6,1,P|175:359|228:370,1,110,6|8,3:2|3:2,0:0:0:0:
284,376,118766,1,2,2:2:0:0:
336,352,118959,2,1,P|348:328|352:296,2,55,2|2|10,3:2|2:2|3:2,0:0:0:0:
252,288,119734,1,2,3:2:0:0:
252,288,119927,2,0,L|204:260,1,55,0|10,2:2|3:2,0:0:0:0:
296,192,120508,1,2,3:2:0:0:
296,192,120701,2,0,L|352:176,1,55,0|10,2:2|3:2,0:0:0:0:
288,80,121282,6,1,L|173:88,1,110,6|8,3:2|3:2,0:0:0:0:
120,88,121863,1,2,2:2:0:0:
72,56,122056,2,1,P|64:30|64:3,2,55,2|2|10,3:2|2:2|3:2,0:0:0:0:
8,152,122830,1,2,3:2:0:0:
8,152,123024,2,1,P|16:178|16:205,1,55,0|10,2:2|3:2,0:0:0:0:
48,320,123604,1,2,3:2:0:0:
48,320,123798,2,1,P|74:312|101:312,1,55,0|10,2:2|3:2,0:0:0:0:
160,224,124379,5,4,3:2:0:0:
160,224,124572,1,0,0:0:0:0:
160,224,124766,2,1,L|268:216,1,110,10|2,3:2|3:2,0:0:0:0:
296,168,125346,2,1,P|288:142|288:115,1,55,0|10,2:2|3:2,0:0:0:0:
360,32,125927,1,2,3:2:0:0:
412,23,126121,1,0,2:2:0:0:
456,58,126314,2,1,P|467:110|442:159,1,110,10|2,3:2|3:2,0:0:0:0:
404,199,126895,2,1,P|393:251|417:300,1,110,0|0,2:2|0:0,0:0:0:0:
474,313,127475,5,4,3:2:0:0:
384,384,127863,1,10,3:2:0:0:
280,344,128250,1,2,3:2:0:0:
264,232,128637,1,10,3:2:0:0:
352,168,129024,2,1,P|360:112|320:64,1,110,2|10,3:2|3:2,0:0:0:0:
280,48,129604,1,2,2:2:0:0:
228,64,129798,2,1,P|174:72|130:42,1,110,2|10,3:2|3:2,0:0:0:0:
24,72,130572,5,6,3:2:0:0:
8,128,130766,1,0,2:2:0:0:
32,180,130959,1,10,3:2:0:0:
144,200,131346,2,1,L|224:184,1,82.5,2|10,3:2|3:2,0:0:0:0:
280,56,132121,6,1,L|360:72,2,82.5,4|0|0,3:2|2:2|2:2,0:0:0:0:
232,88,132895,2,1,P|224:144|264:192,1,110,0|10,3:3|3:2,0:0:0:0:
336,256,133669,1,6,3:2:0:0:
392,240,133863,1,0,2:2:0:0:
424,192,134056,1,10,3:2:0:0:
440,80,134443,2,1,L|325:71,1,110,0|10,3:3|3:2,0:0:0:0:
232,120,135217,2,1,B|168:93|119:140|107:200|173:271|247:238|218:191|292:191|321:231,1,330,2|8,3:2|2:3,0:0:0:0:
408,296,136766,6,1,B|357:309|331:360|331:360|279:326|219:338,1,220,6|0,3:2|2:2,0:0:0:0:
176,376,137734,2,1,L|120:384,1,55,2|0,2:2|2:2,0:0:0:0:
24,352,138314,1,0,2:2:0:0:
24,352,138508,1,2,2:2:0:0:
24,352,138701,1,2,2:2:0:0:
24,240,139088,2,1,P|72:215|126:225,1,110,0|2,0:0|3:2,0:0:0:0:
236,236,139863,5,4,2:2:0:0:
263,188,140056,1,0,0:0:0:0:
245,135,140250,1,2,2:2:0:0:
296,36,140637,1,2,3:2:0:0:
247,9,140830,1,0,2:2:0:0:
194,27,141024,1,2,2:2:0:0:
112,104,141411,2,1,P|136:152|126:205,2,110,6|2|2,2:2|3:2|2:2,0:0:0:0:
8,80,142572,2,1,P|0:54|0:27,1,55,2|2,3:2|3:2,0:0:0:0:
48,0,142959,6,1,B|78:44|55:113|14:91|-8:160|21:204,1,220,6|0,2:2|2:2,0:0:0:0:
72,224,143927,2,1,P|79:249|79:276,1,55,2|2,2:2|2:2,0:0:0:0:
16,368,144508,1,2,2:2:0:0:
16,368,144701,1,0,2:2:0:0:
16,368,144895,1,10,2:2:0:0:
128,384,145282,2,1,L|238:375,1,110,2|2,3:2|2:2,0:0:0:0:
288,352,145863,1,10,2:2:0:0:
320,304,146056,5,14,3:2:0:0:
272,88,146830,1,14,3:2:0:0:
488,40,147604,1,14,3:2:0:0:
512,88,147798,1,0,2:2:0:0:
488,136,147992,1,2,2:2:0:0:
512,248,148379,2,1,B|458:266|458:230|405:248,1,110,2|2,2:2|2:2,0:0:0:0:
296,264,149153,2,1,P|296:236|303:210,2,55,2|0|2,2:2|2:2|2:2,0:0:0:0:
328,368,149929,5,4,3:2:0:0:
440,384,150316,1,10,3:2:0:0:
504,296,150703,2,1,P|506:254|489:216,2,82.5,0|0|0,3:3|2:2|2:2,0:0:0:0:
472,344,151477,1,4,3:2:0:0:
360,360,151864,1,8,3:2:0:0:
288,272,152251,2,1,B|269:218|305:218|288:165,1,110,0|8,3:3|3:2,0:0:0:0:
268,112,152832,1,2,2:2:0:0:
288,60,153025,5,6,3:2:0:0:
256,16,153219,1,0,2:2:0:0:
200,8,153412,1,10,3:2:0:0:
180,116,153799,1,2,3:2:0:0:
136,140,153993,1,0,2:2:0:0:
88,124,154187,1,10,3:2:0:0:
88,8,154574,2,1,L|0:0,2,82.5,4|2|2,3:2|2:2|2:2,0:0:0:0:
132,44,155348,1,0,3:3:0:0:
132,44,155541,2,1,P|143:97|118:145,1,110,2|2,2:2|2:2,0:0:0:0:
70,167,156122,5,4,3:2:0:0:
32,272,156509,1,10,3:2:0:0:
148,264,156896,1,0,3:3:0:0:
148,264,157090,1,0,2:2:0:0:
148,264,157283,1,10,3:2:0:0:
224,184,157670,1,4,3:2:0:0:
304,264,158058,1,10,3:2:0:0:
256,360,158445,2,1,B|309:378|309:342|362:360,1,110,0|8,3:3|3:2,0:0:0:0:
416,384,159025,1,2,2:2:0:0:
468,360,159219,5,6,3:2:0:0:
488,308,159412,1,0,2:2:0:0:
468,256,159606,1,10,3:2:0:0:
480,148,159993,1,2,3:2:0:0:
432,122,160187,1,0,2:2:0:0:
379,139,160380,1,10,3:2:0:0:
328,240,160767,1,6,3:2:0:0:
328,240,160961,1,0,2:2:0:0:
328,240,161154,1,10,3:2:0:0:
232,192,161541,1,0,3:3:0:0:
232,192,161735,2,1,P|257:143|245:90,1,110,2|2,2:2|2:2,0:0:0:0:
200,40,162316,5,4,3:2:0:0:
64,24,162703,1,10,3:2:0:0:
48,160,163090,2,1,P|29:201|32:246,2,90.7500027694703,0|0|0,3:3|2:2|2:2,0:0:0:0:
104,120,163864,1,4,3:2:0:0:
136,248,164251,1,8,3:2:0:0:
264,216,164638,2,1,B|284:156|245:156|264:98,1,121.000003692627,0|8,3:3|3:2,0:0:0:0:
303,40,165219,1,2,2:2:0:0:
371,27,165412,5,6,3:2:0:0:
438,46,165606,1,0,2:2:0:0:
464,110,165799,1,10,3:2:0:0:
392,224,166187,1,2,3:2:0:0:
368,288,166380,1,0,2:2:0:0:
408,344,166574,1,8,3:2:0:0:
280,384,166961,1,6,3:2:0:0:
304,320,167154,1,0,2:2:0:0:
264,264,167348,1,8,3:2:0:0:
196,156,167735,1,0,3:3:0:0:
196,156,167928,2,1,P|197:125|205:96,2,60.5000018463135,2|8|2,2:2|3:2|2:2,0:0:0:0:
220,220,168509,5,4,3:2:0:0:
336,152,168896,1,10,3:2:0:0:
312,24,169283,2,1,P|357:21|398:40,2,90.7500027694703,0|0|0,3:3|2:2|2:2,0:0:0:0:
256,64,170058,1,4,3:2:0:0:
136,0,170445,1,10,3:2:0:0:
16,48,170832,2,1,B|36:107|-3:107|16:165,1,121.000003692627,0|8,3:3|3:2,0:0:0:0:
55,224,171412,1,2,2:2:0:0:
25,287,171606,5,6,3:2:0:0:
56,349,171799,1,0,2:2:0:0:
122,372,171993,1,10,3:2:0:0:
172,252,172380,1,2,3:2:0:0:
172,252,172574,1,0,2:2:0:0:
172,252,172767,1,10,3:2:0:0:
296,208,173154,2,1,L|304:304,2,90.7500027694703,4|0|0,3:2|2:2|2:2,0:0:0:0:
256,152,173928,1,2,3:2:0:0:
256,152,174122,2,1,P|254:122|246:93,2,60.5000018463135,2|8|2,2:2|3:2|2:2,0:0:0:0:
216,208,174703,1,4,3:2:0:0:
256,192,174896,12,4,177799,3:2:0:0:
136,232,180896,5,4,3:2:0:0:
32,152,181283,1,8,3:2:0:0:
152,96,181670,2,1,L|159:4,2,90.7500027694703,2|2|2,3:2|2:2|2:2,0:0:0:0:
200,152,182445,1,0,3:3:0:0:
200,152,182638,2,1,P|229:152|258:160,1,60.5000018463135,2|8,2:2|3:2,0:0:0:0:
328,48,183219,2,1,P|373:50|414:31,1,90.7500027694703,2|2,3:2|2:2,0:0:0:0:
488,104,183799,1,2,2:2:0:0:
488,104,183993,5,4,3:2:0:0:
392,200,184380,1,8,3:2:0:0:
496,288,184767,2,1,L|503:196,2,90.7500027694703,2|2|2,3:2|2:2|2:2,0:0:0:0:
464,352,185541,1,0,3:3:0:0:
464,352,185735,2,1,P|434:352|405:360,1,60.5000018463135,2|0,2:2|3:3,0:0:0:0:
272,384,186316,2,1,P|226:386|185:367,1,90.7500027694703,0|10,3:3|2:2,0:0:0:0:
152,280,186896,1,2,3:2:0:0:
152,280,187090,5,4,3:2:0:0:
264,208,187477,1,0,2:2:0:0:
208,88,187864,2,1,P|162:85|121:104,2,90.7500027694703,10|10|2,2:2|2:2|3:2,0:0:0:0:
