osu file format v14

[General]
AudioFilename: audio.mp3
AudioLeadIn: 0
PreviewTime: 62445
Countdown: 0
SampleSet: Soft
StackLeniency: 0.7
Mode: 0
LetterboxInBreaks: 0
WidescreenStoryboard: 1

[Editor]
Bookmarks: 510,6703,19090,31477,37671,50058,62445,76380,90315,99605,105798,118185,124379,136766,149929,162316,174703,187090
DistanceSpacing: 2.2
BeatDivisor: 4
GridSize: 8
TimelineZoom: 3.999998

[Metadata]
Title:Noushou Sakuretsu Girl
TitleUnicode:脳漿炸裂ガール
Artist:Wagakki Band
ArtistUnicode:和楽器バンド
Creator:YGOkid8
Version:Insane
Source:
Tags:corsace closed 2022 cc22 gf dt2 japanese folk traditional metal rock jrock j-rock VOCALO Zanmai ボカロ三昧 brain fluid explosion girl rerulili れるりり ToushahiP 当社比P Sasaki Kouhei 佐々木貢平 hatsune miku 初音ミク gumi グミ megpoid メグッポイド vocaloid utaite cover suzuhana yuko yuuko 鈴華ゆう子 machiya 町屋 molneya
BeatmapID:3643926
BeatmapSetID:1779254

[Difficulty]
HPDrainRate:6
CircleSize:4
OverallDifficulty:8
ApproachRate:8.5
SliderMultiplier:1.6
SliderTickRate:2

[Events]
//Background and Video events
0,0,"background.jpg",0,0
//Break Periods
2,99805,105048
//Storyboard Layer 0 (Background)
//Storyboard Layer 1 (Fail)
//Storyboard Layer 2 (Pass)
//Storyboard Layer 3 (Foreground)
//Storyboard Layer 4 (Overlay)
//Storyboard Sound Samples

[TimingPoints]
510,387.096774193548,4,2,1,60,1,0
6703,-100,4,2,1,70,0,0
40380,-100,4,2,2,70,0,0
40477,-100,4,2,1,70,0,0
40574,-100,4,2,2,70,0,0
40671,-100,4,2,1,70,0,0
49864,-100,4,2,3,70,0,0
49961,-100,4,2,1,70,0,0
56058,-100,4,2,2,70,0,0
56155,-100,4,2,1,70,0,0
59058,-100,4,2,4,70,0,0
59155,-100,4,2,1,70,0,0
59251,-100,4,2,4,70,0,0
59348,-100,4,2,1,70,0,0
62445,-100,4,2,1,70,0,1
68542,-100,4,2,4,70,0,1
68639,-100,4,2,1,70,0,1
74542,-100,4,2,4,70,0,1
74639,-100,4,2,2,70,0,1
74735,-100,4,2,4,70,0,1
74832,-100,4,2,1,70,0,1
75606,-100,4,2,4,70,0,1
76187,-100,4,2,1,70,0,1
76380,387.096774193548,3,2,1,60,1,0
79863,-100,3,2,5,60,0,0
80057,-100,3,2,1,60,0,0
99605,387.096774193548,4,2,1,60,1,0
117798,-100,4,2,1,70,0,0
123701,-100,4,2,4,70,0,0
123798,-100,4,2,1,70,0,0
124088,-100,4,2,4,70,0,0
124379,-100,4,2,1,70,0,0
145766,-100,4,2,4,70,0,0
145863,-100,4,2,1,70,0,0
145959,-100,4,2,4,70,0,0
146056,-100,4,2,1,70,0,0
149929,387.096774193548,4,2,1,70,1,1
162122,-100,4,2,1,70,0,0
162316,-83.3333333333333,4,2,1,70,0,1
174509,-83.3333333333333,4,2,1,70,0,0
174703,-83.3333333333333,4,2,1,70,0,1
174896,-83.3333333333333,4,2,1,70,0,0
187283,-83.3333333333333,4,2,2,70,0,0
188058,-83.3333333333333,4,2,1,70,0,0
188154,-83.3333333333333,4,2,2,70,0,0
188251,-83.3333333333333,4,2,1,70,0,0

[Colours]
Combo1 : 179,0,89
Combo2 : 255,128,128
Combo3 : 176,0,176
Combo4 : 255,128,64

[HitObjects]
136,136,510,5,4,2:2:0:0:
105,39,703,1,2,2:2:0:0:
219,76,897,1,0,2:2:0:0:
219,76,993,1,2,2:2:0:0:
219,196,1187,1,0,2:2:0:0:
219,196,1284,1,2,2:2:0:0:
105,234,1477,1,0,2:2:0:0:
105,234,1574,1,2,2:2:0:0:
34,136,1768,1,0,2:2:0:0:
34,136,1864,1,2,2:2:0:0:
176,176,2058,5,0,2:2:0:0:
144,288,2251,1,2,2:2:0:0:
264,264,2445,1,0,2:2:0:0:
264,264,2542,1,2,2:2:0:0:
304,88,2832,6,1,L|280:80,2,20,2|0|0,2:2|2:2|2:2,0:0:0:0:
344,104,3026,1,2,2:2:0:0:
344,104,3122,1,0,2:2:0:0:
432,184,3316,1,2,2:2:0:0:
440,144,3413,1,0,2:2:0:0:
376,248,3606,5,4,2:2:0:0:
407,345,3800,1,2,2:2:0:0:
293,308,3993,1,0,2:2:0:0:
293,308,4090,1,2,2:2:0:0:
293,188,4284,1,0,2:2:0:0:
293,188,4380,1,2,2:2:0:0:
407,150,4574,1,0,2:2:0:0:
407,150,4671,1,2,2:2:0:0:
478,248,4864,1,0,2:2:0:0:
478,248,4961,1,2,2:2:0:0:
336,208,5155,5,0,2:2:0:0:
368,96,5348,1,2,2:2:0:0:
248,120,5542,1,0,2:2:0:0:
248,120,5639,1,2,2:2:0:0:
80,56,5929,5,0,2:2:0:0:
84,96,6026,1,2,2:2:0:0:
88,136,6122,1,0,2:2:0:0:
92,176,6219,1,2,2:2:0:0:
208,264,6413,5,0,2:2:0:0:
204,224,6509,1,2,2:2:0:0:
200,184,6606,1,0,2:2:0:0:
196,144,6703,1,6,3:2:0:0:
76,156,6897,5,2,2:2:0:0:
172,236,7090,1,8,3:2:0:0:
172,236,7187,2,1,P|176:212|172:192,1,40,2|0,2:2|0:0,0:0:0:0:
120,296,7380,1,0,2:2:0:0:
120,296,7477,2,1,P|138:311|158:318,1,40,2|0,3:2|0:0,0:0:0:0:
96,216,7671,1,0,2:2:0:0:
96,216,7768,2,1,P|73:224|57:237,2,40,2|8|0,2:2|3:2|2:2,0:0:0:0:
200,200,8058,1,2,2:2:0:0:
208,344,8251,5,0,3:3:0:0:
352,336,8445,2,1,P|360:296|352:256,1,80,2|8,2:2|3:2,0:0:0:0:
264,176,8832,5,2,2:2:0:0:
272,136,8929,1,0,2:2:0:0:
304,112,9026,1,2,3:2:0:0:
344,112,9122,1,0,2:2:0:0:
376,136,9219,1,2,2:2:0:0:
416,128,9316,2,1,P|434:92|436:51,1,80,2|0,2:2|2:2,0:0:0:0:
376,8,9606,5,2,2:2:0:0:
376,8,9703,1,0,2:2:0:0:
376,8,9800,1,4,3:2:0:0:
304,104,9993,5,2,2:2:0:0:
232,16,10187,1,8,3:2:0:0:
232,16,10284,2,1,L|192:24,1,40,2|0,2:2|0:0,0:0:0:0:
128,96,10477,1,0,2:2:0:0:
128,96,10574,2,1,L|168:104,1,40,2|0,3:2|0:0,0:0:0:0:
264,144,10768,1,0,2:2:0:0:
264,144,10864,2,1,P|268:120|264:100,2,40,2|8|0,2:2|3:2|2:2,0:0:0:0:
200,216,11155,1,2,2:2:0:0:
264,344,11348,5,0,3:3:0:0:
304,208,11542,1,2,2:2:0:0:
264,344,11735,2,1,L|224:336,1,40,8|2,3:2|2:2,0:0:0:0:
160,288,11929,1,0,2:2:0:0:
304,264,12122,5,0,3:3:0:0:
296,224,12219,1,2,2:2:0:0:
264,200,12316,1,0,2:2:0:0:
224,200,12413,2,1,P|206:164|204:123,1,80,2|0,2:2|2:2,0:0:0:0:
256,40,12703,1,2,2:2:0:0:
376,112,12897,5,4,3:2:0:0:
304,232,13090,1,2,2:2:0:0:
200,176,13284,1,8,3:2:0:0:
200,176,13380,2,1,L|192:216,1,40,2|0,2:2|0:0,0:0:0:0:
184,96,13574,1,0,2:2:0:0:
184,96,13671,2,1,L|153:70,1,40,2|0,3:2|0:0,0:0:0:0:
264,112,13864,1,0,2:2:0:0:
264,112,13961,2,1,L|302:99,2,40,2|8|0,2:2|3:2|2:2,0:0:0:0:
168,144,14251,1,2,2:2:0:0:
256,256,14445,5,0,3:3:0:0:
200,360,14639,2,1,L|240:368,2,40,2|0|8,2:2|0:0|3:2,0:0:0:0:
152,296,14929,2,1,B|112:312|112:312|72:304,1,80,2|0,2:2|0:0,0:0:0:0:
16,248,15219,5,2,3:2:0:0:
8,208,15316,1,0,2:2:0:0:
32,176,15413,1,0,2:2:0:0:
72,176,15509,1,0,2:2:0:0:
104,152,15606,6,1,L|112:120,2,26.6666666666667,10|0|0,3:2|0:0|0:0,0:0:0:0:
128,232,15800,1,0,2:2:0:0:
128,232,15897,1,0,2:2:0:0:
128,232,15993,1,4,3:2:0:0:
240,192,16187,5,2,2:2:0:0:
216,312,16380,1,8,3:2:0:0:
216,312,16477,2,1,P|240:314|258:323,1,40,2|0,2:2|0:0,0:0:0:0:
336,384,16671,1,0,2:2:0:0:
336,384,16768,2,1,P|360:381|378:372,1,40,2|0,3:2|0:0,0:0:0:0:
416,288,16961,1,0,2:2:0:0:
416,288,17058,2,1,L|456:280,2,40,2|8|0,2:2|3:2|2:2,0:0:0:0:
320,240,17348,1,2,2:2:0:0:
440,160,17542,5,0,3:3:0:0:
411,47,17735,1,10,2:2:0:0:
319,127,17929,1,0,3:3:0:0:
319,127,18026,1,2,3:2:0:0:
319,127,18122,1,0,3:3:0:0:
208,32,18316,5,0,3:3:0:0:
216,72,18413,1,2,2:2:0:0:
192,104,18509,1,8,2:2:0:0:
152,112,18606,2,1,P|134:147|131:187,1,80,2|0,2:2|3:3,0:0:0:0:
224,216,18897,1,10,2:2:0:0:
176,352,19090,5,4,3:2:0:0:
136,344,19187,1,2,2:2:0:0:
40,272,19380,1,0,2:2:0:0:
80,264,19477,1,10,3:2:0:0:
128,136,19671,5,0,2:2:0:0:
144,176,19768,2,1,P|168:173|186:164,2,40,2|0|0,2:2|3:3|2:2,0:0:0:0:
48,152,20058,1,2,2:2:0:0:
88,40,20251,5,8,3:2:0:0:
128,48,20348,1,2,2:2:0:0:
264,96,20542,1,0,2:2:0:0:
224,88,20639,1,2,3:2:0:0:
144,176,20832,5,0,2:2:0:0:
232,256,21026,2,1,P|267:238|307:235,1,80,10|0,3:2|2:2,0:0:0:0:
328,320,21316,1,0,2:2:0:0:
328,320,21413,2,1,P|309:327|289:329,2,40,2|0|0,3:2|2:2|2:2,0:0:0:0:
400,272,21703,2,1,P|407:232|399:194,1,80,2|0,2:2|2:2,0:0:0:0:
399,194,21993,1,2,2:2:0:0:
384,72,22187,5,6,3:2:0:0:
262,87,22380,1,0,2:2:0:0:
277,209,22574,1,10,3:2:0:0:
176,168,22768,5,0,2:2:0:0:
176,168,22864,1,0,2:2:0:0:
176,168,22961,2,1,P|152:171|134:180,1,40,2|0,3:2|2:2,0:0:0:0:
96,264,23155,2,1,P|120:267|138:276,1,40,0|0,2:2|2:2,0:0:0:0:
48,176,23348,2,1,P|51:152|60:134,2,40,10|0|0,3:2|2:2|2:2,0:0:0:0:
0,248,23639,5,0,2:2:0:0:
0,248,23735,2,1,L|8:328,1,80,2|0,3:2|2:2,0:0:0:0:
120,376,24122,5,10,3:2:0:0:
156,348,24219,1,0,2:2:0:0:
156,300,24316,1,2,2:2:0:0:
120,264,24413,1,0,2:2:0:0:
132,208,24509,2,1,P|167:190|207:187,1,80,2|0,3:2|2:2,0:0:0:0:
336,92,24897,5,10,3:2:0:0:
308,44,24993,1,0,2:2:0:0:
256,32,25090,1,2,2:2:0:0:
212,52,25187,1,0,2:2:0:0:
192,92,25284,1,6,3:2:0:0:
280,224,25477,5,0,2:2:0:0:
320,208,25574,1,0,2:2:0:0:
328,168,25671,1,10,3:2:0:0:
360,144,25768,1,0,2:2:0:0:
400,152,25864,1,0,2:2:0:0:
480,240,26058,5,2,3:2:0:0:
472,280,26155,1,0,2:2:0:0:
376,368,26348,1,0,2:2:0:0:
368,328,26445,2,1,L|376:288,2,40,10|0|0,3:2|2:2|2:2,0:0:0:0:
272,352,26735,5,0,2:2:0:0:
272,352,26832,2,1,P|253:344|233:342,1,40,2|0,3:2|2:2,0:0:0:0:
216,248,27026,2,1,P|235:255|255:257,1,40,0|0,2:2|2:2,0:0:0:0:
328,192,27219,5,10,3:2:0:0:
336,152,27316,1,0,0:0:0:0:
320,112,27413,1,0,2:2:0:0:
280,104,27509,1,0,2:2:0:0:
248,128,27606,5,2,3:2:0:0:
175,29,27800,1,0,2:2:0:0:
125,141,27993,6,1,L|168:136,1,40,10|0,3:2|2:2,0:0:0:0:
88,64,28187,2,1,L|45:59,1,40,2|0,2:2|2:2,0:0:0:0:
24,160,28380,5,6,3:2:0:0:
120,232,28574,1,0,2:2:0:0:
9,279,28768,1,10,3:2:0:0:
9,279,28864,1,0,2:2:0:0:
9,279,28961,1,0,2:2:0:0:
80,352,29155,5,2,3:2:0:0:
87,208,29348,1,0,2:2:0:0:
231,215,29542,1,10,3:2:0:0:
223,359,29735,1,0,2:2:0:0:
360,328,29929,5,6,3:2:0:0:
344,192,30122,1,0,2:2:0:0:
320,196,30219,1,0,2:2:0:0:
296,200,30316,1,10,3:2:0:0:
160,144,30509,5,0,2:2:0:0:
152,104,30606,1,0,2:2:0:0:
168,64,30703,1,2,3:2:0:0:
208,56,30800,1,0,2:2:0:0:
240,80,30897,1,0,2:2:0:0:
216,224,31090,5,10,3:2:0:0:
176,240,31187,2,1,P|137:238|101:220,1,80,0|0,2:2|2:2,0:0:0:0:
64,128,31477,6,1,L|72:88,3,40,6|0|0|0,3:2|2:2|2:2|2:2,0:0:0:0:
96,56,31864,1,8,3:2:0:0:
136,48,31961,1,0,2:2:0:0:
168,72,32058,1,0,2:2:0:0:
168,112,32155,1,0,2:2:0:0:
192,144,32251,6,1,P|211:141|230:134,1,40,0|0,3:3|2:2,0:0:0:0:
256,40,32445,2,1,P|275:43|294:50,1,40,0|0,2:2|2:2,0:0:0:0:
352,152,32639,1,8,3:2:0:0:
360,112,32735,1,0,2:2:0:0:
392,88,32832,1,2,2:2:0:0:
432,88,32929,1,0,2:2:0:0:
464,112,33026,6,1,L|472:152,3,40,4|0|0|0,3:2|2:2|2:2|2:2,0:0:0:0:
472,192,33413,1,8,3:2:0:0:
440,216,33509,1,0,2:2:0:0:
401,207,33606,1,0,2:2:0:0:
385,170,33703,1,0,2:2:0:0:
348,152,33800,5,0,3:3:0:0:
308,160,33897,1,0,2:2:0:0:
284,192,33993,1,0,2:2:0:0:
284,232,34090,1,0,2:2:0:0:
308,264,34187,2,1,P|327:267|346:274,1,40,8|0,3:2|2:2,0:0:0:0:
392,360,34380,2,1,P|373:367|353:370,1,40,2|0,2:2|2:2,0:0:0:0:
248,352,34574,6,1,P|254:368|256:384,2,26.6666666666667,4|0|0,3:2|0:0|0:0,0:0:0:0:
224,328,34768,2,1,P|205:336|185:339,1,40,0|0,2:2|2:2,0:0:0:0:
188,240,34961,1,10,3:2:0:0:
188,240,35058,1,0,2:2:0:0:
188,240,35155,2,1,L|228:232,1,40,0|0,2:2|2:2,0:0:0:0:
212,128,35348,5,0,3:3:0:0:
180,152,35445,1,0,2:2:0:0:
140,152,35542,1,0,2:2:0:0:
108,128,35639,1,0,2:2:0:0:
68,128,35735,1,8,3:2:0:0:
44,160,35832,1,0,2:2:0:0:
52,200,35929,2,1,L|60:232,2,26.6666666666667,2|0|0,2:2|0:0|0:0,0:0:0:0:
20,192,36122,6,1,P|2:227|-1:267,1,80,4|0,3:2|2:2,0:0:0:0:
100,376,36509,1,8,3:2:0:0:
164,224,36703,1,2,2:2:0:0:
164,184,36800,1,0,2:2:0:0:
188,152,36897,2,1,P|207:155|226:162,1,40,4|0,3:2|2:2,0:0:0:0:
284,248,37090,6,1,L|316:240,2,26.6666666666667,0|0|0,2:2|0:0|0:0,0:0:0:0:
252,240,37284,2,1,P|244:258|241:278,1,40,10|0,3:2|2:2,0:0:0:0:
284,376,37477,1,0,2:2:0:0:
284,376,37574,1,0,2:2:0:0:
284,376,37671,1,4,3:2:0:0:
432,80,39219,5,2,3:2:0:0:
408,72,39413,5,2,3:2:0:0:
384,64,39606,5,2,3:2:0:0:
360,56,39800,5,8,2:2:0:0:
320,64,39897,1,8,2:2:0:0:
296,96,39993,5,2,3:2:0:0:
304,136,40090,1,0,2:2:0:0:
336,160,40187,1,0,3:3:0:0:
336,200,40284,1,0,3:3:0:0:
304,224,40380,2,1,L|264:232,1,40,10|8,2:2|2:3,0:0:0:0:
328,312,40574,2,1,L|368:304,1,40,6|4,2:2|2:3,0:0:0:0:
456,352,40768,5,6,3:2:0:0:
480,240,40961,1,0,2:2:0:0:
480,240,41058,1,0,2:2:0:0:
480,240,41155,1,10,3:2:0:0:
360,216,41348,1,0,2:2:0:0:
364,192,41445,1,0,2:2:0:0:
368,168,41542,1,2,3:2:0:0:
480,136,41735,5,0,2:2:0:0:
472,96,41832,1,0,2:2:0:0:
440,72,41929,1,10,3:2:0:0:
400,72,42026,1,0,2:2:0:0:
288,40,42219,5,0,2:2:0:0:
288,40,42316,2,1,L|280:120,1,80,2|0,3:2|2:2,0:0:0:0:
264,240,42703,5,10,3:2:0:0:
226,264,42800,1,0,2:2:0:0:
178,259,42897,1,2,2:2:0:0:
139,223,42993,1,0,2:2:0:0:
139,168,43090,2,1,P|157:133|160:93,1,80,2|0,3:2|2:2,0:0:0:0:
16,16,43477,5,10,3:2:0:0:
4,72,43574,1,0,2:2:0:0:
40,108,43671,1,2,2:2:0:0:
40,156,43768,1,0,2:2:0:0:
4,184,43864,1,6,3:2:0:0:
32,304,44058,5,0,2:2:0:0:
40,264,44155,1,0,2:2:0:0:
72,240,44251,1,10,3:2:0:0:
112,240,44348,1,0,2:2:0:0:
144,264,44445,1,0,2:2:0:0:
192,376,44639,5,2,3:2:0:0:
216,372,44735,1,0,2:2:0:0:
240,368,44832,1,0,2:2:0:0:
328,288,45026,1,10,3:2:0:0:
288,280,45122,1,0,2:2:0:0:
240,172,45316,5,0,2:2:0:0:
240,172,45413,2,1,P|259:164|279:162,1,40,2|0,3:2|0:0,0:0:0:0:
328,76,45606,2,1,P|309:68|289:66,1,40,0|0,2:2|2:2,0:0:0:0:
192,84,45800,5,10,3:2:0:0:
160,60,45897,1,0,2:2:0:0:
120,68,45993,1,0,2:2:0:0:
104,108,46090,1,0,2:2:0:0:
112,148,46187,5,2,3:2:0:0:
224,188,46380,1,0,2:2:0:0:
184,300,46574,2,1,L|224:292,1,40,10|0,3:2|2:2,0:0:0:0:
312,244,46768,2,1,L|352:236,1,40,2|0,2:2|2:2,0:0:0:0:
440,188,46961,5,6,3:2:0:0:
336,136,47155,1,0,2:2:0:0:
432,72,47348,1,10,3:2:0:0:
440,188,47542,5,0,2:2:0:0:
480,188,47639,1,0,2:2:0:0:
512,212,47735,2,1,P|509:231|502:250,1,40,2|0,3:2|0:0,0:0:0:0:
496,344,47929,2,1,P|477:336|457:333,1,40,0|0,2:2|0:0,0:0:0:0:
368,296,48122,2,1,L|376:256,2,40,10|0|0,3:2|2:2|2:2,0:0:0:0:
344,328,48413,1,0,2:2:0:0:
312,304,48509,6,1,B|260:310|225:288|207:242|207:242|197:306|161:336|104:341|104:341|68:316|40:241|79:157|99:241|168:135|99:47,1,600,2|4,3:2|2:3,0:0:0:0:
32,120,50058,6,1,B|101:187|182:153|182:153|222:75|306:67,1,320,6|0,3:2|0:0,0:0:0:0:
388,132,51026,1,2,2:2:0:0:
318,210,51219,1,0,2:2:0:0:
318,210,51316,2,1,L|326:290,1,80,2|0,2:2|3:3,0:0:0:0:
232,288,51606,6,1,P|192:280|152:288,2,80,2|0|2,2:2|2:2|2:2,0:0:0:0:
290,382,52187,1,0,3:3:0:0:
290,382,52284,2,1,P|330:390|370:382,1,80,2|8,2:2|2:2,0:0:0:0:
384,344,52574,2,1,L|376:304,2,40,2|0|2,2:2|2:2|3:2,0:0:0:0:
488,320,52961,1,0,2:2:0:0:
464,216,53155,6,1,L|456:136,1,80,6|2,2:2|2:2,0:0:0:0:
376,96,53477,1,0,2:2:0:0:
376,96,53542,2,1,L|384:176,1,80,2|2,2:2|2:2,0:0:0:0:
312,240,53864,1,0,2:2:0:0:
312,240,53929,2,1,L|304:160,1,80,6|2,2:2|2:2,0:0:0:0:
224,120,54251,1,0,2:2:0:0:
224,120,54316,2,1,L|232:200,1,80,2|2,3:2|2:2,0:0:0:0:
184,312,54703,5,6,2:2:0:0:
160,280,54800,1,0,2:2:0:0:
120,280,54897,1,0,3:3:0:0:
88,304,54993,1,0,2:2:0:0:
48,296,55090,2,1,P|40:272|40:240,2,40,2|8|0,2:2|2:2|2:2,0:0:0:0:
80,264,55380,6,1,B|88:224|88:224|80:184,1,80,2|0,2:2|2:2,0:0:0:0:
32,96,55768,1,0,2:2:0:0:
32,96,55864,2,1,L|72:88,3,40,10|8|6|0,2:2|2:3|2:2|3:3,0:0:0:0:
100,44,56251,6,1,B|143:131|273:104|207:31|337:4|380:91|380:91,1,320,6|0,3:2|2:2,0:0:0:0:
424,64,57122,2,1,L|420:24,2,40,0|2|0,2:2|2:2|2:2,0:0:0:0:
432,152,57413,1,2,2:2:0:0:
512,216,57606,5,2,2:2:0:0:
480,240,57703,1,0,3:3:0:0:
480,280,57800,1,10,2:2:0:0:
512,304,57897,1,0,2:2:0:0:
512,344,57993,2,1,L|504:384,1,40,0|0,2:2|2:2,0:0:0:0:
424,352,58187,5,2,3:2:0:0:
424,352,58284,1,0,2:2:0:0:
424,352,58380,2,1,L|384:344,1,40,8|0,2:2|2:2,0:0:0:0:
300,300,58574,6,1,B|285:336|285:336|293:376,1,80,2|2,3:2|2:2,0:0:0:0:
380,220,58961,2,1,B|394:183|394:183|386:143,1,80,2|10,2:2|2:2,0:0:0:0:
176,128,59348,5,14,3:2:0:0:
216,96,59477,1,0,2:2:0:0:
264,112,59606,1,0,2:2:0:0:
280,160,59735,1,2,2:2:0:0:
248,200,59864,1,0,2:2:0:0:
264,248,59993,1,0,2:2:0:0:
340,284,60122,6,1,P|348:252|332:204,2,53.3333333333333,14|0|0,3:2|2:2|2:2,0:0:0:0:
308,324,60509,1,2,2:2:0:0:
252,316,60639,1,0,2:2:0:0:
212,348,60768,1,0,2:2:0:0:
180,268,60897,5,14,3:2:0:0:
148,244,60993,1,0,2:2:0:0:
108,244,61090,1,0,2:2:0:0:
76,268,61187,1,0,2:2:0:0:
68,308,61284,1,2,2:2:0:0:
48,188,61477,1,0,2:2:0:0:
160,144,61671,5,2,2:2:0:0:
155,119,61768,1,0,2:2:0:0:
151,94,61864,1,0,2:2:0:0:
144,240,62058,2,1,P|183:239|219:222,1,80,2|0,2:2|2:2,0:0:0:0:
264,48,62445,6,1,P|303:49|339:66,1,80,4|0,3:2|2:2,0:0:0:0:
456,152,62832,2,1,P|417:153|381:170,1,80,10|0,3:2|2:2,0:0:0:0:
296,256,63219,1,0,3:3:0:0:
304,296,63316,1,2,2:2:0:0:
256,176,63509,1,0,2:2:0:0:
264,136,63606,1,10,3:2:0:0:
208,256,63800,5,0,2:2:0:0:
208,256,63897,2,1,L|216:336,1,80,2|0,2:2|2:2,0:0:0:0:
215,335,64187,1,2,2:2:0:0:
328,376,64380,1,8,3:2:0:0:
368,368,64477,1,2,2:2:0:0:
456,256,64671,6,1,B|432:236|392:246|405:259|365:269|342:249,1,120,2|0,2:2|2:2,0:0:0:0:
312,136,65155,1,8,3:2:0:0:
312,136,65251,2,1,P|276:118|235:116,1,80,0|0,0:0|2:2,0:0:0:0:
168,184,65542,5,6,3:2:0:0:
168,184,65639,1,0,2:2:0:0:
168,184,65735,2,1,L|176:224,1,40,0|0,2:2|0:0,0:0:0:0:
88,200,65929,1,10,3:2:0:0:
88,200,66026,2,1,L|80:160,2,40,0|0|0,2:2|0:0|2:2,0:0:0:0:
120,240,66316,5,2,3:2:0:0:
80,248,66413,1,0,2:2:0:0:
56,280,66509,1,0,2:2:0:0:
56,320,66606,1,0,2:2:0:0:
80,352,66703,1,10,3:2:0:0:
192,288,66897,5,0,2:2:0:0:
192,288,66993,2,1,P|183:249|191:210,2,80,2|0|2,2:2|2:2|2:2,0:0:0:0:
288,360,67574,1,0,2:2:0:0:
320,336,67671,1,2,2:2:0:0:
328,296,67768,1,0,2:2:0:0:
320,256,67864,5,0,3:3:0:0:
256,108,68058,1,2,2:2:0:0:
184,252,68251,5,8,3:2:0:0:
328,175,68445,1,2,3:2:0:0:
180,92,68639,6,1,B|165:128|165:128|173:168,1,80,4|0,3:2|2:2,0:0:0:0:
312,120,69026,2,1,B|320:80|320:80|305:44,1,80,10|0,3:2|2:2,0:0:0:0:
192,88,69413,5,0,3:3:0:0:
155,68,69509,1,0,2:2:0:0:
116,72,69606,2,1,P|109:89|105:109,1,40,0|0,2:2|2:2,0:0:0:0:
136,192,69800,5,10,3:2:0:0:
168,168,69897,1,0,2:2:0:0:
208,168,69993,1,0,2:2:0:0:
240,192,70090,1,0,2:2:0:0:
248,232,70187,5,4,3:2:0:0:
224,352,70380,1,0,2:2:0:0:
104,328,70574,1,10,3:2:0:0:
104,328,70671,1,0,2:2:0:0:
128,208,70864,6,1,B|104:188|64:198|77:211|37:221|14:201,1,120,2|0,2:2|2:2,0:0:0:0:
40,88,71348,1,8,3:2:0:0:
40,88,71445,2,1,P|76:70|117:68,1,80,0|0,0:0|2:2,0:0:0:0:
176,152,71735,5,6,3:2:0:0:
176,152,71832,1,0,2:2:0:0:
176,152,71929,2,1,L|168:192,1,40,0|0,2:2|2:2,0:0:0:0:
248,248,72122,5,10,3:2:0:0:
250,207,72219,1,0,0:0:0:0:
276,172,72316,1,0,2:2:0:0:
317,175,72413,1,0,0:0:0:0:
342,207,72509,1,2,3:2:0:0:
320,328,72703,1,0,2:2:0:0:
441,350,72897,5,10,3:2:0:0:
445,310,72993,1,0,2:2:0:0:
449,270,73090,1,0,2:2:0:0:
453,230,73187,1,0,2:2:0:0:
336,248,73380,5,0,2:2:0:0:
332,208,73477,1,2,2:2:0:0:
328,168,73574,1,0,2:2:0:0:
324,128,73671,1,10,3:2:0:0:
440,40,73864,5,0,2:2:0:0:
435,65,73961,1,0,2:2:0:0:
431,90,74058,1,2,3:2:0:0:
304,24,74251,6,1,P|265:25|229:42,1,80,2|8,2:2|3:2,0:0:0:0:
208,184,74639,2,1,P|247:183|283:166,1,80,10|4,2:2|3:2,0:0:0:0:
256,192,74929,12,4,76380,3:2:0:0:
112,48,76767,5,8,2:2:0:0:
344,104,77154,1,8,2:2:0:0:
168,328,77541,5,0,3:3:0:0:
224,96,77928,1,8,2:2:0:0:
396,261,78315,1,8,2:2:0:0:
120,192,78702,5,0,3:3:0:0:
323,67,79089,1,8,2:2:0:0:
328,305,79476,1,8,2:2:0:0:
184,56,79863,5,0,2:2:0:0:
184,56,80057,2,1,L|104:48,1,80,0|8,2:2|2:2,0:0:0:0:
48,184,80444,2,1,L|128:176,2,80,8|8|4,2:3|2:2|2:3,0:0:0:0:
72,328,81025,5,4,3:2:0:0:
312,296,81412,1,10,2:2:0:0:
280,56,81799,1,10,2:2:0:0:
176,360,82186,6,1,B|215:338|212:288|212:288|178:263|172:219,1,160,2|8,3:2|2:2,0:0:0:0:
392,128,82960,1,10,2:2:0:0:
48,48,83347,6,1,B|85:58|104:96|104:96|142:71|185:80,1,160,2|8,3:2|2:2,0:0:0:0:
192,320,84121,1,10,2:2:0:0:
400,72,84509,6,1,B|386:59|369:49|369:49|330:80|320:121|351:168,1,160,2|0,3:2|2:2,0:0:0:0:
424,224,85089,1,8,2:2:0:0:
408,328,85283,2,1,B|368:320|368:320|328:336,1,80,8|8,2:2|2:2,0:0:0:0:
256,264,85670,5,6,3:2:0:0:
91,91,86057,1,10,2:2:0:0:
25,319,86444,1,10,2:2:0:0:
256,56,86831,6,1,B|259:101|272:147|272:147|305:163|321:196,1,160,2|8,3:2|2:2,0:0:0:0:
200,368,87605,1,10,2:2:0:0:
96,344,87799,1,0,2:2:0:0:
72,240,87992,5,2,3:2:0:0:
165,285,88186,1,0,2:2:0:0:
239,213,88379,1,10,2:2:0:0:
191,120,88573,1,0,2:2:0:0:
89,136,88767,1,10,2:2:0:0:
336,344,89154,6,1,B|280:337|269:279|269:279|297:218,1,160,2|0,3:2|3:3,0:0:0:0:
392,184,89734,1,0,3:3:0:0:
472,256,89928,2,1,B|457:292|457:292|465:332,1,80,0|0,3:3|3:3,0:0:0:0:
432,96,90315,6,1,P|392:88|352:96,1,80,4|8,3:2|2:2,0:0:0:0:
328,216,90702,1,2,3:2:0:0:
191,179,90896,1,8,2:2:0:0:
280,291,91089,1,2,3:2:0:0:
195,268,91283,1,8,2:2:0:0:
276,128,91476,6,1,L|268:48,1,80,2|8,3:2|2:2,0:0:0:0:
144,128,91863,1,2,3:2:0:0:
77,11,92057,1,10,2:2:0:0:
169,36,92250,1,2,3:2:0:0:
52,104,92444,1,10,2:2:0:0:
16,256,92638,6,1,P|56:264|96:256,1,80,2|8,3:2|2:2,0:0:0:0:
112,352,93025,1,2,3:2:0:0:
240,320,93218,1,8,2:2:0:0:
312,224,93412,1,2,3:2:0:0:
184,192,93605,1,8,2:2:0:0:
268,48,93799,6,1,L|276:128,1,80,2|8,3:2|2:2,0:0:0:0:
384,176,94186,1,2,3:2:0:0:
436,43,94379,1,10,3:2:0:0:
473,180,94573,1,2,3:2:0:0:
361,91,94767,1,10,3:2:0:0:
336,248,94960,5,6,3:2:0:0:
376,240,95057,1,0,3:3:0:0:
416,256,95154,1,8,3:2:0:0:
432,296,95250,1,0,3:3:0:0:
424,336,95347,1,0,3:3:0:0:
392,360,95444,1,0,3:3:0:0:
352,360,95541,1,8,3:2:0:0:
320,336,95638,1,0,3:3:0:0:
280,332,95734,6,1,P|256:336|234:348,3,40,0|0|8|0,3:3|3:3|3:2|3:3,0:0:0:0:
200,352,96121,5,2,3:2:0:0:
160,344,96218,1,0,3:3:0:0:
136,312,96315,1,8,3:2:0:0:
136,272,96412,1,0,3:3:0:0:
160,240,96509,1,0,3:3:0:0:
196,224,96605,1,0,3:3:0:0:
228,200,96702,1,8,3:2:0:0:
236,160,96799,1,0,3:3:0:0:
232,120,96896,6,1,L|224:80,1,40,2|0,3:2|3:3,0:0:0:0:
152,32,97089,2,1,L|144:72,1,40,10|0,3:2|3:3,0:0:0:0:
112,152,97283,6,1,P|93:144|73:141,3,40,2|0|10|0,3:2|3:3|3:2|3:3,0:0:0:0:
32,152,97670,1,2,3:2:0:0:
8,184,97767,1,0,3:3:0:0:
8,224,97863,1,10,3:2:0:0:
32,256,97960,1,0,3:3:0:0:
72,264,98057,6,1,L|112:256,1,40,2|0,3:2|3:3,0:0:0:0:
72,344,98250,2,1,L|32:352,1,40,10|0,3:2|3:3,0:0:0:0:
152,384,98444,5,10,3:2:0:0:
196,384,98541,1,0,3:3:0:0:
231,357,98638,1,10,3:2:0:0:
240,313,98734,1,0,3:3:0:0:
213,278,98831,5,10,3:2:0:0:
257,278,98928,1,0,3:3:0:0:
292,252,99025,1,10,3:2:0:0:
301,208,99121,1,0,3:3:0:0:
275,172,99218,5,10,3:2:0:0:
319,172,99315,1,0,3:3:0:0:
354,146,99412,1,10,3:2:0:0:
363,102,99509,1,0,3:3:0:0:
336,67,99605,5,14,3:2:0:0:
296,64,105798,6,1,P|288:40|288:24,2,40,2|0|0,3:2|2:2|2:2,0:0:0:0:
336,152,106185,1,2,3:2:0:0:
424,112,106379,1,0,2:2:0:0:
496,176,106572,5,2,3:2:0:0:
491,200,106669,1,0,2:2:0:0:
487,225,106766,1,0,2:2:0:0:
483,250,106863,1,0,2:2:0:0:
479,275,106959,1,2,3:2:0:0:
464,376,107153,5,0,2:2:0:0:
424,360,107250,1,0,2:2:0:0:
384,376,107346,2,1,L|376:296,1,80,2|0,3:2|2:2,0:0:0:0:
296,152,107734,2,1,P|304:192|296:232,1,80,2|0,3:2|0:0,0:0:0:0:
272,264,108024,1,0,2:2:0:0:
232,272,108121,6,1,P|224:296|224:312,2,40,2|0|0,3:2|2:2|0:0,0:0:0:0:
200,248,108411,2,1,P|160:240|120:248,1,80,2|0,2:2|2:2,0:0:0:0:
96,280,108701,1,2,2:2:0:0:
8,192,108895,5,0,3:3:0:0:
22,154,108992,1,0,2:2:0:0:
59,136,109088,1,2,2:2:0:0:
84,105,109185,1,0,2:2:0:0:
81,64,109282,2,1,L|62:27,2,40,2|0|0,3:2|2:2|2:2,0:0:0:0:
120,80,109572,5,0,2:2:0:0:
120,80,109669,2,1,L|200:72,1,80,2|0,3:2|2:2,0:0:0:0:
344,40,110056,1,2,3:2:0:0:
304,32,110153,1,0,2:2:0:0:
256,168,110346,5,0,2:2:0:0:
296,152,110443,2,1,P|311:188|309:228,1,80,2|0,3:2|2:2,0:0:0:0:
320,352,110830,5,2,3:2:0:0:
364,332,110927,1,0,2:2:0:0:
412,356,111024,1,2,2:2:0:0:
468,344,111121,1,0,2:2:0:0:
496,292,111217,2,1,L|488:212,1,80,2|0,3:2|2:2,0:0:0:0:
444,48,111604,5,2,3:2:0:0:
384,64,111701,1,0,2:2:0:0:
380,120,111798,1,2,2:2:0:0:
424,148,111895,1,0,2:2:0:0:
464,124,111992,6,1,L|456:40,1,80,2|0,3:2|2:2,0:0:0:0:
376,96,112379,1,2,3:2:0:0:
336,8,112572,1,0,2:2:0:0:
216,24,112766,5,2,3:2:0:0:
220,48,112863,1,0,2:2:0:0:
224,72,112959,1,0,2:2:0:0:
192,160,113153,1,2,3:2:0:0:
104,120,113346,1,0,2:2:0:0:
104,8,113540,5,2,3:2:0:0:
64,8,113637,1,0,2:2:0:0:
32,32,113734,1,0,2:2:0:0:
24,72,113830,1,0,2:2:0:0:
40,112,113927,2,1,L|48:192,1,80,2|0,3:2|2:2,0:0:0:0:
128,168,114217,5,0,2:2:0:0:
128,168,114314,2,1,P|164:153|204:155,1,80,2|0,3:2|2:2,0:0:0:0:
216,272,114701,1,2,3:2:0:0:
180,256,114798,1,0,2:2:0:0:
148,280,114895,1,2,2:2:0:0:
32,296,115088,5,0,3:3:0:0:
0,320,115185,1,0,2:2:0:0:
0,360,115282,1,2,2:2:0:0:
32,384,115379,1,0,2:2:0:0:
72,372,115475,2,1,P|104:372|128:388,1,40,2|0,3:2|2:2,0:0:0:0:
184,344,115669,5,0,2:2:0:0:
160,312,115766,1,0,2:2:0:0:
176,276,115863,1,2,3:2:0:0:
272,256,116056,1,0,2:2:0:0:
292,352,116250,1,2,3:2:0:0:
328,344,116346,1,0,2:2:0:0:
392,240,116540,5,0,2:2:0:0:
392,240,116637,2,1,P|400:268|400:292,1,40,2|0,3:2|2:2,0:0:0:0:
480,352,116830,1,0,2:2:0:0:
480,352,116927,1,0,2:2:0:0:
480,352,117024,2,1,P|482:332|488:313,1,40,2|0,3:2|0:0,0:0:0:0:
504,208,117217,5,0,2:2:0:0:
473,178,117314,1,0,2:2:0:0:
464,138,117411,1,2,3:2:0:0:
486,102,117508,1,0,2:2:0:0:
484,59,117604,1,0,2:2:0:0:
336,16,117798,5,10,3:2:0:0:
336,16,117895,2,1,L|344:96,1,80,0|0,2:2|2:2,0:0:0:0:
368,184,118185,6,1,P|328:180|286:200,1,80,6|2,3:2|2:2,0:0:0:0:
256,336,118572,2,1,P|216:340|180:324,1,80,8|2,3:2|2:2,0:0:0:0:
120,192,118959,5,2,3:2:0:0:
223,132,119153,1,2,2:2:0:0:
223,132,119250,1,0,0:0:0:0:
223,132,119346,1,10,3:2:0:0:
223,252,119540,1,2,2:2:0:0:
96,352,119734,6,1,L|96:272,2,80,2|0|10,3:2|2:2|3:2,0:0:0:0:
0,280,120314,1,0,2:2:0:0:
40,112,120508,6,1,L|40:192,2,80,2|0|10,3:2|2:2|3:2,0:0:0:0:
136,184,121088,1,0,2:2:0:0:
96,16,121282,5,6,3:2:0:0:
216,48,121475,2,1,P|231:84|227:123,1,80,2|8,2:2|3:2,0:0:0:0:
256,240,121863,1,2,2:2:0:0:
110,371,122056,5,2,3:2:0:0:
110,371,122153,1,0,0:0:0:0:
110,371,122250,2,1,P|133:339|169:323,1,80,2|10,2:2|3:2,0:0:0:0:
256,240,122637,1,2,2:2:0:0:
443,302,122830,6,1,P|403:297|371:274,2,80,2|0|10,3:2|2:2|3:2,0:0:0:0:
512,200,123411,1,0,2:2:0:0:
344,144,123604,5,2,3:2:0:0:
384,152,123701,1,8,2:2:0:0:
480,80,123895,1,0,3:3:0:0:
472,40,123992,2,1,L|432:32,1,40,10|8,3:2|2:3,0:0:0:0:
344,0,124185,5,4,2:3:0:0:
336,40,124282,1,4,2:3:0:0:
344,80,124379,1,4,3:2:0:0:
304,96,124475,1,2,2:2:0:0:
216,16,124669,1,0,2:2:0:0:
256,24,124766,1,10,3:2:0:0:
216,144,124959,5,0,2:2:0:0:
216,144,125056,1,0,2:2:0:0:
216,144,125153,2,1,P|208:126|206:106,1,40,2|0,3:2|2:2,0:0:0:0:
128,48,125346,2,1,P|126:67|119:86,1,40,0|0,2:2|2:2,0:0:0:0:
136,192,125540,1,10,3:2:0:0:
136,192,125637,1,0,2:2:0:0:
136,192,125734,2,1,L|96:184,1,40,0|0,2:2|2:2,0:0:0:0:
24,120,125927,5,2,3:2:0:0:
0,152,126024,1,0,2:2:0:0:
0,192,126121,2,1,L|8:232,1,40,0|0,2:2|2:2,0:0:0:0:
8,328,126314,1,10,3:2:0:0:
8,328,126411,2,1,P|44:313|83:317,1,80,0|0,2:2|2:2,0:0:0:0:
172,368,126701,6,1,P|168:328|183:291,1,80,2|0,3:2|2:2,0:0:0:0:
224,200,126992,2,1,L|144:208,2,80,2|2|2,2:2|2:2|2:2,0:0:0:0:
184,112,127475,5,4,3:2:0:0:
216,88,127572,1,2,2:2:0:0:
256,88,127669,1,0,0:0:0:0:
288,112,127766,1,0,2:2:0:0:
296,152,127863,1,10,3:2:0:0:
272,272,128056,1,0,2:2:0:0:
387,232,128250,5,2,3:2:0:0:
424,240,128346,1,0,2:2:0:0:
464,128,128540,1,0,2:2:0:0:
427,136,128637,1,10,3:2:0:0:
312,176,128830,1,0,2:2:0:0:
352,291,129024,6,1,P|367:328|363:368,1,80,2|0,3:2|2:2,0:0:0:0:
464,384,129314,1,0,2:2:0:0:
464,384,129411,2,1,L|472:344,1,40,10|0,3:2|2:2,0:0:0:0:
440,256,129604,5,2,2:2:0:0:
432,216,129701,1,0,2:2:0:0:
400,192,129798,2,1,P|432:169|471:163,1,80,2|0,3:2|2:2,0:0:0:0:
512,80,130088,1,0,2:2:0:0:
512,80,130185,2,1,L|504:40,1,40,10|0,3:2|2:2,0:0:0:0:
408,24,130379,2,1,L|416:64,1,40,2|0,2:2|2:2,0:0:0:0:
320,40,130572,5,6,3:2:0:0:
288,64,130669,1,0,2:2:0:0:
279,104,130766,2,1,P|280:124|287:143,1,40,0|0,2:2|2:2,0:0:0:0:
304,240,130959,5,10,3:2:0:0:
280,272,131056,1,0,2:2:0:0:
240,280,131153,2,1,P|221:279|202:272,1,40,0|0,2:2|2:2,0:0:0:0:
160,192,131346,5,2,3:2:0:0:
160,192,131443,2,1,L|168:152,1,40,8|8,3:2|3:2,0:0:0:0:
192,48,131637,1,10,3:2:0:0:
48,360,132121,5,4,3:2:0:0:
40,320,132217,1,2,2:2:0:0:
56,176,132411,1,0,2:2:0:0:
64,216,132508,1,10,3:2:0:0:
144,312,132701,5,0,2:2:0:0:
144,312,132798,2,1,P|142:292|149:273,2,40,2|0|0,2:2|3:3|2:2,0:0:0:0:
200,376,133088,1,0,2:2:0:0:
224,344,133185,1,0,2:2:0:0:
264,336,133282,2,1,P|283:337|302:344,1,40,10|0,3:2|0:0,0:0:0:0:
360,264,133475,2,1,P|341:263|322:256,1,40,2|0,2:2|0:0,0:0:0:0:
360,168,133669,5,6,3:2:0:0:
352,128,133766,1,0,2:2:0:0:
320,104,133863,1,0,2:2:0:0:
280,104,133959,1,0,2:2:0:0:
248,128,134056,1,10,3:2:0:0:
208,120,134153,1,0,2:2:0:0:
192,80,134250,2,1,L|200:32,1,40,2|0,2:2|0:0,0:0:0:0:
104,56,134443,5,0,3:3:0:0:
104,56,134540,2,1,L|96:8,1,40,2|0,2:2|0:0,0:0:0:0:
24,96,134734,1,0,2:2:0:0:
24,96,134830,2,1,L|32:144,1,40,10|0,3:2|2:2,0:0:0:0:
112,192,135024,5,2,2:2:0:0:
144,168,135121,1,8,2:2:0:0:
160,132,135217,2,1,B|195:108|243:118|264:155|264:155|264:155|264:155|265:155|265:155|302:137|320:92|302:53|302:53|302:53|302:53|400:36|436:112|436:112|368:148|364:232|432:272,1,600,2|0,3:2|3:3,0:0:0:0:
400,364,136766,6,1,B|308:392|268:308|268:308|184:280|124:348,1,320,6|0,3:2|2:2,0:0:0:0:
24,380,137734,1,2,2:2:0:0:
24,280,137927,1,0,2:2:0:0:
24,280,138024,2,1,P|18:240|0:205,1,80,2|2,2:2|3:2,0:0:0:0:
56,128,138314,6,1,L|52:48,2,80,0|2|2,2:2|2:2|2:2,0:0:0:0:
156,88,138895,1,0,3:3:0:0:
156,88,138992,2,1,P|196:80|236:88,1,80,2|0,2:2|2:2,0:0:0:0:
264,112,139282,2,1,L|272:72,2,40,2|0|2,2:2|2:2|3:2,0:0:0:0:
192,188,139669,1,0,0:0:0:0:
256,272,139863,6,1,L|336:278,1,80,4|0,2:2|0:0,0:0:0:0:
389,206,140153,1,0,2:2:0:0:
389,206,140250,2,1,L|308:199,1,80,2|2,2:2|2:2,0:0:0:0:
258,118,140540,1,0,2:2:0:0:
258,118,140637,2,1,L|338:124,1,80,2|0,3:2|2:2,0:0:0:0:
392,52,140927,1,0,3:3:0:0:
392,52,141024,2,1,L|311:45,1,80,2|10,2:2|2:2,0:0:0:0:
464,104,141411,5,6,2:2:0:0:
512,200,141604,1,0,2:2:0:0:
512,200,141701,2,1,P|504:240|512:280,1,80,0|0,2:2|2:2,0:0:0:0:
511,278,141992,1,0,2:2:0:0:
456,368,142185,6,1,B|416:376|416:376|379:362,1,80,2|10,2:2|2:2,0:0:0:0:
280,256,142572,2,1,B|320:248|320:248|356:263,1,80,2|2,3:2|3:2,0:0:0:0:
193,333,142959,6,1,B|129:273|169:153|217:217|257:97|193:37|193:37,1,320,6|0,2:2|2:2,0:0:0:0:
144,16,143830,2,1,L|104:20,2,40,0|2|0,2:2|2:2|2:2,0:0:0:0:
112,112,144121,1,2,2:2:0:0:
112,112,144217,1,0,2:2:0:0:
112,112,144314,2,1,L|72:116,1,40,0|0,3:3|2:2,0:0:0:0:
8,192,144508,5,2,2:2:0:0:
32,224,144604,1,0,2:2:0:0:
72,224,144701,1,0,2:2:0:0:
96,192,144798,1,0,3:3:0:0:
136,192,144895,2,1,L|176:200,1,40,10|0,2:2|2:2,0:0:0:0:
176,296,145088,5,0,3:3:0:0:
136,296,145185,1,8,2:2:0:0:
104,320,145282,2,1,B|67:334|67:334|27:326,1,80,2|2,3:2|2:2,0:0:0:0:
192,384,145669,2,1,B|229:370|229:370|269:378,1,80,2|10,2:2|2:2,0:0:0:0:
280,184,146056,5,14,3:2:0:0:
248,224,146185,1,0,2:2:0:0:
264,272,146314,1,8,2:3:0:0:
312,288,146443,1,8,2:3:0:0:
352,256,146572,1,4,2:3:0:0:
400,272,146701,1,4,2:3:0:0:
436,348,146830,6,1,P|404:356|356:340,2,53.3333333333333,14|0|8,3:2|2:2|2:3,0:0:0:0:
480,316,147217,1,8,2:3:0:0:
496,260,147346,1,4,2:3:0:0:
480,212,147475,1,4,2:3:0:0:
408,168,147604,5,14,3:2:0:0:
376,192,147701,1,0,2:2:0:0:
336,192,147798,1,0,2:2:0:0:
304,168,147895,1,0,2:2:0:0:
296,128,147992,1,2,2:2:0:0:
256,16,148185,1,0,2:2:0:0:
376,8,148379,5,2,2:2:0:0:
401,13,148475,1,0,2:2:0:0:
426,17,148572,1,0,2:2:0:0:
512,136,148766,2,1,P|473:137|437:154,1,80,2|0,2:2|2:2,0:0:0:0:
392,328,149153,5,2,2:2:0:0:
395,312,149250,1,0,2:2:0:0:
395,296,149346,1,0,2:2:0:0:
392,280,149443,1,0,2:2:0:0:
385,266,149540,1,2,2:2:0:0:
280,248,149734,1,0,2:2:0:0:
256,352,149929,6,1,P|220:369|180:370,1,80,4|0,3:2|2:2,0:0:0:0:
104,248,150316,2,1,P|139:230|179:229,1,80,10|0,3:2|2:2,0:0:0:0:
72,368,150703,1,0,3:3:0:0:
32,360,150799,1,2,2:2:0:0:
8,216,150993,1,0,2:2:0:0:
0,256,151090,1,10,3:2:0:0:
168,168,151283,5,0,2:2:0:0:
168,168,151380,2,1,L|88:160,1,80,2|0,2:2|0:0,0:0:0:0:
88,160,151670,1,2,2:2:0:0:
16,88,151864,1,8,3:2:0:0:
24,48,151961,1,2,2:2:0:0:
160,0,152154,6,1,B|180:24|170:64|157:51|147:91|167:114,1,120,2|0,2:2|2:2,0:0:0:0:
184,240,152638,1,8,3:2:0:0:
184,240,152735,2,1,P|148:222|107:220,1,80,0|0,0:0|2:2,0:0:0:0:
24,264,153025,5,6,3:2:0:0:
24,264,153122,1,0,2:2:0:0:
24,264,153219,2,1,L|28:304,1,40,0|0,2:2|0:0,0:0:0:0:
112,376,153412,1,10,3:2:0:0:
112,376,153509,2,1,L|120:336,2,40,0|0|0,2:2|2:2|2:2,0:0:0:0:
152,368,153799,5,2,3:2:0:0:
192,360,153896,1,0,2:2:0:0:
216,328,153993,1,0,2:2:0:0:
216,288,154090,1,0,2:2:0:0:
192,256,154187,1,10,3:2:0:0:
152,144,154380,5,0,2:2:0:0:
152,144,154477,2,1,P|191:135|230:143,2,80,2|0|2,2:2|2:2|2:2,0:0:0:0:
80,240,155058,1,0,2:2:0:0:
104,272,155154,1,2,2:2:0:0:
144,280,155251,1,0,2:2:0:0:
184,272,155348,5,0,3:3:0:0:
332,212,155541,1,2,2:2:0:0:
188,136,155735,5,8,3:2:0:0:
265,280,155929,1,2,2:2:0:0:
351,141,156122,6,1,B|336:105|336:105|344:65,1,80,4|0,3:2|2:2,0:0:0:0:
472,0,156509,2,1,B|487:36|487:36|479:76,1,80,10|0,3:2|2:2,0:0:0:0:
424,208,156896,5,0,3:3:0:0:
461,188,156993,1,0,2:2:0:0:
500,192,157090,2,1,P|507:209|511:229,1,40,0|0,2:2|2:2,0:0:0:0:
480,312,157283,5,10,3:2:0:0:
448,288,157380,1,0,2:2:0:0:
408,288,157477,1,0,2:2:0:0:
376,312,157574,1,0,2:2:0:0:
368,352,157670,5,4,3:2:0:0:
248,368,157864,1,0,2:2:0:0:
232,248,158058,1,10,3:2:0:0:
232,248,158154,1,0,2:2:0:0:
352,232,158348,6,1,B|372:256|362:296|349:283|339:323|359:346,1,120,2|0,2:2|2:2,0:0:0:0:
472,320,158832,1,8,3:2:0:0:
472,320,158928,2,1,P|490:284|492:243,1,80,0|0,0:0|2:2,0:0:0:0:
464,160,159219,5,6,3:2:0:0:
464,160,159316,1,0,2:2:0:0:
464,160,159412,2,1,L|424:152,1,40,0|0,2:2|2:2,0:0:0:0:
384,64,159606,1,10,3:2:0:0:
384,64,159703,1,0,2:2:0:0:
384,64,159799,2,1,L|424:56,1,40,0|0,2:2|2:2,0:0:0:0:
320,144,159993,5,2,3:2:0:0:
291,116,160090,1,0,2:2:0:0:
252,105,160187,1,0,2:2:0:0:
214,116,160283,1,0,2:2:0:0:
186,144,160380,1,10,3:2:0:0:
147,156,160477,1,0,2:2:0:0:
107,146,160574,1,0,2:2:0:0:
24,56,160767,5,6,3:2:0:0:
44,21,160864,1,0,2:2:0:0:
79,0,160961,1,0,2:2:0:0:
119,1,161058,1,0,2:2:0:0:
153,21,161154,2,1,P|172:22|192:17,1,40,10|0,3:2|2:2,0:0:0:0:
240,112,161348,5,0,2:2:0:0:
200,108,161445,1,0,2:2:0:0:
168,128,161541,5,0,3:3:0:0:
176,304,161735,1,2,2:2:0:0:
256,145,161929,5,8,3:2:0:0:
80,154,162122,1,2,2:2:0:0:
96,328,162316,6,1,P|150:322|198:354,1,96,4|0,3:2|2:2,0:0:0:0:
399,376,162703,2,1,P|353:383|310:363,1,96,10|0,3:2|2:2,0:0:0:0:
288,224,163090,1,0,3:3:0:0:
336,208,163187,1,2,2:2:0:0:
456,280,163380,1,0,2:2:0:0:
440,232,163477,1,10,3:2:0:0:
352,120,163670,5,0,2:2:0:0:
400,136,163767,2,1,P|397:88|375:45,1,96,2|0,2:2|2:2,0:0:0:0:
339,14,164058,1,2,2:2:0:0:
227,38,164251,1,8,3:2:0:0:
227,38,164348,1,2,2:2:0:0:
131,182,164541,6,1,B|159:158|207:170|192:185|240:197|267:173,1,144,2|0,2:2|2:2,0:0:0:0:
347,94,165025,1,8,3:2:0:0:
347,94,165122,2,1,P|395:86|435:110,1,96,0|0,0:0|2:2,0:0:0:0:
475,198,165412,5,6,3:2:0:0:
475,198,165509,1,0,2:2:0:0:
475,198,165606,2,1,L|470:246,1,48,0|0,2:2|2:2,0:0:0:0:
376,288,165799,1,10,3:2:0:0:
376,288,165896,2,1,L|366:240,2,48,0|0|0,2:2|2:2|2:2,0:0:0:0:
360,336,166187,5,2,3:2:0:0:
320,308,166283,1,0,2:2:0:0:
272,320,166380,1,0,2:2:0:0:
248,364,166477,2,1,L|152:356,2,96,2|2|0,2:2|2:2|2:2,0:0:0:0:
256,276,166961,5,6,3:2:0:0:
232,232,167058,1,0,2:2:0:0:
184,220,167154,1,0,2:2:0:0:
144,248,167251,1,2,2:2:0:0:
60,340,167445,5,0,2:2:0:0:
26,306,167541,1,2,2:2:0:0:
14,260,167638,1,0,2:2:0:0:
26,213,167735,5,0,3:3:0:0:
233,149,167928,1,2,2:2:0:0:
49,128,168122,5,8,3:2:0:0:
227,244,168316,1,2,2:2:0:0:
148,64,168509,6,1,B|196:54|196:54|239:72,1,96,4|0,3:2|2:2,0:0:0:0:
440,8,168896,2,1,B|392:17|392:17|348:0,1,96,10|0,3:2|2:2,0:0:0:0:
316,144,169283,5,0,3:3:0:0:
360,128,169380,1,0,2:2:0:0:
404,148,169477,2,1,P|428:148|452:140,1,48,0|0,2:2|2:2,0:0:0:0:
500,224,169670,5,10,3:2:0:0:
490,272,169767,1,0,2:2:0:0:
452,300,169864,1,0,2:2:0:0:
404,300,169961,1,0,2:2:0:0:
365,272,170058,5,4,3:2:0:0:
256,176,170251,1,0,2:2:0:0:
227,318,170445,1,10,3:2:0:0:
227,318,170541,1,0,2:2:0:0:
120,220,170735,6,1,B|144:248|132:296|117:281|105:329|129:356,1,144,2|0,2:2|2:2,0:0:0:0:
16,256,171219,1,8,3:2:0:0:
16,256,171316,2,1,P|-4:296|0:348,1,96,0|0,0:0|2:2,0:0:0:0:
88,384,171606,5,6,3:2:0:0:
88,384,171703,1,0,2:2:0:0:
88,384,171799,2,1,L|136:380,1,48,0|0,2:2|2:2,0:0:0:0:
204,300,171993,5,10,3:2:0:0:
189,254,172090,1,0,2:2:0:0:
150,226,172187,1,0,2:2:0:0:
102,226,172283,1,0,2:2:0:0:
63,254,172380,1,2,3:2:0:0:
4,144,172574,1,0,2:2:0:0:
72,40,172767,5,10,3:2:0:0:
104,74,172864,1,0,2:2:0:0:
151,83,172961,1,0,2:2:0:0:
195,63,173058,1,0,2:2:0:0:
256,196,173251,5,0,2:2:0:0:
212,176,173348,1,2,2:2:0:0:
165,185,173445,1,0,2:2:0:0:
133,219,173541,1,10,3:2:0:0:
116,344,173735,5,0,2:2:0:0:
146,338,173832,1,0,2:2:0:0:
176,334,173928,1,2,3:2:0:0:
352,264,174122,6,1,L|256:256,1,96,2|8,2:2|3:2,0:0:0:0:
112,128,174509,2,1,L|208:120,1,96,2|4,2:2|3:2,0:0:0:0:
292,40,174896,5,2,2:2:0:0:
408,80,175090,1,8,3:2:0:0:
408,80,175187,1,2,2:2:0:0:
320,152,175380,1,0,2:2:0:0:
320,152,175477,1,2,3:2:0:0:
432,192,175670,1,0,2:2:0:0:
432,192,175767,1,2,2:2:0:0:
336,256,175961,1,0,2:2:0:0:
336,256,176058,1,2,2:2:0:0:
280,120,176251,5,0,3:3:0:0:
168,96,176445,1,2,2:2:0:0:
203,204,176638,1,8,3:2:0:0:
203,204,176735,1,2,2:2:0:0:
40,272,177025,6,1,L|35:302,2,24,2|0|0,3:2|0:0|2:2,0:0:0:0:
53,229,177219,1,0,2:2:0:0:
53,229,177316,1,2,2:2:0:0:
144,376,177509,5,0,2:2:0:0:
96,368,177606,1,2,2:2:0:0:
144,232,177799,5,4,3:2:0:0:
232,304,177993,1,2,2:2:0:0:
248,192,178187,1,8,3:2:0:0:
248,192,178283,1,2,2:2:0:0:
344,264,178477,1,0,2:2:0:0:
344,264,178574,1,2,3:2:0:0:
360,152,178767,1,0,2:2:0:0:
360,152,178864,1,2,2:2:0:0:
456,224,179058,1,0,2:2:0:0:
456,224,179154,1,2,2:2:0:0:
400,360,179348,5,0,3:3:0:0:
283,340,179541,1,2,2:2:0:0:
357,249,179735,1,8,3:2:0:0:
357,249,179832,1,2,2:2:0:0:
256,112,180122,5,0,3:3:0:0:
216,116,180219,1,2,2:2:0:0:
176,120,180316,1,0,2:2:0:0:
136,124,180412,1,2,2:2:0:0:
24,32,180606,5,0,2:2:0:0:
64,28,180703,1,2,2:2:0:0:
16,168,180896,5,4,3:2:0:0:
24,280,181090,1,2,2:2:0:0:
128,328,181283,1,8,3:2:0:0:
128,328,181380,2,1,P|136:304|136:280,1,48,2|0,2:2|0:0,0:0:0:0:
72,176,181574,1,0,2:2:0:0:
72,176,181670,2,1,P|88:194|109:206,1,48,2|0,3:2|0:0,0:0:0:0:
231,203,181864,1,0,2:2:0:0:
231,203,181961,2,1,P|206:208|185:220,2,48,2|8|0,2:2|3:2|2:2,0:0:0:0:
240,296,182251,1,2,2:2:0:0:
352,328,182445,5,0,3:3:0:0:
456,288,182638,2,1,L|448:192,1,96,2|8,2:2|3:2,0:0:0:0:
448,192,182928,1,2,2:2:0:0:
448,192,183025,1,0,0:0:0:0:
416,48,183219,5,2,3:2:0:0:
368,57,183316,1,0,2:2:0:0:
339,96,183412,1,0,2:2:0:0:
339,144,183509,2,1,P|295:165|246:168,1,96,2|0,2:2|2:2,0:0:0:0:
147,105,183799,1,2,2:2:0:0:
256,8,183993,5,4,3:2:0:0:
360,56,184187,1,2,2:2:0:0:
312,160,184380,1,8,3:2:0:0:
312,160,184477,2,1,L|264:152,1,48,2|0,2:2|0:0,0:0:0:0:
392,168,184670,1,0,2:2:0:0:
392,168,184767,2,1,L|422:130,1,48,2|0,3:2|0:0,0:0:0:0:
345,233,184961,1,0,2:2:0:0:
345,233,185058,2,1,L|362:278,2,48,2|8|0,2:2|3:2|2:2,0:0:0:0:
256,272,185348,1,2,2:2:0:0:
208,168,185541,5,0,3:3:0:0:
211,142,185638,1,8,2:2:0:0:
215,117,185735,1,2,2:2:0:0:
112,16,185928,1,0,3:3:0:0:
112,16,186025,2,1,L|116:64,2,48,2|8|8,2:2|2:2|2:2,0:0:0:0:
8,88,186316,5,0,3:3:0:0:
42,122,186412,1,2,3:2:0:0:
54,168,186509,1,8,2:2:0:0:
42,215,186606,1,10,2:2:0:0:
4,332,186799,5,8,2:2:0:0:
51,344,186896,1,2,3:2:0:0:
97,332,186993,1,8,2:2:0:0:
131,298,187090,5,4,3:2:0:0:
120,152,187283,1,10,2:2:0:0:
208,112,187477,5,0,2:2:0:0:
216,136,187574,1,10,2:2:0:0:
224,280,187767,5,0,2:2:0:0:
232,256,187864,1,10,2:2:0:0:
296,128,188058,5,4,2:3:0:0:
304,152,188154,1,10,2:2:0:0:
312,296,188348,5,0,3:3:0:0:
320,272,188445,1,2,3:2:0:0:
328,248,188541,1,4,3:2:0:0:
