osu file format v14

[General]
AudioFilename: audio.mp3
AudioLeadIn: 0
PreviewTime: 62445
Countdown: 0
SampleSet: Soft
StackLeniency: 0.7
Mode: 0
LetterboxInBreaks: 0
WidescreenStoryboard: 0

[Editor]
Bookmarks: 510,6703,19090,31477,37671,50058,62445,76380,90315,99605,105798,118185,124379,136766,149929,162316,174703,187090
DistanceSpacing: 1.8
BeatDivisor: 4
GridSize: 8
TimelineZoom: 3.999998

[Metadata]
Title:Noushou Sakuretsu Girl
TitleUnicode:脳漿炸裂ガール
Artist:Wagakki Band
ArtistUnicode:和楽器バンド
Creator:YGOkid8
Version:Expert
Source:
Tags:corsace closed 2022 cc22 gf dt2 japanese folk traditional metal rock jrock j-rock VOCALO Zanmai ボカロ三昧 brain fluid explosion girl rerulili れるりり ToushahiP 当社比P Sasaki Kouhei 佐々木貢平 hatsune miku 初音ミク gumi グミ megpoid メグッポイド vocaloid utaite cover suzuhana yuko yuuko 鈴華ゆう子 machiya 町屋 molneya
BeatmapID:3643925
BeatmapSetID:1779254

[Difficulty]
HPDrainRate:6
CircleSize:4
OverallDifficulty:8.5
ApproachRate:9
SliderMultiplier:1.92
SliderTickRate:2

[Events]
//Background and Video events
0,0,"background.jpg",0,0
//Break Periods
2,99805,105108
//Storyboard Layer 0 (Background)
//Storyboard Layer 1 (Fail)
//Storyboard Layer 2 (Pass)
//Storyboard Layer 3 (Foreground)
//Storyboard Layer 4 (Overlay)
//Storyboard Sound Samples

[TimingPoints]
510,387.096774193548,4,2,1,60,1,0
6703,-100,4,2,1,70,0,0
40380,-100,4,2,2,70,0,0
40477,-100,4,2,1,70,0,0
40574,-100,4,2,2,70,0,0
40671,-100,4,2,1,70,0,0
49864,-100,4,2,3,70,0,0
49961,-100,4,2,1,70,0,0
56058,-100,4,2,2,70,0,0
56155,-100,4,2,1,70,0,0
59058,-100,4,2,4,70,0,0
59155,-100,4,2,1,70,0,0
59251,-100,4,2,4,70,0,0
59348,-100,4,2,1,70,0,0
62445,-100,4,2,1,70,0,1
68542,-100,4,2,4,70,0,1
68639,-100,4,2,1,70,0,1
74542,-100,4,2,4,70,0,1
74639,-100,4,2,2,70,0,1
74735,-100,4,2,4,70,0,1
74832,-100,4,2,1,70,0,1
75606,-100,4,2,4,70,0,1
76187,-100,4,2,1,70,0,1
76380,387.096774193548,3,2,1,60,1,0
79863,-100,3,2,5,60,0,0
80057,-100,3,2,1,60,0,0
99605,387.096774193548,4,2,1,60,1,0
117798,-100,4,2,1,70,0,0
123701,-100,4,2,4,70,0,0
123798,-100,4,2,1,70,0,0
124088,-100,4,2,4,70,0,0
124379,-100,4,2,1,70,0,0
145766,-100,4,2,4,70,0,0
145863,-100,4,2,1,70,0,0
145959,-100,4,2,4,70,0,0
146056,-100,4,2,1,70,0,0
149929,387.096774193548,4,2,1,70,1,1
162122,-100,4,2,1,70,0,0
162316,-83.3333333333333,4,2,1,70,0,1
174509,-83.3333333333333,4,2,1,70,0,0
174703,-83.3333333333333,4,2,1,70,0,1
174896,-83.3333333333333,4,2,1,70,0,0
187283,-83.3333333333333,4,2,2,70,0,0
188058,-83.3333333333333,4,2,1,70,0,0
188154,-83.3333333333333,4,2,2,70,0,0
188251,-83.3333333333333,4,2,1,70,0,0

[Colours]
Combo1 : 179,0,89
Combo2 : 255,128,128
Combo3 : 176,0,176
Combo4 : 255,128,64

[HitObjects]
96,80,510,5,4,2:2:0:0:
208,96,703,1,2,2:2:0:0:
192,208,897,1,0,2:2:0:0:
144,200,993,1,2,2:2:0:0:
104,312,1187,1,0,2:2:0:0:
152,304,1284,1,2,2:2:0:0:
280,368,1477,5,0,2:2:0:0:
232,360,1574,1,2,2:2:0:0:
288,224,1768,1,0,2:2:0:0:
280,272,1864,1,2,2:2:0:0:
408,344,2058,5,0,2:2:0:0:
480,216,2251,1,2,2:2:0:0:
352,144,2445,1,0,2:2:0:0:
352,144,2542,1,2,2:2:0:0:
144,344,2832,6,1,L|120:340,2,24,2|0|0,2:2|2:2|2:2,0:0:0:0:
192,328,3026,1,2,2:2:0:0:
184,280,3122,1,0,2:2:0:0:
88,168,3316,1,2,2:2:0:0:
80,216,3413,1,0,2:2:0:0:
304,208,3606,5,4,2:2:0:0:
280,64,3800,1,2,2:2:0:0:
167,156,3993,1,0,2:2:0:0:
176,112,4090,1,2,2:2:0:0:
80,192,4284,1,0,2:2:0:0:
56,152,4380,1,2,2:2:0:0:
64,296,4574,5,0,2:2:0:0:
55,340,4671,1,2,2:2:0:0:
151,260,4864,1,0,2:2:0:0:
175,300,4961,1,2,2:2:0:0:
320,320,5155,5,0,2:2:0:0:
264,184,5348,1,2,2:2:0:0:
400,128,5542,1,0,2:2:0:0:
400,128,5639,1,2,2:2:0:0:
208,48,5929,5,0,2:2:0:0:
176,44,6026,1,2,2:2:0:0:
144,48,6122,1,0,2:2:0:0:
112,40,6219,1,2,2:2:0:0:
40,152,6413,1,0,2:2:0:0:
88,136,6509,1,2,2:2:0:0:
136,152,6606,1,0,2:2:0:0:
176,128,6703,1,6,3:2:0:0:
256,248,6897,5,2,2:2:0:0:
136,328,7090,1,8,3:2:0:0:
128,280,7187,2,1,P|96:280|64:296,1,48,2|0,2:2|0:0,0:0:0:0:
16,224,7380,1,0,2:2:0:0:
24,176,7477,2,1,P|56:176|88:192,1,48,2|0,3:2|0:0,0:0:0:0:
160,200,7671,5,0,2:2:0:0:
192,168,7768,2,1,L|184:120,2,48,2|8|0,2:2|3:2|2:2,0:0:0:0:
216,264,8058,1,2,2:2:0:0:
336,344,8251,5,0,3:3:0:0:
328,199,8445,2,1,P|375:199|417:220,1,96,2|8,2:2|3:2,0:0:0:0:
504,104,8832,1,2,2:2:0:0:
496,56,8929,1,0,2:2:0:0:
456,32,9026,5,2,3:2:0:0:
448,80,9122,1,0,2:2:0:0:
400,96,9219,1,2,2:2:0:0:
352,80,9316,2,1,P|309:58|262:58,1,96,2|0,2:2|2:2,0:0:0:0:
192,112,9606,5,2,2:2:0:0:
208,160,9703,1,0,2:2:0:0:
256,144,9800,1,4,3:2:0:0:
112,160,9993,5,2,2:2:0:0:
128,304,10187,1,8,3:2:0:0:
176,288,10284,2,1,P|182:264|181:241,1,48,2|0,2:2|0:0,0:0:0:0:
216,152,10477,1,0,2:2:0:0:
264,168,10574,2,1,P|270:191|269:214,1,48,2|0,3:2|0:0,0:0:0:0:
344,272,10768,5,0,2:2:0:0:
352,224,10864,2,1,L|400:216,2,48,2|8|0,2:2|3:2|2:2,0:0:0:0:
272,312,11155,1,2,2:2:0:0:
440,368,11348,5,0,3:3:0:0:
288,280,11542,1,2,2:2:0:0:
440,368,11735,2,1,L|432:320,1,48,8|2,3:2|2:2,0:0:0:0:
464,232,11929,1,0,2:2:0:0:
328,208,12122,5,0,3:3:0:0:
296,168,12219,1,2,2:2:0:0:
304,120,12316,1,0,2:2:0:0:
328,80,12413,2,1,P|285:102|238:102,1,96,2|0,2:2|2:2,0:0:0:0:
192,16,12703,1,2,2:2:0:0:
176,160,12897,5,4,3:2:0:0:
32,144,13090,1,2,2:2:0:0:
16,188,13187,1,0,0:0:0:0:
32,232,13284,1,8,3:2:0:0:
76,248,13380,2,1,L|124:240,1,48,2|0,2:2|0:0,0:0:0:0:
184,320,13574,5,0,2:2:0:0:
136,336,13671,2,1,P|129:359|130:382,1,48,2|0,3:2|0:0,0:0:0:0:
248,376,13864,5,0,2:2:0:0:
268,332,13961,1,2,2:2:0:0:
312,312,14058,1,8,3:2:0:0:
360,320,14155,1,0,2:2:0:0:
392,356,14251,1,2,2:2:0:0:
488,248,14445,5,0,3:3:0:0:
344,216,14639,1,2,2:2:0:0:
344,216,14735,2,1,L|352:168,1,48,0|8,0:0|3:2,0:0:0:0:
288,96,14929,2,1,B|248:120|248:120|199:114,1,96,2|0,2:2|0:0,0:0:0:0:
128,48,15219,5,2,3:2:0:0:
84,68,15316,1,0,2:2:0:0:
64,112,15413,1,0,2:2:0:0:
72,160,15509,1,0,2:2:0:0:
108,192,15606,6,1,L|144:200,2,32,10|0|0,3:2|0:0|0:0,0:0:0:0:
48,232,15800,2,1,L|12:224,2,32,0|0|0,2:2|0:0|0:0,0:0:0:0:
104,280,15993,5,4,3:2:0:0:
280,288,16187,1,2,2:2:0:0:
236,272,16284,1,0,0:0:0:0:
192,288,16380,1,8,3:2:0:0:
176,332,16477,2,1,L|184:380,1,48,2|0,2:2|0:0,0:0:0:0:
280,376,16671,5,0,2:2:0:0:
288,328,16768,2,1,P|311:321|334:322,1,48,2|0,3:2|0:0,0:0:0:0:
424,368,16961,5,0,2:2:0:0:
468,348,17058,1,2,2:2:0:0:
488,304,17155,1,8,3:2:0:0:
480,256,17251,1,0,2:2:0:0:
444,224,17348,1,2,2:2:0:0:
280,288,17542,5,0,3:3:0:0:
216,124,17735,1,10,2:2:0:0:
380,60,17929,1,0,3:3:0:0:
412,68,18026,1,2,3:2:0:0:
444,76,18122,1,0,3:3:0:0:
336,248,18316,5,0,3:3:0:0:
296,220,18413,1,2,2:2:0:0:
288,172,18509,1,8,2:2:0:0:
316,132,18606,2,1,P|273:110|226:110,1,96,2|0,2:2|3:3,0:0:0:0:
176,216,18897,1,10,2:2:0:0:
104,64,19090,5,4,3:2:0:0:
80,104,19187,1,2,2:2:0:0:
192,192,19380,1,0,2:2:0:0:
152,168,19477,1,10,3:2:0:0:
32,248,19671,5,0,2:2:0:0:
72,224,19768,1,2,2:2:0:0:
112,248,19864,1,0,3:3:0:0:
112,296,19961,1,0,2:2:0:0:
72,320,20058,1,2,2:2:0:0:
208,376,20251,5,8,3:2:0:0:
184,336,20348,1,2,2:2:0:0:
296,248,20542,1,0,2:2:0:0:
256,272,20639,1,2,3:2:0:0:
360,368,20832,5,0,2:2:0:0:
380,324,20929,1,0,0:0:0:0:
376,276,21026,5,10,3:2:0:0:
336,252,21122,1,0,0:0:0:0:
288,268,21219,1,0,2:2:0:0:
264,308,21316,1,0,2:2:0:0:
216,308,21413,5,2,3:2:0:0:
184,272,21509,1,0,2:2:0:0:
192,224,21606,1,0,2:2:0:0:
232,196,21703,2,1,P|231:172|223:149,1,48,2|8,2:2|3:2,0:0:0:0:
152,96,21897,5,0,2:2:0:0:
128,136,21993,1,2,2:2:0:0:
80,136,22090,1,0,0:0:0:0:
56,96,22187,1,6,3:2:0:0:
40,240,22380,5,0,2:2:0:0:
172,181,22574,2,1,P|171:205|163:228,1,48,10|0,3:2|0:0,0:0:0:0:
84,264,22768,1,0,2:2:0:0:
92,312,22864,1,0,2:2:0:0:
128,344,22961,5,2,3:2:0:0:
152,304,23058,1,0,2:2:0:0:
200,288,23155,1,0,2:2:0:0:
240,320,23251,1,0,2:2:0:0:
280,296,23348,5,10,3:2:0:0:
304,336,23445,1,0,2:2:0:0:
352,352,23542,1,0,2:2:0:0:
392,320,23639,1,0,2:2:0:0:
404,272,23735,6,1,P|405:224|427:182,1,96,2|0,3:2|2:2,0:0:0:0:
304,76,24122,1,10,3:2:0:0:
296,132,24219,1,0,2:2:0:0:
240,160,24316,1,2,2:2:0:0:
180,132,24413,1,0,2:2:0:0:
172,60,24509,6,1,P|129:38|82:37,1,96,2|0,3:2|2:2,0:0:0:0:
32,244,24897,1,10,3:2:0:0:
40,172,24993,1,0,2:2:0:0:
100,144,25090,1,2,2:2:0:0:
156,172,25187,1,0,2:2:0:0:
164,228,25284,1,6,3:2:0:0:
256,336,25477,5,0,2:2:0:0:
288,372,25574,1,0,2:2:0:0:
336,380,25671,1,10,3:2:0:0:
380,360,25768,1,0,2:2:0:0:
400,316,25864,1,0,2:2:0:0:
288,200,26058,5,2,3:2:0:0:
296,248,26155,2,1,P|328:248|360:232,1,48,0|0,2:2|2:2,0:0:0:0:
408,176,26348,5,0,2:2:0:0:
400,128,26445,1,10,3:2:0:0:
364,96,26542,1,0,2:2:0:0:
317,110,26639,1,0,2:2:0:0:
272,93,26735,1,0,2:2:0:0:
256,48,26832,5,2,3:2:0:0:
224,12,26929,1,0,2:2:0:0:
176,4,27026,1,0,2:2:0:0:
132,24,27122,1,0,2:2:0:0:
112,68,27219,6,1,L|120:120,1,48,10|0,3:2|0:0,0:0:0:0:
208,160,27413,2,1,L|200:212,1,48,0|0,2:2|2:2,0:0:0:0:
104,224,27606,5,2,3:2:0:0:
68,256,27703,1,0,0:0:0:0:
60,304,27800,1,0,2:2:0:0:
80,348,27897,1,0,0:0:0:0:
124,368,27993,6,1,L|176:360,1,48,10|0,3:2|2:2,0:0:0:0:
263,279,28187,2,1,L|216:272,1,48,2|0,2:2|2:2,0:0:0:0:
280,376,28380,5,6,3:2:0:0:
328,208,28574,1,0,2:2:0:0:
449,333,28768,1,10,3:2:0:0:
417,341,28864,1,0,2:2:0:0:
385,349,28961,1,0,2:2:0:0:
432,240,29155,6,1,P|464:240|496:224,1,48,2|0,3:2|0:0,0:0:0:0:
440,144,29348,2,1,P|408:144|376:160,1,48,0|0,2:2|0:0,0:0:0:0:
304,176,29542,1,10,3:2:0:0:
304,176,29639,1,0,0:0:0:0:
304,176,29735,2,1,P|297:152|298:129,1,48,0|0,2:2|0:0,0:0:0:0:
208,40,29929,6,1,L|200:88,1,48,6|0,3:2|0:0,0:0:0:0:
72,80,30122,1,0,2:2:0:0:
80,112,30219,1,0,2:2:0:0:
88,144,30316,2,1,L|96:192,1,48,10|0,3:2|0:0,0:0:0:0:
64,304,30509,5,0,2:2:0:0:
96,340,30606,1,0,2:2:0:0:
144,348,30703,1,2,3:2:0:0:
188,328,30800,1,0,2:2:0:0:
208,284,30897,2,1,L|200:232,1,48,0|0,2:2|0:0,0:0:0:0:
256,136,31090,5,10,3:2:0:0:
304,128,31187,2,1,P|325:170|326:217,1,96,0|0,2:2|2:2,0:0:0:0:
336,336,31477,5,6,3:2:0:0:
375,363,31574,1,0,2:2:0:0:
422,359,31671,1,0,2:2:0:0:
460,327,31768,1,0,2:2:0:0:
469,280,31864,1,8,3:2:0:0:
448,240,31961,1,0,2:2:0:0:
408,216,32058,1,0,2:2:0:0:
360,224,32155,1,0,2:2:0:0:
312,208,32251,5,0,3:3:0:0:
296,160,32348,1,0,2:2:0:0:
320,120,32445,1,0,2:2:0:0:
368,112,32542,1,0,2:2:0:0:
392,72,32639,2,1,P|393:48|386:25,1,48,8|0,3:2|2:2,0:0:0:0:
288,40,32832,5,2,2:2:0:0:
264,80,32929,1,0,2:2:0:0:
216,72,33026,2,1,P|208:49|209:25,1,48,4|0,3:2|2:2,0:0:0:0:
112,32,33219,5,0,2:2:0:0:
82,69,33316,1,0,2:2:0:0:
65,114,33413,1,8,3:2:0:0:
61,162,33509,1,0,2:2:0:0:
70,208,33606,1,0,2:2:0:0:
92,251,33703,1,0,2:2:0:0:
126,285,33800,5,0,3:3:0:0:
168,304,33897,1,0,2:2:0:0:
216,296,33993,1,0,2:2:0:0:
240,256,34090,1,0,2:2:0:0:
224,208,34187,1,8,3:2:0:0:
176,192,34284,1,0,2:2:0:0:
160,144,34380,2,1,P|160:120|168:96,1,48,2|0,2:2|2:2,0:0:0:0:
264,72,34574,5,4,3:2:0:0:
272,92,34639,1,0,0:0:0:0:
280,112,34703,1,0,0:0:0:0:
288,132,34768,2,1,L|336:124,1,48,0|0,2:2|2:2,0:0:0:0:
392,48,34961,1,10,3:2:0:0:
392,48,35058,1,0,2:2:0:0:
392,48,35155,2,1,L|336:40,1,48,0|0,2:2|2:2,0:0:0:0:
248,40,35348,5,0,3:3:0:0:
208,64,35445,1,0,2:2:0:0:
200,112,35542,1,0,2:2:0:0:
224,152,35639,1,0,2:2:0:0:
272,168,35735,1,8,3:2:0:0:
288,216,35832,1,0,2:2:0:0:
264,256,35929,2,1,L|232:264,2,32,2|0|0,2:2|0:0|0:0,0:0:0:0:
296,320,36122,5,4,3:2:0:0:
264,356,36219,1,0,0:0:0:0:
216,364,36316,1,0,2:2:0:0:
172,344,36413,1,0,0:0:0:0:
152,300,36509,1,8,3:2:0:0:
56,240,36703,5,2,2:2:0:0:
32,200,36800,1,0,2:2:0:0:
56,160,36897,2,1,L|64:112,1,48,4|0,3:2|2:2,0:0:0:0:
124,40,37090,5,0,2:2:0:0:
144,48,37155,1,0,0:0:0:0:
164,56,37219,1,0,0:0:0:0:
184,64,37284,2,1,L|192:112,1,48,10|0,3:2|2:2,0:0:0:0:
224,200,37477,5,0,2:2:0:0:
264,224,37574,1,0,2:2:0:0:
304,192,37671,1,4,3:2:0:0:
108,360,39219,5,2,3:2:0:0:
80,352,39413,5,2,3:2:0:0:
52,344,39606,5,2,3:2:0:0:
24,336,39800,5,8,2:2:0:0:
16,288,39897,1,8,2:2:0:0:
48,256,39993,5,2,3:2:0:0:
88,288,40090,1,0,2:2:0:0:
136,272,40187,1,0,3:3:0:0:
152,224,40284,1,0,3:3:0:0:
120,184,40380,5,10,2:2:0:0:
81,136,40477,1,8,2:3:0:0:
100,78,40574,1,6,2:2:0:0:
158,59,40671,1,4,2:3:0:0:
206,97,40768,1,6,3:2:0:0:
280,200,40961,5,0,2:2:0:0:
288,168,41058,1,0,2:2:0:0:
296,136,41155,1,10,3:2:0:0:
376,40,41348,5,0,2:2:0:0:
424,47,41445,1,0,2:2:0:0:
448,88,41542,1,2,3:2:0:0:
428,132,41639,1,0,0:0:0:0:
384,148,41735,1,0,2:2:0:0:
352,184,41832,1,0,2:2:0:0:
356,232,41929,1,10,3:2:0:0:
392,264,42026,1,0,2:2:0:0:
440,376,42219,5,0,2:2:0:0:
440,376,42316,2,1,L|344:368,1,96,2|0,3:2|2:2,0:0:0:0:
208,320,42703,1,10,3:2:0:0:
173,274,42800,1,0,2:2:0:0:
193,214,42897,1,2,2:2:0:0:
255,191,42993,1,0,2:2:0:0:
312,238,43090,6,1,L|408:230,1,96,2|0,3:2|2:2,0:0:0:0:
464,96,43477,1,10,3:2:0:0:
421,37,43574,1,0,2:2:0:0:
355,43,43671,1,2,2:2:0:0:
320,95,43768,1,0,2:2:0:0:
341,148,43864,1,6,3:2:0:0:
160,208,44058,5,0,2:2:0:0:
184,168,44155,1,0,2:2:0:0:
232,168,44251,1,10,3:2:0:0:
256,208,44348,1,0,2:2:0:0:
232,248,44445,1,0,2:2:0:0:
104,352,44639,5,2,3:2:0:0:
96,320,44735,1,0,2:2:0:0:
88,288,44832,1,0,2:2:0:0:
144,144,45026,1,10,3:2:0:0:
192,152,45122,2,1,P|199:175|198:198,1,48,0|0,2:2|0:0,0:0:0:0:
88,208,45316,5,0,2:2:0:0:
88,208,45413,1,2,3:2:0:0:
52,176,45509,1,0,0:0:0:0:
44,128,45606,1,0,2:2:0:0:
64,84,45703,1,0,2:2:0:0:
108,64,45800,6,1,L|160:72,1,48,10|0,3:2|2:2,0:0:0:0:
200,160,45993,2,1,L|252:152,1,48,0|0,2:2|2:2,0:0:0:0:
288,64,46187,5,2,3:2:0:0:
320,28,46284,1,0,0:0:0:0:
368,20,46380,1,0,2:2:0:0:
412,40,46477,1,0,0:0:0:0:
432,84,46574,6,1,L|424:136,1,48,10|0,3:2|2:2,0:0:0:0:
343,223,46768,2,1,L|336:176,1,48,2|0,2:2|2:2,0:0:0:0:
440,240,46961,5,6,3:2:0:0:
272,264,47155,1,0,2:2:0:0:
248,96,47348,2,1,P|225:89|202:90,1,48,10|0,3:2|0:0,0:0:0:0:
120,56,47542,5,0,2:2:0:0:
96,96,47639,1,0,2:2:0:0:
120,136,47735,2,1,L|128:184,1,48,2|0,3:2|0:0,0:0:0:0:
56,240,47929,2,1,L|48:192,1,48,0|0,2:2|0:0,0:0:0:0:
92,316,48122,2,1,P|69:323|45:323,2,48,10|0|0,3:2|2:2|2:2,0:0:0:0:
128,280,48413,1,0,2:2:0:0:
136,232,48509,6,1,B|208:150|349:216|253:281|395:347|467:267|467:267|380:160|428:100|500:112|508:172|468:224|396:256|340:168,1,720,2|4,3:2|2:3,0:0:0:0:
340,104,50058,6,1,B|326:35|243:5|189:49|189:49|204:92|204:92|170:113|170:113|118:84|69:114,1,384,6|0,3:2|0:0,0:0:0:0:
24,224,51026,1,2,2:2:0:0:
88,328,51219,1,0,2:2:0:0:
88,328,51316,2,1,P|135:328|177:349,1,96,2|0,2:2|3:3,0:0:0:0:
224,280,51606,5,2,2:2:0:0:
336,264,51800,1,0,2:2:0:0:
320,152,51993,1,2,2:2:0:0:
208,168,52187,1,0,3:3:0:0:
208,168,52284,2,1,P|209:121|232:79,1,96,2|8,2:2|2:2,0:0:0:0:
304,32,52574,5,2,2:2:0:0:
344,56,52671,1,0,2:2:0:0:
320,96,52768,1,2,3:2:0:0:
432,80,52961,1,0,2:2:0:0:
389,184,53155,1,6,2:2:0:0:
424,296,53348,5,2,2:2:0:0:
384,368,53477,1,0,2:2:0:0:
384,368,53542,2,1,L|320:360,1,64,2|0,2:2|2:2,0:0:0:0:
320,360,53735,1,2,2:2:0:0:
240,320,53864,1,0,2:2:0:0:
244,304,53929,1,6,2:2:0:0:
296,200,54122,5,2,2:2:0:0:
264,136,54251,1,0,2:2:0:0:
264,136,54316,2,1,L|200:144,1,64,2|0,3:2|2:2,0:0:0:0:
200,143,54509,2,1,L|151:127,1,48,2|0,2:2|2:2,0:0:0:0:
88,72,54703,5,6,2:2:0:0:
44,92,54800,1,0,2:2:0:0:
24,136,54897,1,0,3:3:0:0:
32,184,54993,1,0,2:2:0:0:
68,216,55090,1,2,2:2:0:0:
116,208,55187,1,8,2:2:0:0:
160,228,55284,1,0,2:2:0:0:
180,272,55380,6,1,P|180:319|152:368,1,96,2|0,2:2|2:2,0:0:0:0:
24,296,55768,1,0,2:2:0:0:
0,256,55864,1,10,2:2:0:0:
16,208,55961,1,8,2:3:0:0:
64,192,56058,1,6,2:2:0:0:
104,216,56155,1,0,3:3:0:0:
112,264,56251,6,1,B|164:160|320:192|240:280|396:312|448:208|448:208,1,384,6|0,3:2|2:2,0:0:0:0:
472,124,57122,2,1,L|480:76,2,48,0|2|0,2:2|2:2|2:2,0:0:0:0:
388,148,57413,1,2,2:2:0:0:
300,36,57606,1,2,2:2:0:0:
252,44,57703,1,0,3:3:0:0:
220,80,57800,5,10,2:2:0:0:
260,104,57897,1,0,2:2:0:0:
276,152,57993,1,0,2:2:0:0:
244,192,58090,1,0,2:2:0:0:
196,200,58187,5,2,3:2:0:0:
172,160,58284,1,0,2:2:0:0:
124,144,58380,1,8,2:2:0:0:
84,176,58477,1,0,2:2:0:0:
72,224,58574,6,1,B|48:264|48:264|54:313,1,96,2|2,3:2|2:2,0:0:0:0:
232,200,58961,2,1,B|208:160|208:160|214:111,1,96,2|10,2:2|2:2,0:0:0:0:
420,60,59348,5,14,3:2:0:0:
442,146,59477,1,0,2:2:0:0:
366,193,59606,1,0,2:2:0:0:
301,139,59735,1,2,2:2:0:0:
229,183,59864,1,0,2:2:0:0:
249,264,59993,1,0,2:2:0:0:
320,356,60122,5,14,3:2:0:0:
341,269,60251,1,0,2:2:0:0:
266,222,60380,1,0,2:2:0:0:
201,276,60509,1,2,2:2:0:0:
129,232,60639,1,0,2:2:0:0:
149,151,60768,1,0,2:2:0:0:
248,88,60897,5,14,3:2:0:0:
280,124,60993,1,0,2:2:0:0:
328,132,61090,1,0,2:2:0:0:
372,112,61187,1,0,2:2:0:0:
392,68,61284,1,2,2:2:0:0:
488,136,61477,1,0,2:2:0:0:
448,248,61671,5,2,2:2:0:0:
416,240,61768,1,0,2:2:0:0:
384,232,61864,1,0,2:2:0:0:
328,336,62058,2,1,B|376:352|376:320|424:336,1,96,2|0,2:2|2:2,0:0:0:0:
256,272,62445,6,1,P|234:314|234:361,1,96,4|0,3:2|2:2,0:0:0:0:
160,184,62832,2,1,P|181:141|181:94,1,96,10|0,3:2|2:2,0:0:0:0:
40,56,63219,5,0,3:3:0:0:
48,104,63316,1,2,2:2:0:0:
144,208,63509,1,0,2:2:0:0:
96,200,63606,1,10,3:2:0:0:
40,336,63800,5,0,2:2:0:0:
88,328,63897,2,1,L|184:320,1,96,2|0,2:2|2:2,0:0:0:0:
232,312,64187,1,2,2:2:0:0:
368,256,64380,1,8,3:2:0:0:
368,256,64477,1,2,2:2:0:0:
304,128,64671,6,1,B|276:104|228:116|244:132|196:144|168:120,1,144,2|0,2:2|2:2,0:0:0:0:
64,224,65155,1,8,3:2:0:0:
104,192,65251,2,1,P|125:234|122:281,1,96,0|0,0:0|2:2,0:0:0:0:
168,368,65542,5,6,3:2:0:0:
201,334,65639,1,0,2:2:0:0:
246,347,65735,2,1,L|295:342,1,48,0|0,2:2|0:0,0:0:0:0:
352,264,65929,5,10,3:2:0:0:
307,251,66026,2,1,L|259:255,1,48,0|0,2:2|0:0,0:0:0:0:
200,168,66219,1,0,2:2:0:0:
232,128,66316,5,2,3:2:0:0:
268,161,66413,1,0,2:2:0:0:
316,156,66509,1,0,2:2:0:0:
348,120,66606,1,0,2:2:0:0:
338,70,66703,1,10,3:2:0:0:
472,160,66897,5,0,2:2:0:0:
440,128,66993,2,1,P|419:170|422:217,1,96,2|0,2:2|2:2,0:0:0:0:
336,368,67380,1,2,2:2:0:0:
232,232,67574,1,0,2:2:0:0:
190,212,67671,1,2,2:2:0:0:
150,236,67768,1,0,2:2:0:0:
150,284,67864,5,0,3:3:0:0:
344,304,68058,1,2,2:2:0:0:
236,145,68251,5,8,3:2:0:0:
229,344,68445,1,2,3:2:0:0:
400,248,68639,6,1,B|449:242|449:242|489:266,1,96,4|0,3:2|2:2,0:0:0:0:
408,96,69026,2,1,B|359:90|359:90|319:114,1,96,10|0,3:2|2:2,0:0:0:0:
192,232,69413,5,0,3:3:0:0:
168,192,69509,1,0,2:2:0:0:
192,152,69606,2,1,L|200:104,1,48,0|0,2:2|2:2,0:0:0:0:
112,40,69800,5,10,3:2:0:0:
72,64,69897,1,0,2:2:0:0:
56,112,69993,1,0,2:2:0:0:
88,152,70090,1,0,2:2:0:0:
64,192,70187,5,4,3:2:0:0:
160,315,70380,1,0,2:2:0:0:
5,337,70574,1,10,3:2:0:0:
5,337,70671,1,0,2:2:0:0:
128,232,70864,6,1,B|156:208|204:220|188:236|236:248|264:224,1,144,2|0,2:2|2:2,0:0:0:0:
336,80,71348,1,8,3:2:0:0:
312,40,71445,2,1,P|264:36|222:57,1,96,0|0,0:0|2:2,0:0:0:0:
244,160,71735,5,6,3:2:0:0:
284,136,71832,1,0,2:2:0:0:
324,160,71929,2,1,L|372:168,1,48,0|0,2:2|2:2,0:0:0:0:
432,256,72122,5,10,3:2:0:0:
408,296,72219,1,0,0:0:0:0:
360,312,72316,1,0,2:2:0:0:
320,280,72413,1,0,0:0:0:0:
280,304,72509,5,2,3:2:0:0:
160,184,72703,1,0,2:2:0:0:
116,347,72897,1,10,3:2:0:0:
74,367,72993,1,0,2:2:0:0:
34,343,73090,1,0,2:2:0:0:
34,295,73187,2,1,L|48:246,1,48,0|4,2:2|3:2,0:0:0:0:
136,192,73380,5,0,2:2:0:0:
178,212,73477,1,2,2:2:0:0:
218,188,73574,1,0,2:2:0:0:
218,140,73671,1,10,3:2:0:0:
112,42,73864,5,0,2:2:0:0:
120,74,73961,1,0,2:2:0:0:
128,106,74058,1,2,3:2:0:0:
288,42,74251,1,2,2:2:0:0:
256,183,74445,5,8,3:2:0:0:
336,354,74639,1,10,2:2:0:0:
147,338,74832,1,4,3:2:0:0:
256,192,74929,12,4,76380,3:2:0:0:
120,312,76767,5,8,2:2:0:0:
403,259,77154,1,8,2:2:0:0:
115,112,77541,5,0,3:3:0:0:
240,373,77928,1,8,2:2:0:0:
402,135,78315,1,8,2:2:0:0:
100,235,78702,5,0,3:3:0:0:
373,331,79089,1,8,2:2:0:0:
319,48,79476,1,8,2:2:0:0:
176,332,79863,5,0,2:2:0:0:
176,332,80057,2,1,L|272:328,1,96,0|8,2:2|2:2,0:0:0:0:
437,207,80444,2,1,L|336:192,1,96,8|8,2:3|2:2,0:0:0:0:
199,45,80831,1,4,2:3:0:0:
344,16,81025,5,4,3:2:0:0:
384,304,81412,1,10,2:2:0:0:
106,170,81799,1,10,2:2:0:0:
431,125,82186,6,1,B|420:180|374:196|374:196|405:234|387:287,1,192,2|8,3:2|2:2,0:0:0:0:
154,65,82960,1,10,2:2:0:0:
307,351,83347,6,1,B|258:379|258:379|223:353|180:358|180:358|152:309,1,192,2|8,3:2|2:2,0:0:0:0:
366,82,84121,1,10,2:2:0:0:
97,243,84509,6,1,B|129:216|114:175|114:175|147:151|147:151|131:110|165:83,1,192,2|0,3:2|2:2,0:0:0:0:
282,39,85089,1,8,2:2:0:0:
384,208,85283,2,1,B|360:248|360:248|366:302,1,96,8|8,2:2|2:2,0:0:0:0:
480,272,85670,5,6,3:2:0:0:
278,62,86057,1,10,2:2:0:0:
197,338,86444,1,10,2:2:0:0:
470,90,86831,6,1,B|415:101|399:147|399:147|361:116|308:134,1,192,2|8,3:2|2:2,0:0:0:0:
197,338,87605,1,10,2:2:0:0:
328,288,87799,1,0,2:2:0:0:
278,157,87992,5,2,3:2:0:0:
174,208,88186,1,0,2:2:0:0:
92,127,88379,1,10,2:2:0:0:
145,24,88573,1,0,2:2:0:0:
259,42,88767,1,10,2:2:0:0:
336,332,89154,6,1,L|240:320,1,96,2|0,3:2|3:3,0:0:0:0:
75,207,89541,2,1,L|176:192,1,96,0|0,3:3|3:3,0:0:0:0:
313,45,89928,2,1,L|216:32,1,96,0|0,3:3|3:3,0:0:0:0:
274,192,90315,5,4,3:2:0:0:
434,235,90509,1,8,2:2:0:0:
366,167,90702,1,2,3:2:0:0:
409,327,90896,1,8,2:2:0:0:
434,235,91089,1,2,3:2:0:0:
317,352,91283,1,8,2:2:0:0:
274,192,91476,5,2,3:2:0:0:
114,235,91670,1,8,2:2:0:0:
299,284,91863,1,2,3:2:0:0:
139,327,92057,1,10,2:2:0:0:
182,167,92250,1,2,3:2:0:0:
231,352,92444,1,10,2:2:0:0:
114,235,92638,5,2,3:2:0:0:
206,210,92831,1,8,2:2:0:0:
46,167,93025,1,2,3:2:0:0:
231,118,93218,1,8,2:2:0:0:
71,75,93412,1,2,3:2:0:0:
163,50,93605,1,8,2:2:0:0:
256,192,93799,5,2,3:2:0:0:
416,149,93992,1,8,2:2:0:0:
299,32,94186,1,2,3:2:0:0:
348,217,94379,1,10,3:2:0:0:
391,57,94573,1,2,3:2:0:0:
231,92,94767,1,10,3:2:0:0:
344,184,94960,5,6,3:2:0:0:
384,160,95057,1,0,3:3:0:0:
432,168,95154,1,8,3:2:0:0:
456,208,95250,1,0,3:3:0:0:
448,256,95347,1,0,3:3:0:0:
408,280,95444,1,0,3:3:0:0:
360,272,95541,1,8,3:2:0:0:
320,304,95638,1,0,3:3:0:0:
304,352,95734,5,0,3:3:0:0:
256,368,95831,1,0,3:3:0:0:
216,344,95928,1,8,3:2:0:0:
208,296,96025,1,0,3:3:0:0:
240,256,96121,5,2,3:2:0:0:
264,216,96218,1,0,3:3:0:0:
256,168,96315,1,8,3:2:0:0:
216,144,96412,1,0,3:3:0:0:
168,152,96509,1,0,3:3:0:0:
144,192,96605,1,0,3:3:0:0:
152,240,96702,1,8,3:2:0:0:
120,280,96799,1,0,3:3:0:0:
72,280,96896,6,1,L|24:264,1,48,2|0,3:2|3:3,0:0:0:0:
80,184,97089,2,1,L|128:168,1,48,10|0,3:2|3:3,0:0:0:0:
200,112,97283,5,2,3:2:0:0:
208,144,97379,1,0,3:3:0:0:
216,176,97476,1,10,3:2:0:0:
224,208,97573,1,0,3:3:0:0:
232,240,97670,5,2,3:2:0:0:
239,288,97767,1,0,3:3:0:0:
280,312,97863,1,10,3:2:0:0:
324,292,97960,1,0,3:3:0:0:
340,248,98057,1,2,3:2:0:0:
376,216,98154,1,0,3:3:0:0:
424,220,98250,1,10,3:2:0:0:
456,256,98347,1,0,3:3:0:0:
456,304,98444,5,10,3:2:0:0:
408,280,98541,1,0,3:3:0:0:
392,232,98638,1,10,3:2:0:0:
408,184,98734,1,0,3:3:0:0:
456,160,98831,5,10,3:2:0:0:
473,107,98928,1,0,3:3:0:0:
456,54,99025,1,10,3:2:0:0:
403,27,99121,1,0,3:3:0:0:
344,40,99218,5,10,3:2:0:0:
332,100,99315,1,0,3:3:0:0:
272,132,99412,1,10,3:2:0:0:
204,108,99509,1,0,3:3:0:0:
176,36,99605,1,14,3:2:0:0:
400,256,105798,5,2,3:2:0:0:
392,288,105895,1,0,2:2:0:0:
384,320,105992,1,0,2:2:0:0:
240,352,106185,1,2,3:2:0:0:
208,208,106379,1,0,2:2:0:0:
352,176,106572,5,2,3:2:0:0:
376,136,106669,1,0,2:2:0:0:
368,88,106766,1,0,2:2:0:0:
328,64,106863,1,0,2:2:0:0:
288,88,106959,1,2,3:2:0:0:
224,192,107153,5,0,2:2:0:0:
184,216,107250,1,0,2:2:0:0:
144,192,107346,1,2,3:2:0:0:
136,144,107443,1,0,0:0:0:0:
160,104,107540,2,1,P|154:80|142:60,1,48,0|0,2:2|0:0,0:0:0:0:
56,72,107734,2,1,P|34:115|33:162,1,96,2|0,3:2|0:0,0:0:0:0:
80,232,108024,5,0,2:2:0:0:
113,198,108121,1,2,3:2:0:0:
158,211,108217,2,1,L|207:206,1,48,0|0,2:2|0:0,0:0:0:0:
272,144,108411,6,1,P|294:187|295:234,1,96,2|0,2:2|2:2,0:0:0:0:
272,280,108701,1,2,2:2:0:0:
384,368,108895,5,0,3:3:0:0:
424,344,108992,1,0,2:2:0:0:
440,296,109088,1,2,2:2:0:0:
408,256,109185,1,0,2:2:0:0:
360,248,109282,5,2,3:2:0:0:
328,208,109379,1,0,2:2:0:0:
344,160,109475,1,0,2:2:0:0:
384,136,109572,1,0,2:2:0:0:
432,152,109669,5,2,3:2:0:0:
408,8,109863,1,0,2:2:0:0:
296,96,110056,1,2,3:2:0:0:
264,56,110153,1,0,2:2:0:0:
168,160,110346,5,0,2:2:0:0:
192,200,110443,1,2,3:2:0:0:
240,208,110540,1,0,0:0:0:0:
280,184,110637,2,1,P|304:190|324:202,1,48,0|0,2:2|0:0,0:0:0:0:
376,280,110830,5,2,3:2:0:0:
336,320,110927,1,0,2:2:0:0:
272,312,111024,1,2,2:2:0:0:
232,256,111121,1,0,2:2:0:0:
160,240,111217,2,1,P|138:283|137:330,1,96,2|0,3:2|2:2,0:0:0:0:
8,264,111604,5,2,3:2:0:0:
24,192,111701,1,0,2:2:0:0:
80,152,111798,1,2,2:2:0:0:
88,88,111895,1,0,2:2:0:0:
48,48,111992,5,2,3:2:0:0:
59,193,112185,1,0,2:2:0:0:
204,182,112379,1,2,3:2:0:0:
193,36,112572,5,0,2:2:0:0:
234,10,112669,1,0,2:2:0:0:
282,15,112766,1,2,3:2:0:0:
319,45,112863,1,0,2:2:0:0:
327,93,112959,1,0,2:2:0:0:
456,152,113153,1,2,3:2:0:0:
340,234,113346,1,0,2:2:0:0:
412,360,113540,5,2,3:2:0:0:
380,324,113637,1,0,2:2:0:0:
332,316,113734,2,1,P|307:321|286:336,1,48,0|0,2:2|2:2,0:0:0:0:
200,376,113927,2,1,P|178:333|177:286,1,96,2|0,3:2|2:2,0:0:0:0:
208,208,114217,5,0,2:2:0:0:
208,208,114314,1,2,3:2:0:0:
352,232,114508,1,0,2:2:0:0:
301,95,114701,1,2,3:2:0:0:
301,95,114798,1,0,2:2:0:0:
301,95,114895,1,2,2:2:0:0:
144,32,115088,5,0,3:3:0:0:
107,65,115185,1,0,2:2:0:0:
100,112,115282,1,2,2:2:0:0:
119,156,115379,1,0,2:2:0:0:
163,176,115475,2,1,L|216:168,1,48,2|0,3:2|2:2,0:0:0:0:
280,224,115669,5,0,2:2:0:0:
264,272,115766,1,0,2:2:0:0:
216,256,115863,1,2,3:2:0:0:
272,120,116056,1,0,2:2:0:0:
361,236,116250,1,2,3:2:0:0:
408,220,116346,1,0,2:2:0:0:
472,352,116540,5,0,2:2:0:0:
424,336,116637,2,1,P|399:341|378:356,1,48,2|0,3:2|2:2,0:0:0:0:
304,296,116830,1,0,2:2:0:0:
328,256,116927,1,0,2:2:0:0:
376,248,117024,2,1,P|389:227|393:204,1,48,2|0,3:2|0:0,0:0:0:0:
336,104,117217,5,0,2:2:0:0:
296,80,117314,1,0,2:2:0:0:
256,104,117411,1,2,3:2:0:0:
248,152,117508,1,0,2:2:0:0:
272,192,117604,2,1,P|266:216|254:236,1,48,0|0,2:2|0:0,0:0:0:0:
128,216,117798,1,10,3:2:0:0:
128,216,117895,2,1,L|120:120,1,96,0|0,2:2|2:2,0:0:0:0:
48,32,118185,5,6,3:2:0:0:
220,48,118379,2,1,P|242:91|243:138,1,96,2|8,2:2|3:2,0:0:0:0:
256,312,118766,5,2,2:2:0:0:
400,336,118959,1,2,3:2:0:0:
349,199,119153,1,2,2:2:0:0:
349,199,119250,1,0,0:0:0:0:
349,199,119346,1,10,3:2:0:0:
256,312,119540,1,2,2:2:0:0:
88,288,119734,6,1,L|80:192,1,96,2|0,3:2|2:2,0:0:0:0:
248,56,120121,1,10,3:2:0:0:
192,160,120314,1,0,2:2:0:0:
240,328,120508,6,1,L|336:336,1,96,2|0,3:2|2:2,0:0:0:0:
480,248,120895,1,10,3:2:0:0:
368,224,121088,1,0,2:2:0:0:
216,136,121282,5,6,3:2:0:0:
349,25,121475,2,1,P|395:39|429:72,1,96,2|8,2:2|3:2,0:0:0:0:
424,248,121863,5,2,2:2:0:0:
288,272,122056,1,2,3:2:0:0:
288,272,122153,1,0,0:0:0:0:
288,272,122250,1,2,2:2:0:0:
331,135,122443,1,10,3:2:0:0:
360,304,122637,1,2,2:2:0:0:
191,333,122830,6,1,L|80:320,1,96,2|0,3:2|2:2,0:0:0:0:
240,224,123217,2,1,L|351:211,1,96,10|0,3:2|2:2,0:0:0:0:
192,112,123604,5,2,3:2:0:0:
144,96,123701,1,8,2:2:0:0:
272,32,123895,5,0,3:3:0:0:
320,40,123992,1,10,3:2:0:0:
340,84,124088,1,8,2:3:0:0:
320,128,124185,1,4,2:3:0:0:
276,140,124282,1,4,2:3:0:0:
252,184,124379,5,4,3:2:0:0:
268,228,124475,1,2,2:2:0:0:
400,168,124669,1,0,2:2:0:0:
384,212,124766,1,10,3:2:0:0:
448,344,124959,5,0,2:2:0:0:
432,300,125056,1,0,2:2:0:0:
384,288,125153,5,2,3:2:0:0:
368,336,125250,1,0,2:2:0:0:
328,360,125346,1,0,2:2:0:0:
280,352,125443,1,0,2:2:0:0:
248,312,125540,6,1,L|256:264,1,48,10|0,3:2|2:2,0:0:0:0:
160,200,125734,2,1,L|168:248,1,48,0|0,2:2|2:2,0:0:0:0:
152,344,125927,5,2,3:2:0:0:
113,374,126024,1,0,2:2:0:0:
65,373,126121,1,0,2:2:0:0:
25,347,126217,1,0,2:2:0:0:
13,300,126314,1,10,3:2:0:0:
32,256,126411,2,1,P|55:214|56:167,1,96,0|0,2:2|2:2,0:0:0:0:
8,88,126701,5,2,3:2:0:0:
136,24,126895,1,0,2:2:0:0:
136,24,126992,2,1,P|161:29|182:44,1,48,2|8,2:2|3:2,0:0:0:0:
248,112,127185,2,1,P|223:117|202:132,1,48,2|0,2:2|0:0,0:0:0:0:
136,200,127379,1,2,2:2:0:0:
152,240,127475,5,4,3:2:0:0:
192,216,127572,1,2,2:2:0:0:
232,240,127669,1,0,0:0:0:0:
232,288,127766,1,0,2:2:0:0:
192,312,127863,1,10,3:2:0:0:
320,376,128056,1,0,2:2:0:0:
384,248,128250,5,2,3:2:0:0:
336,232,128346,1,0,2:2:0:0:
256,152,128540,1,0,2:2:0:0:
304,136,128637,1,10,3:2:0:0:
384,16,128830,1,0,2:2:0:0:
447,145,129024,6,1,L|440:240,1,96,2|0,3:2|2:2,0:0:0:0:
352,256,129314,5,0,2:2:0:0:
360,204,129411,1,10,3:2:0:0:
320,164,129508,1,0,2:2:0:0:
256,171,129604,1,2,2:2:0:0:
216,227,129701,1,0,2:2:0:0:
143,244,129798,2,1,P|121:201|120:154,1,96,2|0,3:2|2:2,0:0:0:0:
165,69,130088,5,0,2:2:0:0:
228,108,130185,1,10,3:2:0:0:
296,97,130282,1,0,2:2:0:0:
346,137,130379,1,2,2:2:0:0:
346,194,130475,1,0,2:2:0:0:
304,228,130572,5,6,3:2:0:0:
256,216,130669,1,0,2:2:0:0:
208,232,130766,2,1,P|194:251|189:274,1,48,0|0,2:2|2:2,0:0:0:0:
240,360,130959,5,10,3:2:0:0:
280,328,131056,1,0,2:2:0:0:
328,336,131153,1,0,2:2:0:0:
368,360,131250,1,0,2:2:0:0:
416,344,131346,5,2,3:2:0:0:
440,304,131443,2,1,L|432:256,1,48,8|8,3:2|3:2,0:0:0:0:
408,144,131637,1,10,3:2:0:0:
184,64,132121,5,4,3:2:0:0:
192,112,132217,1,2,2:2:0:0:
304,200,132411,1,0,2:2:0:0:
256,192,132508,1,10,3:2:0:0:
192,320,132701,1,0,2:2:0:0:
192,320,132798,2,1,P|216:318|239:325,2,48,2|0|0,2:2|3:3|2:2,0:0:0:0:
120,368,133088,5,0,2:2:0:0:
72,384,133185,1,0,2:2:0:0:
32,360,133282,2,1,P|23:338|25:314,1,48,10|0,3:2|0:0,0:0:0:0:
104,264,133475,2,1,P|106:240|97:218,1,48,2|0,2:2|0:0,0:0:0:0:
48,136,133669,5,6,3:2:0:0:
88,112,133766,1,0,2:2:0:0:
136,120,133863,1,0,2:2:0:0:
168,152,133959,1,0,2:2:0:0:
216,152,134056,1,10,3:2:0:0:
256,120,134153,1,0,2:2:0:0:
264,72,134250,2,1,L|312:64,1,48,2|0,2:2|0:0,0:0:0:0:
424,40,134443,5,0,3:3:0:0:
424,40,134540,2,1,L|416:88,1,48,2|0,2:2|0:0,0:0:0:0:
344,192,134734,1,0,2:2:0:0:
344,192,134830,2,1,L|296:176,2,48,10|0|2,3:2|2:2|2:2,0:0:0:0:
384,216,135121,1,8,2:2:0:0:
400,264,135217,6,1,B|354:248|306:264|306:264|289:215|240:200|240:200|264:252|240:292|240:292|196:260|120:276|168:308|92:324|48:292|48:292|124:248|124:152|48:108,1,720,2|0,3:2|3:3,0:0:0:0:
8,200,136766,6,1,B|54:252|141:237|166:172|166:172|131:142|131:142|150:107|150:107|210:106|237:55,1,384,6|0,3:2|2:2,0:0:0:0:
344,16,137734,1,2,2:2:0:0:
400,120,137927,1,0,2:2:0:0:
400,120,138024,2,1,P|378:162|378:209,1,96,2|2,2:2|3:2,0:0:0:0:
440,280,138314,6,1,L|488:272,2,48,0|0|2,2:2|0:0|2:2,0:0:0:0:
336,320,138701,1,2,2:2:0:0:
336,320,138798,2,1,L|288:312,1,48,0|0,2:2|3:3,0:0:0:0:
228,372,138992,6,1,P|206:330|212:276,1,96,2|0,2:2|2:2,0:0:0:0:
244,204,139282,1,2,2:2:0:0:
284,232,139379,1,0,2:2:0:0:
328,216,139475,1,2,3:2:0:0:
340,168,139572,1,0,2:2:0:0:
312,56,139766,5,2,2:2:0:0:
232,136,139959,1,2,2:2:0:0:
160,48,140153,1,0,2:2:0:0:
120,24,140250,2,1,P|96:30|76:42,1,48,2|0,2:2|2:2,0:0:0:0:
48,136,140443,5,2,2:2:0:0:
96,144,140540,1,0,2:2:0:0:
136,120,140637,2,1,P|160:126|180:138,1,48,2|0,3:2|2:2,0:0:0:0:
152,232,140830,5,0,2:2:0:0:
124,272,140927,1,0,3:3:0:0:
140,316,141024,1,2,2:2:0:0:
188,328,141121,1,0,3:3:0:0:
224,296,141217,2,1,L|272:288,1,48,10|0,2:2|2:2,0:0:0:0:
376,216,141411,6,1,L|328:208,1,48,6|0,2:2|2:2,0:0:0:0:
272,128,141604,1,0,2:2:0:0:
288,80,141701,2,1,P|308:67|331:62,1,48,0|2,2:2|3:2,0:0:0:0:
384,128,141895,5,0,2:2:0:0:
432,144,141992,1,0,2:2:0:0:
472,112,142088,1,0,2:2:0:0:
472,64,142185,2,1,P|450:106|456:160,1,96,2|10,2:2|2:2,0:0:0:0:
384,336,142572,2,1,P|387:288|365:246,1,96,2|2,3:2|3:2,0:0:0:0:
312,112,142959,6,1,B|201:75|114:208|232:213|145:346|34:309|34:309,1,384,6|0,2:2|2:2,0:0:0:0:
0,232,143830,2,1,L|-8:184,2,48,0|2|0,2:2|2:2|2:2,0:0:0:0:
80,200,144121,1,2,2:2:0:0:
88,152,144217,1,0,2:2:0:0:
56,120,144314,2,1,L|64:72,1,48,0|0,3:3|2:2,0:0:0:0:
136,24,144508,5,2,2:2:0:0:
184,36,144604,1,0,2:2:0:0:
208,76,144701,1,0,2:2:0:0:
196,124,144798,1,0,3:3:0:0:
156,152,144895,1,10,2:2:0:0:
148,200,144992,1,0,2:2:0:0:
180,236,145088,2,1,L|228:228,1,48,0|8,3:3|2:2,0:0:0:0:
288,168,145282,6,1,B|264:128|264:128|270:79,1,96,2|2,3:2|2:2,0:0:0:0:
400,248,145669,2,1,B|424:288|424:288|418:337,1,96,2|10,2:2|2:2,0:0:0:0:
208,376,146056,5,14,3:2:0:0:
160,301,146185,1,0,2:2:0:0:
218,232,146314,1,8,2:3:0:0:
296,264,146443,1,8,2:3:0:0:
351,199,146572,1,4,2:3:0:0:
307,129,146701,1,4,2:3:0:0:
200,176,146830,5,14,3:2:0:0:
275,224,146959,1,0,2:2:0:0:
344,166,147088,1,8,2:3:0:0:
312,88,147217,1,8,2:3:0:0:
377,33,147346,1,4,2:3:0:0:
447,77,147475,1,4,2:3:0:0:
456,192,147604,5,14,3:2:0:0:
415,166,147701,1,0,2:2:0:0:
367,171,147798,1,0,2:2:0:0:
330,201,147895,1,0,2:2:0:0:
322,249,147992,1,2,2:2:0:0:
360,360,148185,1,0,2:2:0:0:
248,344,148379,5,2,2:2:0:0:
216,336,148475,1,0,2:2:0:0:
184,328,148572,1,0,2:2:0:0:
136,224,148766,2,1,B|184:208|184:240|232:224,1,96,2|0,2:2|2:2,0:0:0:0:
272,80,149153,5,2,2:2:0:0:
249,89,149250,1,0,2:2:0:0:
231,105,149346,1,0,2:2:0:0:
218,125,149443,1,0,2:2:0:0:
211,147,149540,1,2,2:2:0:0:
301,175,149734,1,0,2:2:0:0:
136,56,149929,6,1,P|112:96|112:152,1,96,4|0,3:2|2:2,0:0:0:0:
64,328,150316,2,1,P|64:280|40:232,1,96,10|0,3:2|2:2,0:0:0:0:
168,312,150703,5,0,3:3:0:0:
220,304,150799,1,2,2:2:0:0:
200,160,150993,1,0,2:2:0:0:
192,212,151090,1,10,3:2:0:0:
344,304,151283,5,0,2:2:0:0:
336,256,151380,2,1,L|328:160,1,96,2|0,2:2|0:0,0:0:0:0:
320,112,151670,1,2,2:2:0:0:
216,208,151864,1,8,3:2:0:0:
216,208,151961,1,2,2:2:0:0:
300,336,152154,6,1,B|328:360|376:348|360:332|408:320|436:344,1,144,2|0,2:2|2:2,0:0:0:0:
380,176,152638,1,8,3:2:0:0:
356,224,152735,2,1,P|403:227|445:206,1,96,0|0,0:0|2:2,0:0:0:0:
504,128,153025,5,6,3:2:0:0:
480,88,153122,1,0,2:2:0:0:
440,64,153219,2,1,P|416:63|393:70,1,48,0|0,2:2|0:0,0:0:0:0:
336,152,153412,5,10,3:2:0:0:
296,128,153509,2,1,P|289:105|290:81,1,48,0|0,2:2|2:2,0:0:0:0:
200,40,153703,1,0,2:2:0:0:
208,88,153799,5,2,3:2:0:0:
172,121,153896,1,0,2:2:0:0:
124,116,153993,1,0,2:2:0:0:
92,80,154090,1,0,2:2:0:0:
102,30,154187,1,10,3:2:0:0:
8,160,154380,5,0,2:2:0:0:
40,192,154477,2,1,L|48:288,1,96,2|0,2:2|2:2,0:0:0:0:
152,152,154864,1,2,2:2:0:0:
264,280,155058,1,0,2:2:0:0:
306,300,155154,1,2,2:2:0:0:
346,276,155251,1,0,2:2:0:0:
346,228,155348,5,0,3:3:0:0:
160,200,155541,1,2,2:2:0:0:
254,363,155735,5,8,3:2:0:0:
269,168,155929,1,2,2:2:0:0:
120,288,156122,6,1,B|160:312|160:312|209:306,1,96,4|0,3:2|2:2,0:0:0:0:
288,128,156509,2,1,B|239:122|239:122|199:146,1,96,10|0,3:2|2:2,0:0:0:0:
312,240,156896,5,0,3:3:0:0:
356,220,156993,1,0,2:2:0:0:
400,224,157090,2,1,P|417:240|428:261,1,48,0|0,2:2|2:2,0:0:0:0:
392,352,157283,5,10,3:2:0:0:
352,327,157380,1,0,2:2:0:0:
312,359,157477,1,0,2:2:0:0:
264,344,157574,1,0,2:2:0:0:
239,303,157670,5,4,3:2:0:0:
376,232,157864,1,0,2:2:0:0:
305,95,158058,1,10,3:2:0:0:
305,95,158154,1,0,2:2:0:0:
176,176,158348,6,1,B|204:200|252:188|236:172|284:160|312:184,1,144,2|0,2:2|2:2,0:0:0:0:
256,344,158832,1,8,3:2:0:0:
216,312,158929,2,1,P|169:309|127:330,1,96,0|0,0:0|2:2,0:0:0:0:
40,296,159219,5,6,3:2:0:0:
8,264,159316,1,0,2:2:0:0:
0,216,159412,1,0,2:2:0:0:
48,224,159509,1,0,2:2:0:0:
88,200,159606,2,1,L|80:144,1,48,10|0,3:2|2:2,0:0:0:0:
144,56,159799,2,1,L|152:112,1,48,0|0,2:2|2:2,0:0:0:0:
192,200,159993,5,2,3:2:0:0:
231,228,160090,1,0,2:2:0:0:
276,211,160187,1,0,2:2:0:0:
293,166,160283,1,0,2:2:0:0:
271,126,160380,1,10,3:2:0:0:
285,78,160477,1,0,2:2:0:0:
327,58,160574,1,0,2:2:0:0:
464,160,160767,5,6,3:2:0:0:
472,212,160864,1,0,2:2:0:0:
480,264,160961,1,0,2:2:0:0:
488,316,161058,1,0,2:2:0:0:
444,340,161154,5,10,3:2:0:0:
435,282,161251,1,0,2:2:0:0:
426,225,161348,1,0,2:2:0:0:
417,168,161445,1,0,2:2:0:0:
360,160,161541,5,0,3:3:0:0:
386,353,161735,1,2,2:2:0:0:
201,309,161929,5,8,3:2:0:0:
223,120,162122,1,2,2:2:0:0:
80,272,162316,6,1,P|72:328|94:380,1,115.2,4|0,3:2|2:2,0:0:0:0:
248,176,162703,2,1,P|255:119|234:66,1,115.2,10|0,3:2|2:2,0:0:0:0:
80,144,163090,5,0,3:3:0:0:
136,136,163187,1,2,2:2:0:0:
256,264,163380,1,0,2:2:0:0:
200,272,163477,1,10,3:2:0:0:
288,120,163670,5,0,2:2:0:0:
328,160,163767,2,1,B|384:165|384:165|437:140,1,115.2,2|0,2:2|2:2,0:0:0:0:
464,88,164058,1,2,2:2:0:0:
512,256,164251,1,8,3:2:0:0:
512,256,164348,1,2,2:2:0:0:
368,352,164541,6,1,B|334:323|276:337|295:356|238:371|204:342,1,172.8,2|0,2:2|2:2,0:0:0:0:
104,176,165025,1,8,3:2:0:0:
152,144,165122,2,1,P|184:192|176:248,1,115.2,0|0,0:0|2:2,0:0:0:0:
76,300,165412,5,6,3:2:0:0:
28,268,165509,1,0,2:2:0:0:
28,212,165606,2,1,L|36:152,1,57.6,0|0,2:2|2:2,0:0:0:0:
136,96,165799,5,10,3:2:0:0:
136,152,165896,2,1,L|128:212,1,57.6,0|0,2:2|2:2,0:0:0:0:
168,320,166090,5,0,2:2:0:0:
224,312,166187,1,2,3:2:0:0:
256,264,166283,1,0,2:2:0:0:
248,208,166380,1,0,2:2:0:0:
280,160,166477,2,1,P|312:152|352:160,1,57.6,2|8,2:2|3:2,0:0:0:0:
400,240,166670,2,1,P|368:248|328:240,1,57.6,2|0,2:2|2:2,0:0:0:0:
384,344,166864,5,0,2:2:0:0:
440,352,166961,1,6,3:2:0:0:
480,312,167058,1,0,2:2:0:0:
480,256,167154,1,0,2:2:0:0:
440,216,167251,2,1,L|448:152,1,57.6,2|8,2:2|3:2,0:0:0:0:
416,56,167445,5,0,2:2:0:0:
360,64,167541,1,2,2:2:0:0:
336,120,167638,1,0,2:2:0:0:
288,88,167735,5,0,3:3:0:0:
512,24,167928,1,2,2:2:0:0:
408,232,168122,5,8,3:2:0:0:
384,0,168316,1,2,2:2:0:0:
504,224,168509,6,1,L|496:344,1,115.2,4|0,3:2|2:2,0:0:0:0:
336,144,168896,2,1,L|328:24,1,115.2,10|0,3:2|2:2,0:0:0:0:
80,200,169283,5,0,3:3:0:0:
64,254,169380,1,0,2:2:0:0:
79,310,169477,1,0,2:2:0:0:
120,351,169574,1,0,2:2:0:0:
175,366,169670,1,10,3:2:0:0:
159,312,169767,1,0,2:2:0:0:
174,256,169864,1,0,2:2:0:0:
215,215,169961,1,0,2:2:0:0:
270,200,170058,5,4,3:2:0:0:
496,168,170251,1,0,2:2:0:0:
316,73,170445,1,10,3:2:0:0:
316,73,170541,1,0,2:2:0:0:
432,320,170735,6,1,B|461:286|447:228|428:247|413:190|442:156,1,172.8,2|0,2:2|2:2,0:0:0:0:
240,120,171219,1,8,3:2:0:0:
292,144,171316,2,1,P|298:88|267:41,1,115.2,0|0,0:0|2:2,0:0:0:0:
152,32,171606,5,6,3:2:0:0:
104,64,171703,1,0,2:2:0:0:
88,120,171799,2,1,L|104:176,1,57.6,0|0,2:2|2:2,0:0:0:0:
104,296,171993,5,10,3:2:0:0:
144,256,172090,1,0,2:2:0:0:
200,248,172187,1,0,2:2:0:0:
192,304,172283,1,0,2:2:0:0:
219,354,172380,2,1,L|286:344,1,57.6,2|0,3:2|2:2,0:0:0:0:
360,264,172574,2,1,L|293:254,1,57.6,0|0,2:2|2:2,0:0:0:0:
352,152,172767,5,10,3:2:0:0:
408,160,172864,1,0,2:2:0:0:
432,216,172961,1,0,2:2:0:0:
480,184,173058,2,0,L|488:120,1,57.5999982421876,0|4,2:2|3:2,0:0:0:0:
360,32,173251,5,0,2:2:0:0:
344,88,173348,1,2,2:2:0:0:
384,128,173445,1,0,2:2:0:0:
440,104,173541,1,10,3:2:0:0:
252,52,173735,5,0,2:2:0:0:
244,108,173832,1,0,2:2:0:0:
272,156,173928,1,2,3:2:0:0:
448,200,174122,1,2,2:2:0:0:
320,336,174316,5,8,3:2:0:0:
372,124,174509,1,2,2:2:0:0:
160,72,174703,1,4,3:2:0:0:
201,241,174896,5,2,2:2:0:0:
52,332,175090,1,8,3:2:0:0:
16,288,175187,2,1,P|13:259|21:231,1,57.6,2|0,2:2|0:0,0:0:0:0:
88,152,175380,1,0,2:2:0:0:
132,188,175477,2,1,P|161:191|189:183,1,57.6,2|0,3:2|0:0,0:0:0:0:
224,88,175670,5,0,2:2:0:0:
176,56,175767,2,1,L|112:64,2,57.6,2|8|0,2:2|3:2|2:2,0:0:0:0:
296,24,176058,1,2,2:2:0:0:
392,208,176251,5,0,3:3:0:0:
424,40,176445,1,2,2:2:0:0:
312,168,176638,2,1,L|304:104,1,57.6,8|2,3:2|2:2,0:0:0:0:
424,40,176832,1,0,0:0:0:0:
504,192,177025,5,2,3:2:0:0:
496,248,177122,1,0,2:2:0:0:
448,280,177219,1,0,2:2:0:0:
392,264,177316,2,1,P|336:258|289:289,1,115.2,2|0,2:2|2:2,0:0:0:0:
360,356,177606,1,2,2:2:0:0:
192,376,177799,5,4,3:2:0:0:
216,208,177993,1,2,2:2:0:0:
63,133,178187,1,8,3:2:0:0:
32,184,178283,2,1,P|29:213|37:241,1,57.6,2|0,2:2|0:0,0:0:0:0:
120,304,178477,1,0,2:2:0:0:
160,264,178574,2,1,P|187:256|216:259,1,57.6,2|0,3:2|0:0,0:0:0:0:
288,336,178767,5,0,2:2:0:0:
328,296,178864,2,1,L|320:232,2,57.6,2|8|0,2:2|3:2|2:2,0:0:0:0:
424,360,179154,1,2,2:2:0:0:
456,152,179348,5,0,3:3:0:0:
296,56,179541,1,2,2:2:0:0:
456,152,179735,2,1,L|392:160,1,57.6,8|2,3:2|2:2,0:0:0:0:
288,200,179928,1,0,2:2:0:0:
192,32,180122,5,0,3:3:0:0:
160,80,180219,1,2,2:2:0:0:
170,137,180316,1,0,2:2:0:0:
200,184,180412,2,1,P|148:157|91:157,1,115.2,2|0,2:2|2:2,0:0:0:0:
36,261,180703,1,2,2:2:0:0:
176,360,180896,5,4,3:2:0:0:
313,257,181090,1,2,2:2:0:0:
168,160,181283,1,8,3:2:0:0:
200,208,181380,2,1,P|229:211|257:203,1,57.6,2|0,2:2|0:0,0:0:0:0:
320,120,181574,1,0,2:2:0:0:
312,64,181670,2,1,P|283:61|255:69,1,57.6,2|0,3:2|0:0,0:0:0:0:
184,144,181864,5,0,2:2:0:0:
144,104,181961,2,1,L|136:40,2,57.6,2|8|0,2:2|3:2|2:2,0:0:0:0:
160,232,182251,1,2,2:2:0:0:
288,344,182445,5,0,3:3:0:0:
448,272,182638,1,2,2:2:0:0:
280,232,182832,2,1,L|344:224,1,57.6,8|2,3:2|2:2,0:0:0:0:
448,272,183025,1,0,0:0:0:0:
488,88,183219,5,2,3:2:0:0:
453,132,183316,1,0,2:2:0:0:
395,136,183412,1,0,2:2:0:0:
355,94,183509,2,1,P|309:60|253:64,1,115.2,2|0,2:2|2:2,0:0:0:0:
281,158,183799,1,2,2:2:0:0:
152,32,183993,5,4,3:2:0:0:
26,161,184187,1,2,2:2:0:0:
155,287,184380,1,8,3:2:0:0:
192,240,184477,2,1,P|221:237|249:245,1,57.6,2|0,2:2|0:0,0:0:0:0:
304,344,184670,1,0,2:2:0:0:
341,297,184767,2,1,P|370:300|398:292,1,57.6,2|0,3:2|0:0,0:0:0:0:
360,192,184961,5,0,2:2:0:0:
408,160,185058,2,1,L|472:168,2,57.6,2|8|0,2:2|3:2|2:2,0:0:0:0:
288,128,185348,1,2,2:2:0:0:
152,24,185541,5,0,3:3:0:0:
144,64,185638,1,8,2:2:0:0:
136,104,185735,1,2,2:2:0:0:
192,232,185928,5,0,3:3:0:0:
152,192,186025,2,1,P|124:184|95:187,1,57.6,2|8,2:2|2:2,0:0:0:0:
24,264,186219,1,8,2:2:0:0:
40,320,186316,5,0,3:3:0:0:
96,336,186412,1,2,3:2:0:0:
144,304,186509,1,8,2:2:0:0:
144,248,186606,2,1,P|117:298|124:363,1,115.2,10|8,2:2|2:2,0:0:0:0:
224,376,186896,1,2,3:2:0:0:
272,352,186993,1,8,2:2:0:0:
248,304,187090,5,4,3:2:0:0:
232,136,187283,1,10,2:2:0:0:
336,272,187477,5,0,2:2:0:0:
328,216,187574,1,10,2:2:0:0:
312,48,187767,5,0,2:2:0:0:
320,104,187864,1,10,2:2:0:0:
440,248,188058,5,4,2:3:0:0:
432,192,188154,2,1,L|440:128,1,57.6,10|8,2:2|2:2,0:0:0:0:
376,48,188348,5,0,3:3:0:0:
328,72,188445,1,2,3:2:0:0:
352,120,188541,1,4,3:2:0:0:
