osu file format v14

[General]
AudioFilename: 01. Sen -ikusa-.mp3
AudioLeadIn: 7850
PreviewTime: 54993
Countdown: 0
SampleSet: Soft
StackLeniency: 0.6
Mode: 0
LetterboxInBreaks: 0
WidescreenStoryboard: 1

[Editor]
Bookmarks: 9993,38157,56983,76422,77340,77646,77800,80019,81320,126172,130300,138417,165504,181728
DistanceSpacing: 0.9
BeatDivisor: 4
GridSize: 4
TimelineZoom: 1.4

[Metadata]
Title:Ikusa
TitleUnicode:Ikusa
Artist:Wagakki Band
ArtistUnicode:Wagakki Band
Creator:Atsuro
Version:Oni
Source:
Tags:Sengoku Musou opening pkhg [ AeonLust ] Wildcry Smokeman Coffee Hispanic Mocha Finals HR2
BeatmapID:3324532
BeatmapSetID:345860

[Difficulty]
HPDrainRate:6
CircleSize:4
OverallDifficulty:9
ApproachRate:9.6
SliderMultiplier:1.8
SliderTickRate:1

[Events]
//Background and Video events
0,0,"bg.png",0,0
//Break Periods
//Storyboard Layer 0 (Background)
//Storyboard Layer 1 (Fail)
//Storyboard Layer 2 (Pass)
//Storyboard Layer 3 (Foreground)
//Storyboard Layer 4 (Overlay)
//Storyboard Sound Samples

[TimingPoints]
810,306.122448979592,4,2,1,80,1,0
6626,-76.9230769230769,4,2,1,80,0,0
6932,-90.9090909090909,4,2,1,80,0,0
16728,-100,4,2,1,80,0,0
36320,-90.9090909090909,4,2,1,80,0,0
46116,-142.857142857143,4,2,2,55,0,0
54687,-100,4,2,1,70,0,0
55759,-83.3333333333333,4,2,1,85,0,1
65249,-83.3333333333333,4,2,1,55,0,1
65555,-83.3333333333333,4,2,1,85,0,1
74279,-76.9230769230769,4,2,1,85,0,1
75351,-83.3333333333333,4,2,1,85,0,1
75810,-83.3333333333333,4,2,1,70,0,1
76728,-83.3333333333333,4,2,1,85,0,1
77187,-76.9230769230769,4,2,1,85,0,1
77953,-71.4285714285714,4,2,1,85,0,1
80095,-100,4,2,1,85,0,0
80402,-90.9090909090909,4,2,1,85,0,1
80478,-80,4,2,1,80,0,0
81320,-90.9090909090909,4,2,1,80,0,0
90197,-100,4,2,1,80,0,0
109789,-71.4285714285714,4,2,1,90,0,1
111014,-142.857142857143,4,2,1,90,0,0
111626,-76.9230769230769,4,2,1,90,0,0
112238,-142.857142857143,4,2,1,90,0,0
112851,-76.9230769230769,4,2,1,90,0,0
113463,-142.857142857143,4,2,1,90,0,0
114075,-76.9230769230769,4,2,1,90,0,0
114687,-142.857142857143,4,2,1,90,0,0
115300,-76.9230769230769,4,2,1,90,0,0
115912,-142.857142857143,4,2,1,90,0,0
116524,-76.9230769230769,4,2,1,90,0,0
117136,-142.857142857143,4,2,1,90,0,0
117749,-76.9230769230769,4,2,1,90,0,0
118361,-142.857142857143,4,2,1,90,0,0
118973,-76.9230769230769,4,2,1,90,0,0
119432,-83.3333333333333,4,2,1,80,0,0
120504,-83.3333333333333,4,2,1,90,0,0
120810,-83.3333333333333,4,2,1,80,0,0
125708,-83.3333333333333,4,2,3,80,0,0
128157,-83.3333333333333,4,2,1,80,0,0
130606,-90.9090909090909,4,2,1,80,0,0
140402,-142.857142857143,4,2,2,70,0,0
147749,-142.857142857143,4,2,1,70,0,0
148973,-142.857142857143,4,2,0,20,0,0
149585,-142.857142857143,4,2,2,70,0,0
152646,-142.857142857143,4,2,1,70,0,0
155095,-142.857142857143,4,2,0,60,0,0
157315,-142.857142857143,4,2,0,20,0,0
157391,-83.3333333333334,4,2,1,85,0,1
166881,-83.3333333333334,4,2,1,60,0,1
167187,-83.3333333333334,4,2,1,85,0,1
172315,-83.3333333333334,4,2,1,70,0,1
172851,-83.3333333333334,4,2,1,85,0,1
173004,-83.3333333333334,4,2,1,70,0,1
173310,-83.3333333333334,4,2,1,85,0,1
173616,-83.3333333333334,4,2,1,60,0,1
174075,-83.3333333333334,4,2,1,65,0,1
174458,-83.3333333333334,4,2,1,85,0,0
174534,-76.9230769230769,4,2,1,85,0,1
195963,-76.9230769230769,4,2,1,85,0,1
196728,-71.4285714285714,4,2,1,85,0,1
198871,-100,4,2,1,85,0,0
199177,-100,4,2,1,85,0,1
199254,-100,4,2,1,85,0,0
210810,-83.3333333333333,4,2,1,85,0,0

[Colours]
Combo1 : 210,0,0
Combo2 : 119,38,38
Combo3 : 52,80,79
Combo4 : 183,98,21

[HitObjects]
168,128,810,5,0,0:0:0:0:
168,128,1116,1,0,0:0:0:0:
168,128,1422,1,0,0:0:0:0:
168,128,1728,1,0,0:0:0:0:
168,128,2034,6,0,P|160:184|152:228,1,90,2|0,0:0|0:0,0:0:0:0:
112,364,2340,1,2,0:0:0:0:
52,268,2493,1,0,0:0:0:0:
216,316,2646,2,0,P|272:308|316:300,1,90,2|0,0:0|0:0,0:0:0:0:
452,260,2953,1,2,0:0:0:0:
352,188,3106,1,0,0:0:0:0:
380,364,3259,6,0,P|436:356|480:348,1,90,2|0,0:0|0:0,0:0:0:0:
436,164,3565,1,2,0:0:0:0:
364,272,3719,1,0,0:0:0:0:
332,88,3871,2,0,P|376:80|420:74,1,90,2|0,0:0|0:0,0:0:0:0:
288,244,4177,2,0,P|243:237|199:229,1,90,2|0,0:0|0:0,0:0:0:0:
36,108,4483,21,8,0:0:0:0:
27,65,4559,1,0,0:0:0:0:
54,30,4636,1,0,0:0:0:0:
97,28,4712,1,0,0:0:0:0:
128,59,4789,2,0,P|152:100|156:112,1,45,2|0,0:0|0:0,0:0:0:0:
188,212,4942,1,8,0:0:0:0:
218,244,5018,1,0,0:0:0:0:
260,259,5095,1,0,0:0:0:0:
305,254,5172,1,0,0:0:0:0:
342,230,5249,2,0,P|364:208|376:176,1,45,2|0,0:0|0:0,0:0:0:0:
372,56,5402,5,8,0:0:0:0:
332,36,5478,1,0,0:0:0:0:
288,34,5555,1,0,0:0:0:0:
246,51,5631,1,0,0:0:0:0:
217,85,5708,1,2,0:0:0:0:
204,126,5784,1,0,0:0:0:0:
206,171,5860,1,8,0:0:0:0:
188,212,5937,1,0,0:0:0:0:
153,239,6013,1,0,0:0:0:0:
109,248,6090,1,0,0:0:0:0:
66,235,6167,2,0,P|40:212|24:180,1,45,2|0,0:0|0:0,0:0:0:0:
0,68,6320,1,8,0:0:0:0:
0,68,6626,6,0,B|33:71|33:71|33:63|33:63|61:71|61:71|61:63|61:63|89:71|89:71|89:63|89:63|117:71|117:71|117:63|117:63|145:67,1,175.499991966248,0|0,0:0|0:0,0:0:0:0:
216,78,6932,6,0,P|258:103|305:117,1,99.0000030212403,4|0,0:0|0:0,0:0:0:0:
503,84,7238,1,8,0:0:0:0:
295,28,7391,1,0,0:0:0:0:
364,179,7544,1,2,0:0:0:0:
415,0,7697,1,2,0:0:0:0:
341,257,7851,2,0,P|349:305|368:351,1,99.0000030212403,8|0,0:0|0:0,0:0:0:0:
287,155,8157,5,2,0:0:0:0:
236,334,8310,1,2,0:0:0:0:
466,207,8463,2,0,P|485:161|493:112,1,99.0000030212403,8|0,0:0|0:0,0:0:0:0:
261,244,8769,1,2,0:0:0:0:
261,244,8845,1,0,0:0:0:0:
261,244,8922,1,2,0:0:0:0:
313,66,9075,1,8,0:0:0:0:
350,270,9228,1,0,0:0:0:0:
133,110,9381,6,0,L|35:92,1,99.0000030212403,2|2,0:0|0:0,0:0:0:0:
247,29,9687,1,8,0:0:0:0:
118,205,9840,1,0,0:0:0:0:
118,205,9917,1,0,0:0:0:0:
118,205,9993,2,0,L|215:187,1,99.0000030212403,2|2,0:0|0:0,0:0:0:0:
458,353,10300,2,0,L|360:335,1,99.0000030212403,8|0,0:0|0:0,0:0:0:0:
137,285,10606,5,2,0:0:0:0:
215,187,10759,1,2,0:0:0:0:
14,267,10912,1,8,0:0:0:0:
178,368,11065,1,0,0:0:0:0:
178,368,11141,1,8,0:0:0:0:
178,368,11218,2,0,B|203:359|224:376|224:376|250:361|273:371|273:371|276:346|302:331|302:331|298:304|317:288,1,198.000006042481,2|8,0:0|0:0,0:0:0:0:
210,260,11677,1,0,0:0:0:0:
375,48,11830,6,0,L|392:145,1,99.0000030212403,4|0,0:0|0:0,0:0:0:0:
427,344,12136,1,8,0:0:0:0:
499,201,12289,1,0,0:0:0:0:
499,201,12366,1,8,0:0:0:0:
499,201,12442,1,2,0:0:0:0:
316,237,12595,1,2,0:0:0:0:
375,48,12749,6,0,L|392:145,1,99.0000030212403,8|0,0:0|0:0,0:0:0:0:
307,252,13055,1,2,0:0:0:0:
506,213,13208,1,2,0:0:0:0:
370,19,13361,6,0,L|387:116,1,99.0000030212403,8|0,0:0|0:0,0:0:0:0:
416,259,13590,1,8,0:0:0:0:
422,290,13667,1,2,0:0:0:0:
485,99,13820,1,0,0:0:0:0:
290,141,13973,1,8,0:0:0:0:
508,92,14126,1,0,0:0:0:0:
307,252,14279,6,0,P|261:232|220:203,1,99.0000030212403,2|2,0:0|0:0,0:0:0:0:
73,58,14585,2,0,P|118:76|158:105,1,99.0000030212403,8|0,0:0|0:0,0:0:0:0:
155,256,14815,1,8,0:0:0:0:
129,273,14891,2,0,P|81:286|32:288,1,99.0000030212403,2|0,0:0|0:0,0:0:0:0:
251,152,15197,2,0,P|199:197|232:257,1,148.50000453186,8|0,0:0|0:0,0:0:0:0:
355,215,15504,5,2,0:0:0:0:
336,199,15580,1,0,0:0:0:0:
313,205,15657,1,2,0:0:0:0:
304,228,15733,1,0,0:0:0:0:
318,248,15810,2,0,L|324:298,1,49.5000015106202,8|0,0:0|0:0,0:0:0:0:
464,289,15963,1,0,0:0:0:0:
473,312,16039,1,8,0:0:0:0:
460,332,16116,2,0,L|454:382,1,49.5000015106202,2|0,0:0|0:0,0:0:0:0:
312,198,16269,2,0,L|318:248,1,49.5000015106202,2|0,0:0|0:0,0:0:0:0:
488,135,16422,2,0,L|482:185,1,49.5000015106202,2|0,0:0|0:0,0:0:0:0:
292,38,16575,2,0,L|298:88,1,49.5000015106202,8|0,0:0|0:0,0:0:0:0:
383,259,16728,6,0,P|388:181|311:198,1,180,4|8,0:0|0:0,0:0:0:0:
384,339,17187,1,0,0:0:0:0:
467,229,17340,2,0,P|423:238|383:258,1,90,2|2,0:0|0:0,0:0:0:0:
256,354,17646,1,8,0:0:0:0:
314,234,17800,1,0,0:0:0:0:
179,373,17953,6,0,P|135:364|95:343,1,90,2|2,0:0|0:0,0:0:0:0:
244,275,18259,1,8,0:0:0:0:
60,215,18412,2,0,P|46:173|44:128,1,90,2|0,0:0|0:0,0:0:0:0:
214,99,18718,2,0,P|184:132|146:156,1,90,2|8,0:0|0:0,0:0:0:0:
36,24,19024,1,0,0:0:0:0:
60,215,19177,5,2,0:0:0:0:
60,215,19330,1,0,0:0:0:0:
237,289,19483,2,0,L|333:271,1,90,8|0,0:0|0:0,0:0:0:0:
439,145,19789,1,2,0:0:0:0:
267,206,19942,1,2,0:0:0:0:
406,325,20095,1,8,0:0:0:0:
422,235,20249,1,0,0:0:0:0:
182,193,20402,6,0,P|139:206|101:231,1,90,2|0,0:0|0:0,0:0:0:0:
342,117,20708,2,0,P|368:79|386:29,1,90,8|0,0:0|0:0,0:0:0:0:
135,304,21014,2,0,P|177:290|215:265,1,90,2|2,0:0|0:0,0:0:0:0:
311,0,21320,2,0,P|285:38|267:88,1,90,8|0,0:0|0:0,0:0:0:0:
341,281,21550,1,0,0:0:0:0:
340,252,21626,6,0,P|288:209|224:188,1,135,4|0,0:0|0:0,0:0:0:0:
199,113,21932,2,0,L|97:130,1,90,8|0,0:0|0:0,0:0:0:0:
139,45,22238,1,2,0:0:0:0:
81,211,22391,1,2,0:0:0:0:
27,99,22544,1,8,0:0:0:0:
114,285,22697,6,0,L|96:386,1,90,0|2,0:0|0:0,0:0:0:0:
141,157,23004,1,0,0:0:0:0:
195,269,23157,1,8,0:0:0:0:
367,240,23310,2,0,L|468:222,1,90,0|2,0:0|0:0,0:0:0:0:
293,322,23616,1,2,0:0:0:0:
350,140,23769,2,0,P|309:155|279:188,1,90,8|0,0:0|0:0,0:0:0:0:
33,264,24075,5,2,0:0:0:0:
58,173,24228,1,0,0:0:0:0:
158,338,24381,1,8,0:0:0:0:
158,338,24534,1,0,0:0:0:0:
77,169,24687,1,2,0:0:0:0:
52,260,24840,1,2,0:0:0:0:
0,19,24993,1,8,0:0:0:0:
25,110,25146,1,0,0:0:0:0:
294,231,25300,6,0,P|323:190|268:145,1,135,4|0,0:0|0:0,0:0:0:0:
235,299,25606,1,8,0:0:0:0:
196,123,25759,1,2,0:1:0:0:
191,103,25835,1,2,0:1:0:0:
186,83,25912,1,0,0:0:0:0:
151,313,26065,1,2,0:0:0:0:
381,348,26218,1,8,0:0:0:0:
416,118,26371,1,8,0:0:0:0:
406,136,26448,1,8,0:0:0:0:
396,154,26524,6,0,P|393:210|474:194,1,135,4|0,0:0|0:0,0:0:0:0:
306,170,26830,2,0,L|209:187,1,90,8|0,0:0|0:0,0:0:0:0:
96,98,27136,1,2,0:0:0:0:
217,262,27289,2,0,L|305:277,1,90,2|8,0:0|0:0,0:0:0:0:
72,177,27595,6,0,P|157:153|173:66,1,180,0|0,0:0|0:0,0:0:0:0:
95,309,28055,2,0,L|67:155,1,135,8|0,0:0|0:0,0:0:0:0:
56,99,28361,1,2,0:0:0:0:
10,296,28514,1,2,0:0:0:0:
138,120,28667,2,0,L|226:135,1,90,8|0,0:0|0:0,0:0:0:0:
494,19,28973,6,0,B|410:34|410:34|442:42|465:73,1,135,2|0,0:0|0:0,0:0:0:0:
492,133,29279,1,8,0:0:0:0:
329,47,29432,1,0,0:0:0:0:
470,208,29585,1,2,0:0:0:0:
260,249,29738,2,0,P|202:236|163:219,1,90,2|8,0:0|0:0,0:0:0:0:
369,250,30044,1,0,0:0:0:0:
80,167,30197,5,2,0:0:0:0:
80,167,30351,1,0,0:0:0:0:
171,350,30504,2,0,P|229:337|268:320,1,90,8|0,0:0|0:0,0:0:0:0:
257,325,30733,1,0,0:0:0:0:
257,325,30810,1,2,0:0:0:0:
316,188,30963,1,2,0:0:0:0:
364,360,31116,1,8,0:0:0:0:
224,124,31269,1,0,0:0:0:0:
218,143,31345,1,0,0:0:0:0:
212,162,31422,6,0,P|153:151|172:94,1,135,4|0,0:0|0:0,0:0:0:0:
189,245,31728,1,8,0:0:0:0:
172,18,31881,1,0,0:0:0:0:
108,214,32034,1,2,0:0:0:0:
108,214,32187,1,2,0:0:0:0:
253,49,32340,1,8,0:0:0:0:
432,152,32493,6,0,B|345:119|345:190|258:152,1,180,0|0,0:0|0:0,0:0:0:0:
496,204,32953,2,0,P|498:260|412:261,1,135,8|0,0:0|0:0,0:0:0:0:
265,310,33259,2,0,L|353:294,1,90,2|2,0:0|0:0,0:0:0:0:
187,364,33565,2,0,L|98:348,1,90,8|0,0:0|0:0,0:0:0:0:
53,120,33871,5,2,0:0:0:0:
53,120,34024,1,2,0:0:0:0:
16,327,34177,1,8,0:0:0:0:
228,177,34330,1,0,0:0:0:0:
30,248,34483,1,2,0:0:0:0:
67,41,34636,1,2,0:0:0:0:
67,41,34713,1,0,0:0:0:0:
67,41,34789,1,8,0:0:0:0:
129,212,34942,1,0,0:0:0:0:
377,197,35095,6,0,L|314:186,1,45,8|8,0:0|0:0,0:0:0:0:
228,177,35249,1,2,0:0:0:0:
228,177,35402,1,2,0:0:0:0:
139,300,35555,2,0,L|202:289,1,45,8|8,0:0|0:0,0:0:0:0:
288,280,35709,1,2,0:0:0:0:
288,280,35862,1,2,0:0:0:0:
243,59,36014,2,0,L|232:122,1,45,8|8,0:0|0:0,0:0:0:0:
223,208,36168,1,2,0:0:0:0:
425,92,36320,5,8,0:0:0:0:
364,81,36396,1,0,3:0:0:0:
304,70,36473,1,0,3:0:0:0:
243,59,36549,1,0,3:0:0:0:
182,49,36626,1,8,0:0:0:0:
62,29,36932,1,8,0:0:0:0:
122,38,37009,1,0,0:0:0:0:
182,49,37085,2,0,L|190:97,1,49.5000015106202,0|2,3:0|0:1,0:0:0:0:
213,224,37238,2,0,L|221:272,1,49.5000015106202,2|2,0:1|0:1,0:0:0:0:
17,189,37391,6,0,L|211:223,1,198.000006042481,8|0,0:0|0:0,0:0:0:0:
429,22,37851,2,0,L|331:39,1,99.0000030212403,2|0,0:0|0:0,0:0:0:0:
90,338,38157,2,0,L|98:289,1,49.5000015106202,8|0,0:0|0:0,0:0:0:0:
203,174,38310,2,0,L|212:223,1,49.5000015106202,2|0,0:0|0:0,0:0:0:0:
227,315,38463,1,8,0:0:0:0:
188,86,38616,1,0,0:0:0:0:
464,130,38769,5,8,0:0:0:0:
453,189,38845,1,0,3:0:0:0:
442,249,38922,1,0,3:0:0:0:
431,310,38998,1,0,3:0:0:0:
421,370,39075,1,8,0:0:0:0:
464,130,39381,1,8,0:0:0:0:
421,370,39534,2,0,L|438:272,1,99.0000030212403,2|0,0:0|0:0,0:0:0:0:
255,66,39840,2,0,L|280:212,1,148.50000453186,2|0,0:0|0:0,0:0:0:0:
280,212,40146,1,2,0:0:0:0:
95,365,40300,5,8,0:0:0:0:
103,319,40376,1,0,0:0:0:0:
111,272,40453,1,0,0:0:0:0:
120,226,40529,1,0,0:0:0:0:
162,192,40606,1,2,0:0:0:0:
155,157,40682,1,0,0:0:0:0:
150,122,40759,1,2,0:0:0:0:
143,88,40835,1,0,0:0:0:0:
105,49,40912,2,0,L|113:0,3,49.5000015106202,8|0|2|0,0:0|0:0|0:0|0:0,0:0:0:0:
96,109,41218,5,8,0:0:0:0:
156,100,41295,1,0,3:0:0:0:
216,89,41371,1,0,3:0:0:0:
277,78,41448,1,0,3:0:0:0:
337,67,41524,1,8,0:0:0:0:
458,47,41830,1,8,0:0:0:0:
216,89,41983,2,0,L|118:106,1,99.0000030212403,2|0,0:0|0:0,0:0:0:0:
377,299,42289,6,0,L|352:153,1,148.50000453186,8|0,0:0|0:0,0:0:0:0:
350,133,42596,1,2,0:0:0:0:
374,137,42672,1,0,0:0:0:0:
398,141,42749,1,8,0:0:0:0:
423,145,42825,1,8,0:0:0:0:
447,149,42902,1,2,0:0:0:0:
471,153,42978,1,0,0:0:0:0:
496,158,43055,2,0,L|484:221,1,49.5000015106202,8|0,0:0|0:0,0:0:0:0:
385,347,43208,2,0,L|376:298,1,49.5000015106202,2|0,0:0|0:0,0:0:0:0:
160,261,43361,2,0,L|257:277,1,99.0000030212403,2|0,0:0|0:0,0:0:0:0:
48,85,43667,5,8,0:0:0:0:
57,144,43743,1,0,3:0:0:0:
68,204,43820,1,0,3:0:0:0:
79,265,43896,1,0,3:0:0:0:
89,325,43973,1,8,0:0:0:0:
48,85,44279,1,8,0:0:0:0:
89,325,44432,2,0,L|73:228,1,99.0000030212403,2|2,0:0|0:0,0:0:0:0:
408,264,44738,6,0,L|261:239,1,148.50000453186,8|0,0:0|0:0,0:0:0:0:
261,239,45044,1,2,0:0:0:0:
489,81,45197,1,8,0:0:0:0:
440,89,45273,1,0,0:0:0:0:
391,97,45350,1,0,0:0:0:0:
342,105,45426,1,0,0:0:0:0:
306,148,45504,1,2,0:0:0:0:
269,141,45580,1,0,0:0:0:0:
232,135,45657,1,0,0:0:0:0:
195,129,45733,1,0,0:0:0:0:
168,104,45810,1,2,0:0:0:0:
140,109,45886,1,0,0:0:0:0:
112,113,45963,1,0,0:0:0:0:
85,119,46039,1,0,0:0:0:0:
47,157,46116,6,0,P|126:158|140:15,1,251.999992309571,4|0,0:0|0:0,0:0:0:0:
88,82,47034,1,0,0:0:0:0:
129,274,47340,6,0,B|255:231|255:311|376:274,1,251.999992309571,2|0,0:0|0:0,0:0:0:0:
256,356,48259,1,0,0:0:0:0:
171,191,48565,6,0,P|255:155|340:191,2,188.999994232178,2|0|0,0:0|0:0|0:0,0:0:0:0:
298,266,49789,2,0,P|255:227|212:266,1,125.999996154785,2|0,0:0|0:0,0:0:0:0:
256,352,50402,1,0,0:0:0:0:
256,192,50708,1,0,0:0:0:0:
411,320,51014,22,0,P|455:275|464:214,1,125.999996154785,2|0,0:0|0:0,0:0:0:0:
256,32,51626,1,0,0:0:0:0:
256,192,51932,1,0,0:0:0:0:
41,154,52238,22,0,P|52:93|96:49,1,125.999996154785,2|0,0:0|0:0,0:0:0:0:
256,364,52851,1,0,0:0:0:0:
256,20,53157,1,0,0:0:0:0:
427,284,53463,6,0,B|370:253|370:253|304:262|304:262|256:293|256:293|207:262|207:262|141:253|141:253|84:284,1,377.999988464356,2|0,0:0|0:0,0:0:0:0:
44,344,54687,5,2,0:0:0:0:
64,324,54764,1,2,0:0:0:0:
84,304,54840,2,0,L|74:248,1,45,2|2,0:1|0:1,0:0:0:0:
204,216,54993,1,2,0:0:0:0:
184,196,55070,1,2,0:0:0:0:
164,176,55146,2,0,L|173:120,1,45,2|2,0:1|0:1,0:0:0:0:
196,8,55300,1,8,0:0:0:0:
143,280,55453,1,8,0:0:0:0:
143,280,55759,6,0,B|199:264|256:306|256:306|296:337|347:324,1,215.999993408203,4|2,0:0|0:0,0:0:0:0:
471,143,56218,2,0,P|394:137|391:207,1,161.999995056153,8|0,0:0|0:0,0:0:0:0:
471,229,56524,1,2,0:0:0:0:
422,32,56677,1,2,0:0:0:0:
253,145,56830,2,0,L|130:166,1,107.999996704102,8|0,0:0|0:0,0:0:0:0:
14,106,57136,5,2,0:0:0:0:
160,240,57289,1,0,0:0:0:0:
28,30,57442,1,8,0:0:0:0:
7,189,57595,1,0,0:0:0:0:
7,189,57672,1,0,0:0:0:0:
7,189,57749,1,2,0:0:0:0:
104,316,57902,1,2,0:0:0:0:
256,124,58055,1,8,0:0:0:0:
408,316,58208,6,0,P|348:316|340:228,1,161.999995056153,4|0,0:0|0:0,0:0:0:0:
433,221,58514,1,2,0:0:0:0:
210,334,58667,2,0,L|87:313,1,107.999996704102,8|0,0:0|0:0,0:0:0:0:
36,64,58973,1,2,0:0:0:0:
0,174,59126,2,0,L|106:155,1,107.999996704102,2|8,0:0|0:0,0:0:0:0:
436,97,59432,6,0,B|317:118|317:118|301:61|354:23,1,215.999993408203,4|2,0:0|0:0,0:0:0:0:
436,287,59891,2,0,B|329:268,1,107.999996704102,8|0,0:0|0:0,0:0:0:0:
116,229,60197,1,2,0:0:0:0:
310,374,60351,1,2,0:0:0:0:
85,223,60504,1,8,0:0:0:0:
348,162,60657,6,0,B|408:152|441:90|404:37|404:37|432:37|451:54,1,215.999993408203,4|2,0:0|0:0,0:0:0:0:
360,312,61116,2,0,P|282:291|205:312,1,161.999995056153,8|0,0:0|0:0,0:0:0:0:
131,375,61422,1,2,0:0:0:0:
283,215,61575,1,2,0:0:0:0:
64,316,61728,2,0,P|24:292|0:236,1,107.999996704102,8|0,0:0|0:0,0:0:0:0:
109,14,62034,5,2,0:0:0:0:
93,226,62187,1,2,0:0:0:0:
219,42,62340,1,8,0:0:0:0:
26,134,62493,1,0,0:0:0:0:
26,134,62570,1,0,0:0:0:0:
26,134,62646,1,2,0:0:0:0:
9,347,62800,1,0,0:0:0:0:
101,95,62953,1,8,0:0:0:0:
353,187,63106,6,0,B|373:295|373:295|403:290|430:262,1,161.999995056153,4|0,0:0|0:0,0:0:0:0:
434,196,63412,1,2,0:0:0:0:
310,379,63565,2,0,B|291:272,1,107.999996704102,8|0,0:0|0:0,0:0:0:0:
261,77,63871,1,2,0:0:0:0:
138,213,64024,2,0,P|184:208|229:167,1,107.999996704102,2|8,0:0|0:0,0:0:0:0:
5,327,64330,6,0,P|71:288|138:327,1,161.999995056153,4|0,0:0|0:0,0:0:0:0:
71,364,64636,1,2,0:0:0:0:
0,182,64789,2,0,L|18:75,1,107.999996704102,8|0,0:0|0:0,0:0:0:0:
324,22,65095,2,0,L|253:34,1,53.9999983520508,2|0,0:0|0:0,0:0:0:0:
95,62,65249,1,8,0:0:0:0:
126,102,65325,1,8,0:0:0:0:
176,93,65402,1,8,0:0:0:0:
191,44,65478,1,8,0:0:0:0:
153,8,65555,6,0,P|129:114|221:182,1,215.999993408203,4|2,0:0|0:0,0:0:0:0:
439,136,66014,2,0,L|257:167,1,161.999995056153,8|0,0:0|0:0,0:0:0:0:
200,179,66320,1,2,0:0:0:0:
345,73,66473,1,2,0:0:0:0:
182,258,66626,2,0,L|61:236,1,107.999996704102,8|0,0:0|0:0,0:0:0:0:
30,138,66932,5,2,0:0:0:0:
113,323,67085,1,2,0:0:0:0:
158,53,67238,1,8,0:0:0:0:
75,238,67391,1,0,0:0:0:0:
75,238,67468,1,0,0:0:0:0:
75,238,67544,1,2,0:0:0:0:
256,72,67697,1,2,0:0:0:0:
437,238,67851,1,8,0:0:0:0:
185,126,68004,6,0,P|255:159|326:126,1,161.999995056153,4|0,0:0|0:0,0:0:0:0:
360,53,68310,1,2,0:0:0:0:
166,213,68463,2,0,L|145:330,1,107.999996704102,8|0,0:0|0:0,0:0:0:0:
15,243,68769,1,2,0:0:0:0:
227,362,68922,2,0,P|279:356|316:318,1,107.999996704102,2|8,0:0|0:0,0:0:0:0:
446,48,69228,6,0,P|370:41|362:114,1,161.999995056153,4|0,0:0|0:0,0:0:0:0:
438,129,69534,1,2,0:0:0:0:
267,80,69687,1,8,0:0:0:0:
466,136,69840,1,0,0:0:0:0:
318,280,69994,1,2,0:0:0:0:
277,250,70069,1,2,0:0:0:0:
234,238,70146,1,8,0:0:0:0:
189,242,70222,1,2,0:0:0:0:
150,261,70299,1,8,0:0:0:0:
105,260,70376,1,8,0:0:0:0:
66,238,70453,6,0,B|45:123|45:123|76:126|92:138,1,161.999995056153,4|0,0:0|0:0,0:0:0:0:
136,200,70759,1,2,0:0:0:0:
186,11,70912,2,0,B|165:125|165:125|196:122|212:110,1,161.999995056153,8|0,0:0|0:0,0:0:0:0:
256,49,71218,1,2,0:0:0:0:
136,200,71371,1,2,0:0:0:0:
400,141,71524,1,8,0:0:0:0:
209,112,71677,1,0,0:0:0:0:
371,332,71830,6,0,L|477:350,1,107.999996704102,2|0,0:0|0:0,0:0:0:0:
293,245,72175,2,0,L|186:263,1,107.999996704102,8|0,0:0|0:0,0:0:0:0:
23,208,72442,1,2,0:0:0:0:
199,339,72595,1,2,0:0:0:0:
225,122,72749,1,8,0:0:0:0:
111,274,72902,1,0,0:0:0:0:
8,100,73055,6,0,P|14:23|94:37,1,161.999995056153,2|0,0:0|0:0,0:0:0:0:
204,132,73361,2,0,L|97:113,1,107.999996704102,8|0,0:0|0:0,0:0:0:0:
256,45,73667,1,2,0:0:0:0:
256,45,73820,1,2,0:0:0:0:
383,193,73973,2,0,L|489:174,1,107.999996704102,8|0,0:0|0:0,0:0:0:0:
257,6,74279,5,4,1:0:0:0:
197,287,74432,1,2,0:0:0:0:
149,26,74585,1,4,1:0:0:0:
305,267,74738,1,2,0:0:0:0:
18,281,74891,1,8,0:0:0:0:
254,113,75044,1,2,0:1:0:0:
266,120,75121,1,2,0:1:0:0:
278,127,75197,1,2,0:1:0:0:
290,134,75274,1,2,0:1:0:0:
302,141,75351,2,0,P|348:138|396:35,1,161.999995056153,4|0,0:0|0:0,0:0:0:0:
300,40,75657,5,2,0:0:0:0:
323,261,75810,1,2,0:0:0:0:
450,128,75963,1,2,0:0:0:0:
247,218,76116,1,2,0:0:0:0:
439,209,76269,1,2,0:0:0:0:
235,90,76422,1,2,0:0:0:0:
235,328,76575,1,8,0:0:0:0:
367,99,76728,5,2,0:0:0:0:
159,372,76881,1,2,0:0:0:0:
103,99,77034,1,2,0:0:0:0:
309,371,77187,1,2,0:1:0:0:
354,384,77263,1,2,0:1:0:0:
396,365,77340,1,2,0:1:0:0:
418,325,77416,1,2,0:1:0:0:
409,280,77493,1,2,0:1:0:0:
375,250,77569,1,2,0:1:0:0:
337,222,77646,1,2,0:1:0:0:
318,180,77723,1,2,0:1:0:0:
319,134,77799,1,2,0:1:0:0:
343,94,77876,1,2,0:1:0:0:
382,69,77953,6,0,P|415:165|318:134,1,251.999992309571,4|0,0:0|0:0,0:0:0:0:
79,98,78412,2,0,B|176:54|176:115|240:115|240:115|250:73|293:58,1,251.999992309571,4|0,0:0|0:0,0:0:0:0:
18,184,78871,2,0,B|65:198|84:234|84:234|127:278|184:236|178:181|137:160,1,251.999992309571,4|0,0:0|0:0,0:0:0:0:
70,370,79330,2,0,B|103:323|103:323|158:330|199:303|220:268|220:268|277:268,1,251.999992309571,4|0,0:0|0:0,0:0:0:0:
461,361,79789,1,8,0:0:0:0:
246,130,79942,1,8,0:0:0:0:
277,273,80095,2,0,L|284:304,3,30,0|0|0|0,0:0|0:0|0:0|0:0,0:0:0:0:
54,181,80402,6,0,P|124:182|165:248,1,135,4|0,0:0|0:0,0:0:0:0:
86,253,80708,2,0,B|121:208|121:208|131:154|131:154|167:109,1,168.75,8|0,0:0|0:0,0:0:0:0:
246,130,81014,1,2,0:0:0:0:
71,100,81167,1,2,0:0:0:0:
263,209,81320,2,0,P|314:192|364:160,1,99.0000030212403,8|0,0:0|0:0,0:0:0:0:
177,61,81626,5,2,0:0:0:0:
352,31,81779,1,2,0:0:0:0:
160,140,81932,2,0,P|109:123|59:91,1,99.0000030212403,8|0,0:0|0:0,0:0:0:0:
35,31,82162,1,0,0:0:0:0:
35,31,82238,1,2,0:0:0:0:
66,234,82391,1,0,0:0:0:0:
177,61,82544,2,0,P|219:36|266:20,1,99.0000030212403,8|0,0:0|0:0,0:0:0:0:
439,200,82851,5,4,0:0:0:0:
290,99,83004,1,0,0:0:0:0:
451,20,83157,1,8,0:0:0:0:
393,106,83310,1,0,0:0:0:0:
393,106,83386,1,8,0:0:0:0:
393,106,83463,1,2,0:0:0:0:
439,200,83616,1,2,0:0:0:0:
278,279,83769,1,8,0:0:0:0:
427,380,83922,1,0,0:0:0:0:
292,203,84075,6,0,B|238:195|211:238|211:238|193:264|163:264,1,148.50000453186,2|0,0:0|0:0,0:0:0:0:
95,223,84381,2,0,L|77:125,1,99.0000030212403,8|0,0:0|0:0,0:0:0:0:
148,361,84687,1,2,0:0:0:0:
152,336,84763,1,0,0:0:0:0:
156,312,84840,1,0,0:0:0:0:
160,287,84916,1,0,0:0:0:0:
165,263,84993,1,8,0:0:0:0:
51,357,85146,1,0,0:0:0:0:
262,267,85300,6,0,B|276:184|276:184|299:163|339:151,1,148.50000453186,4|0,0:0|0:0,0:0:0:0:
344,232,85606,1,8,0:0:0:0:
378,37,85759,1,0,0:0:0:0:
458,151,85912,1,2,0:0:0:0:
458,151,86065,1,2,0:0:0:0:
263,117,86218,2,0,B|201:118|201:177|133:177,1,148.50000453186,8|0,0:0|0:0,0:0:0:0:
138,94,86524,5,2,0:0:0:0:
264,199,86677,1,2,0:0:0:0:
66,135,86830,2,0,P|46:69|50:27,1,99.0000030212403,8|0,0:0|0:0,0:0:0:0:
48,282,87136,1,2,0:0:0:0:
61,261,87212,1,0,0:0:0:0:
79,243,87289,1,2,0:0:0:0:
99,229,87365,1,0,0:0:0:0:
121,218,87442,2,0,L|237:238,1,99.0000030212403,8|0,0:0|0:0,0:0:0:0:
448,170,87749,5,2,0:0:0:0:
297,243,87902,1,2,0:0:0:0:
215,66,88055,1,8,0:0:0:0:
366,139,88208,1,0,0:0:0:0:
406,366,88361,2,0,L|377:203,1,148.50000453186,2|0,0:0|0:0,0:0:0:0:
366,139,88667,2,0,P|386:80|415:51,1,99.0000030212403,8|0,0:0|0:0,0:0:0:0:
146,245,88973,6,0,P|126:304|97:333,1,99.0000030212403,2|0,0:0|0:0,0:0:0:0:
36,296,89203,1,0,0:0:0:0:
29,280,89279,1,8,0:0:0:0:
10,263,89355,1,0,0:0:0:0:
7,239,89432,1,0,0:0:0:0:
20,219,89508,1,0,0:0:0:0:
58,190,89585,2,0,P|49:150|39:139,1,49.5000015106202,2|0,0:0|0:0,0:0:0:0:
159,27,89738,1,2,0:0:0:0:
138,22,89815,1,0,0:0:0:0:
125,34,89891,2,0,L|115:88,1,49.5000015106202,2|0,0:0|0:0,0:0:0:0:
224,154,90044,2,0,L|232:202,1,49.5000015106202,2|0,0:0|0:0,0:0:0:0:
77,305,90197,5,4,0:0:0:0:
247,277,90351,2,0,L|335:261,1,90,0|8,0:0|0:0,0:0:0:0:
139,141,90657,1,0,0:0:0:0:
309,169,90809,1,2,0:0:0:0:
125,219,90963,1,2,0:0:0:0:
326,90,91116,2,0,L|342:2,1,90,8|0,0:0|0:0,0:0:0:0:
292,248,91422,5,2,0:0:0:0:
433,361,91575,1,2,0:0:0:0:
309,169,91728,1,8,0:0:0:0:
275,327,91881,2,0,P|319:324|355:298,1,90,2|0,0:0|0:0,0:0:0:0:
326,90,92187,1,2,0:0:0:0:
292,248,92340,1,8,0:0:0:0:
134,214,92493,1,0,0:0:0:0:
168,56,92646,5,4,0:0:0:0:
56,233,92800,2,0,P|77:271|116:292,1,90,0|8,0:0|0:0,0:0:0:0:
158,40,93106,1,0,0:0:0:0:
46,217,93259,1,2,0:0:0:0:
13,72,93412,1,2,0:0:0:0:
190,184,93565,2,0,P|234:185|272:163,1,90,8|0,0:0|0:0,0:0:0:0:
489,251,93871,5,2,0:0:0:0:
347,193,94024,1,2,0:0:0:0:
468,99,94177,1,8,0:0:0:0:
434,181,94330,1,2,0:0:0:0:
434,181,94407,1,0,0:0:0:0:
434,180,94483,1,0,0:0:0:0:
380,111,94636,1,2,0:0:0:0:
255,280,94789,2,0,L|270:370,1,90,8|0,0:0|0:0,0:0:0:0:
163,241,95019,1,0,0:0:0:0:
163,241,95095,6,0,L|178:152,1,90,2|0,0:0|0:0,0:0:0:0:
15,40,95402,1,8,0:0:0:0:
193,72,95555,1,0,0:0:0:0:
88,145,95708,1,2,0:0:0:0:
88,145,95861,1,0,0:0:0:0:
297,145,96014,2,0,P|345:132|385:102,1,90,8|0,0:0|0:0,0:0:0:0:
296,36,96320,5,2,0:0:0:0:
376,202,96473,1,2,0:0:0:0:
505,17,96626,2,0,P|457:30|417:60,1,90,8|0,0:0|0:0,0:0:0:0:
295,232,96932,1,2,0:0:0:0:
428,126,97085,1,2,0:0:0:0:
298,304,97238,2,0,P|238:279|222:216,1,135,8|0,0:0|0:0,0:0:0:0:
134,231,97544,6,0,L|237:212,1,90,4|0,0:0|0:0,0:0:0:0:
50,246,97851,1,8,0:0:0:0:
50,246,98004,1,0,0:0:0:0:
137,112,98157,2,0,L|33:93,1,90,2|2,0:0|0:0,0:0:0:0:
221,127,98464,1,8,0:0:0:0:
17,23,98616,1,0,0:0:0:0:
17,23,98692,1,0,0:0:0:0:
17,23,98769,5,2,0:0:0:0:
166,192,98922,1,2,0:0:0:0:
331,158,99075,2,0,L|346:69,1,90,8|0,0:0|0:0,0:0:0:0:
92,220,99381,1,2,0:1:0:0:
118,255,99457,1,2,0:1:0:0:
160,270,99534,1,2,0:1:0:0:
203,261,99610,1,2,0:1:0:0:
235,229,99687,1,2,0:0:0:0:
244,186,99763,1,8,0:0:0:0:
229,144,99840,1,2,0:0:0:0:
193,118,99916,1,8,0:0:0:0:
149,114,99993,6,0,B|163:199|163:199|138:208|113:239,1,135,4|0,0:0|0:0,0:0:0:0:
190,277,100300,1,8,0:0:0:0:
336,160,100453,1,0,0:0:0:0:
364,344,100606,1,2,0:0:0:0:
296,260,100759,1,2,0:0:0:0:
296,260,100835,1,0,0:0:0:0:
296,260,100912,1,8,0:0:0:0:
376,60,101065,1,0,0:0:0:0:
167,153,101218,6,0,P|232:145|234:76,1,135,2|0,0:0|0:0,0:0:0:0:
111,208,101524,2,0,L|128:305,1,90,8|0,0:0|0:0,0:0:0:0:
142,309,101754,1,8,0:0:0:0:
157,321,101830,1,0,0:0:0:0:
22,223,101983,1,2,0:0:0:0:
245,305,102136,2,0,B|308:305|308:254|366:254,1,135,8|0,0:0|0:0,0:0:0:0:
512,234,102442,6,0,P|455:254|442:196,1,135,2|0,0:0|0:0,0:0:0:0:
509,156,102749,1,8,0:0:0:0:
373,286,102902,1,0,0:0:0:0:
397,39,103055,1,2,0:0:0:0:
441,221,103208,1,2,0:0:0:0:
262,169,103361,1,8,0:0:0:0:
127,298,103514,1,0,0:0:0:0:
127,298,103590,1,0,0:0:0:0:
127,298,103667,6,0,L|109:196,1,90,2|0,0:0|0:0,0:0:0:0:
296,2,103973,2,0,L|280:90,1,90,8|0,0:0|0:0,0:0:0:0:
199,118,104203,1,8,0:0:0:0:
199,118,104279,2,0,P|235:92|280:89,1,90,2|2,0:0|0:0,0:0:0:0:
508,288,104585,2,0,P|443:275|410:218,1,135,8|0,0:0|0:0,0:0:0:0:
434,86,104891,6,0,L|410:218,1,135,4|0,0:0|0:0,0:0:0:0:
337,258,105197,1,8,0:0:0:0:
502,167,105351,1,0,0:0:0:0:
258,108,105504,1,2,0:0:0:0:
409,218,105658,1,2,0:0:0:0:
244,309,105810,1,8,0:0:0:0:
219,37,105963,1,0,0:0:0:0:
219,37,106039,1,0,0:0:0:0:
219,37,106116,6,0,P|184:73|177:123,1,90,2|0,0:0|0:0,0:0:0:0:
325,311,106422,2,0,P|313:267|281:237,1,90,8|0,0:0|0:0,0:0:0:0:
155,324,106652,1,8,0:0:0:0:
155,324,106728,2,0,L|243:308,1,90,2|2,0:0|0:0,0:0:0:0:
458,160,107034,2,0,P|380:152|393:74,1,135,8|0,0:0|0:0,0:0:0:0:
500,232,107340,6,0,B|448:232|448:303|393:303,1,135,2|0,0:0|0:0,0:0:0:0:
324,360,107646,2,0,P|276:340|244:316,1,90,8|0,0:0|0:0,0:0:0:0:
56,168,107953,1,2,0:0:0:0:
244,240,108106,1,2,0:0:0:0:
60,56,108259,2,0,P|96:82|138:98,1,90,8|0,0:0|0:0,0:0:0:0:
464,64,108565,5,2,0:1:0:0:
444,320,108718,1,2,0:1:0:0:
316,72,108871,1,2,0:1:0:0:
304,316,109024,1,2,0:1:0:0:
196,72,109177,1,2,0:1:0:0:
208,316,109330,1,2,0:1:0:0:
48,64,109483,1,2,0:1:0:0:
68,320,109636,1,2,0:1:0:0:
256,252,109789,38,0,B|188:204|116:248|116:248|84:212|76:156,1,251.999992309571,4|0,0:3|0:0,0:0:0:0:
387,8,110249,2,0,P|419:91|321:46,1,251.999992309571,4|0,0:3|0:0,0:0:0:0:
505,121,110708,2,0,B|478:181|404:204|404:204|413:257,1,188.999994232178,4|0,0:3|0:0,0:0:0:0:
346,327,111014,6,0,B|329:232|329:232|287:218,1,125.999996154785,4|0,0:0|0:0,0:0:0:0:
266,347,111473,1,0,0:0:0:0:
44,92,111626,2,0,B|81:121|104:189|104:189|166:152|213:153,1,233.999989288331,2|0,0:3|0:0,0:0:0:0:
160,40,112085,1,0,0:0:0:0:
88,352,112238,6,0,B|72:261|72:261|55:280|31:284,1,125.999996154785,8|0,0:3|0:0,0:0:0:0:
172,356,112697,1,0,0:0:0:0:
304,64,112851,2,0,B|319:154|319:154|352:116|404:116,1,175.499991966248,2|0,0:3|0:0,0:0:0:0:
391,116,113157,1,0,0:0:0:0:
116,64,113310,1,0,0:0:0:0:
208,328,113463,6,0,P|244:284|316:292,1,125.999996154785,8|0,0:3|0:0,0:0:0:0:
160,248,113922,1,0,0:0:0:0:
483,320,114075,2,0,B|464:292|427:279|396:286|396:286|368:227|368:227|396:162,1,233.999989288331,2|0,0:3|0:0,0:0:0:0:
308,286,114534,1,0,0:0:0:0:
128,122,114687,5,8,3:0:0:0:
190,339,114840,1,0,0:0:0:0:
222,79,114993,1,0,0:0:0:0:
130,284,115146,1,0,0:0:0:0:
118,7,115300,1,2,0:3:0:0:
179,223,115453,1,0,0:0:0:0:
395,162,115606,1,0,0:0:0:0:
113,364,115759,1,0,0:0:0:0:
113,364,115835,1,0,0:0:0:0:
113,364,115912,6,0,B|154:323|154:323|234:335,1,125.999996154785,8|0,0:3|0:0,0:0:0:0:
73,266,116371,1,0,0:0:0:0:
355,189,116524,2,0,B|295:199|295:199|247:155|277:96|277:96|336:86,1,233.999989288331,2|0,0:3|0:0,0:0:0:0:
474,175,116983,1,0,0:0:0:0:
327,370,117136,6,0,L|345:264,1,94.499997116089,8|0,0:3|0:0,0:0:0:0:
343,276,117442,1,0,0:0:0:0:
496,360,117595,1,0,0:0:0:0:
191,193,117749,2,0,B|205:278|205:278|278:218,1,175.499991966248,2|0,0:3|0:0,0:0:0:0:
262,129,118055,1,0,0:0:0:0:
167,375,118208,1,0,0:0:0:0:
1,169,118361,5,8,0:3:0:0:
113,98,118514,1,0,0:0:0:0:
108,125,118590,1,0,0:0:0:0:
103,152,118667,1,0,0:0:0:0:
284,275,118820,1,0,0:0:0:0:
279,248,118897,1,0,0:0:0:0:
274,221,118973,2,0,B|284:162|284:162|321:112|341:153|378:104|378:104|389:45,1,233.999989288331,2|0,0:3|0:0,0:0:0:0:
100,195,119432,2,0,L|153:204,1,53.9999983520508,8|0,0:0|0:0,0:0:0:0:
415,238,119585,5,8,0:0:0:0:
422,282,119661,1,2,0:0:0:0:
430,326,119738,1,2,0:0:0:0:
438,370,119814,1,2,0:0:0:0:
486,338,119891,1,8,0:0:0:0:
494,294,119967,1,2,0:0:0:0:
502,250,120044,1,2,0:0:0:0:
510,206,120120,1,2,0:0:0:0:
477,158,120197,1,8,0:0:0:0:
477,158,120504,2,0,B|440:133|400:159|400:159|430:196|467:195,1,161.999995056153,4|0,0:3|0:0,0:0:0:0:
386,77,120810,6,0,B|284:126|284:30|176:74,1,215.999993408203,4|8,0:0|0:0,0:0:0:0:
4,192,121269,2,0,B|12:240|78:291|184:212|152:124|48:124|112:20,1,323.999990112305,2|8,0:0|0:0,0:0:0:0:
296,140,121881,1,0,0:0:0:0:
143,286,122034,22,0,P|98:309|32:312,1,107.999996704102,2|0,0:0|0:0,0:0:0:0:
3,109,122340,1,8,0:0:0:0:
205,205,122493,1,0,0:0:0:0:
205,205,122570,1,8,0:0:0:0:
205,205,122646,1,2,0:0:0:0:
51,243,122800,1,2,0:0:0:0:
164,49,122953,1,8,0:0:0:0:
243,355,123106,1,0,0:0:0:0:
354,163,123259,5,2,0:0:0:0:
138,163,123412,1,0,0:0:0:0:
159,376,123565,1,8,0:0:0:0:
369,355,123718,1,0,0:0:0:0:
369,355,123794,1,8,0:0:0:0:
369,355,123871,1,2,0:0:0:0:
192,251,124024,1,2,0:0:0:0:
381,231,124177,1,8,0:0:0:0:
229,132,124330,1,0,0:0:0:0:
397,113,124483,5,2,0:0:0:0:
110,12,124636,1,0,0:0:0:0:
110,12,124713,1,0,0:0:0:0:
110,12,124789,1,8,0:0:0:0:
61,180,124942,1,0,0:0:0:0:
229,132,125095,2,0,P|280:72|288:28,1,107.999996704102,2|0,0:0|0:0,0:0:0:0:
52,202,125402,1,2,3:2:0:0:
57,230,125478,1,0,3:0:0:0:
62,258,125555,1,0,3:0:0:0:
67,286,125631,1,0,3:0:0:0:
115,317,125708,6,0,B|186:304|186:304|223:311,1,107.999996704102,6|0,0:0|0:0,0:0:0:0:
326,222,125937,2,0,B|255:235|255:235|218:228,1,107.999996704102,0|0,0:0|0:0,0:0:0:0:
123,90,126167,2,0,L|133:32,2,53.9999983520508,2|8|0,0:0|0:0|0:0,0:0:0:0:
9,223,126396,2,0,L|19:280,2,53.9999983520508,0|0|0,0:0|0:0|0:0,0:0:0:0:
144,164,126626,5,10,0:0:0:0:
170,159,126702,1,0,0:0:0:0:
197,154,126779,1,2,0:0:0:0:
242,123,126856,1,0,0:0:0:0:
269,128,126933,1,0,0:0:0:0:
295,133,127009,1,0,0:0:0:0:
343,114,127085,2,0,L|353:51,2,53.9999983520508,2|0|8,0:0|0:0|0:0,0:0:0:0:
210,242,127315,2,0,L|219:295,2,53.9999983520508
179,41,127544,5,2,0:0:0:0:
126,27,127621,1,0,0:0:0:0:
84,51,127697,1,0,0:0:0:0:
66,90,127774,1,0,0:0:0:0:
73,127,127851,1,10,0:0:0:0:
93,151,127927,1,0,0:0:0:0:
117,162,128004,1,0,0:0:0:0:
138,161,128080,1,0,0:0:0:0:
152,153,128157,6,0,P|104:122|87:218,1,161.999995056153,2|0,0:0|0:0,0:0:0:0:
138,242,128463,1,8,0:0:0:0:
28,67,128616,1,0,0:0:0:0:
61,324,128769,1,8,0:0:0:0:
106,122,128922,1,2,0:0:0:0:
365,252,129075,1,8,0:0:0:0:
370,273,129152,1,0,0:0:0:0:
375,295,129228,1,2,0:0:0:0:
380,316,129305,1,0,0:0:0:0:
385,338,129381,5,2,0:0:0:0:
126,366,129534,1,2,0:0:0:0:
397,260,129687,1,8,0:0:0:0:
113,229,129840,1,2,0:0:0:0:
411,117,129993,1,8,0:0:0:0:
98,151,130146,1,2,0:0:0:0:
425,40,130300,1,8,0:0:0:0:
80,1,130453,1,2,0:0:0:0:
256,292,130606,5,8,0:0:0:0:
315,282,130683,1,0,3:0:0:0:
375,271,130759,1,0,3:0:0:0:
436,260,130836,1,0,3:0:0:0:
496,249,130912,1,8,0:0:0:0:
256,292,131218,2,0,L|192:303,1,49.5000015106202,8|0,0:0|0:0,0:0:0:0:
40,210,131371,1,2,0:1:0:0:
56,212,131447,1,2,0:1:0:0:
72,215,131524,1,2,0:1:0:0:
88,218,131601,1,2,0:1:0:0:
120,224,131677,6,0,L|155:22,1,198.000006042481,2|0,0:0|0:0,0:0:0:0:
422,77,132136,2,0,L|321:59,1,99.0000030212403,2|0,0:0|0:0,0:0:0:0:
231,216,132442,2,0,L|279:207,1,49.5000015106202,8|0,0:0|0:0,0:0:0:0:
426,180,132595,2,0,L|377:188,1,49.5000015106202
137,235,132749,1,2,0:0:0:0:
343,271,132902,1,0,0:0:0:0:
34,339,133055,5,8,0:0:0:0:
42,277,133132,1,0,3:0:0:0:
53,216,133208,1,0,3:0:0:0:
64,156,133285,1,0,3:0:0:0:
75,95,133361,1,8,0:0:0:0:
34,339,133667,1,8,0:0:0:0:
75,95,133820,2,0,L|57:196,1,99.0000030212403,2|0,0:0|0:0,0:0:0:0:
290,379,134126,2,0,L|263:232,1,148.50000453186,8|0,0:0|0:0,0:0:0:0:
263,232,134432,1,2,0:0:0:0:
460,29,134585,5,8,0:0:0:0:
451,77,134661,1,0,0:0:0:0:
442,126,134738,1,0,0:0:0:0:
433,175,134814,1,0,0:0:0:0:
392,207,134891,1,2,0:0:0:0:
398,240,134967,1,0,0:0:0:0:
404,274,135044,1,8,0:0:0:0:
410,309,135120,1,2,0:0:0:0:
456,334,135197,2,0,L|447:382,3,49.5000015106202,2|8|2|0,0:0|0:0|0:0|0:0,0:0:0:0:
404,274,135504,5,8,0:0:0:0:
342,264,135581,1,0,3:0:0:0:
281,253,135657,1,0,3:0:0:0:
221,242,135734,1,0,3:0:0:0:
160,231,135810,1,8,0:0:0:0:
0,202,136116,1,8,0:0:0:0:
281,253,136269,2,0,L|382:271,1,99.0000030212403,2|0,0:0|0:0,0:0:0:0:
134,188,136575,6,0,L|280:161,1,148.50000453186,8|0,0:0|0:0,0:0:0:0:
280,161,136881,1,2,0:0:0:0:
68,21,137034,1,2,0:1:0:0:
64,45,137110,1,2,0:1:0:0:
60,69,137187,1,2,0:1:0:0:
56,93,137264,1,2,0:1:0:0:
106,92,137340,2,0,L|115:44,1,49.5000015106202,8|0,0:0|0:0,0:0:0:0:
280,161,137493,2,0,L|289:209,1,49.5000015106202
57,354,137646,2,0,L|84:208,1,148.50000453186,2|0,0:0|0:0,0:0:0:0:
201,302,137953,5,2,0:1:0:0:
185,300,138029,1,2,0:1:0:0:
169,298,138106,2,0,L|71:279,1,99.0000030212403,2|0,0:0|0:0,0:0:0:0:
331,100,138412,1,2,0:1:0:0:
347,98,138488,1,2,0:1:0:0:
363,96,138565,2,0,L|460:77,1,99.0000030212403,2|0,0:0|0:0,0:0:0:0:
51,77,138871,1,2,0:1:0:0:
67,79,138947,1,2,0:1:0:0:
83,81,139024,2,0,L|181:100,1,99.0000030212403,2|0,0:0|0:0,0:0:0:0:
440,278,139330,1,2,0:1:0:0:
424,280,139406,1,2,0:1:0:0:
408,282,139483,2,0,L|310:301,1,99.0000030212403,2|0,0:0|0:0,0:0:0:0:
180,99,139789,5,8,0:0:0:0:
310,300,139942,1,2,0:0:0:0:
322,44,140095,1,8,0:0:0:0:
272,240,140249,1,2,0:0:0:0:
114,157,140402,22,0,P|122:33|238:33,1,251.999992309571,6|0,0:0|0:0,0:0:0:0:
372,180,141320,1,0,0:0:0:0:
304,324,141626,2,0,B|240:344|192:288|192:288|144:224|68:256,1,251.999992309571,2|0,0:0|0:0,0:0:0:0:
116,328,142544,1,0,0:0:0:0:
273,230,142851,6,0,P|302:141|273:53,2,188.999994232178,2|0|0,0:0|0:0|0:0,0:0:0:0:
346,21,144075,2,0,P|380:140|347:261,1,251.999992309571,2|0,0:0|0:0,0:0:0:0:
293,142,144993,1,0,0:0:0:0:
346,260,145300,6,0,P|393:303|452:320,1,125.999996154785,2|0,0:0|0:0,0:0:0:0:
400,141,145912,1,0,0:0:0:0:
347,261,146218,1,0,0:0:0:0:
294,141,146524,2,0,P|247:98|188:81,1,125.999996154785,2|0,0:0|0:0,0:0:0:0:
347,261,147136,1,0,0:0:0:0:
345,29,147442,1,0,0:0:0:0:
32,132,147749,22,0,B|112:200|188:128|188:128|256:64|324:128|324:128|396:200|480:132,1,503.999984619141,4|0,3:0|0:0,0:0:0:0:
90,260,149585,5,0,0:0:0:0:
256,344,149891,1,0,0:0:0:0:
422,260,150197,2,0,P|374:246|401:300,1,125.999996154785,2|0,0:0|0:0,0:0:0:0:
422,118,150810,5,0,0:0:0:0:
256,202,151116,1,0,0:0:0:0:
90,118,151422,2,0,P|138:104|111:158,1,125.999996154785,2|0,0:0|0:0,0:0:0:0:
428,30,152034,5,0,0:0:0:0:
84,30,152340,1,0,0:0:0:0:
256,328,152646,1,4,0:3:0:0:
256,192,152723,12,2,155095,0:0:0:0:
88,192,156932,5,0,0:0:0:0:
88,192,157085,2,0,P|72:148|21:144,1,94.499997116089,0|0,0:0|0:0,0:0:0:0:
19,213,157391,6,0,B|148:176|148:176|168:208|216:223,1,215.999993408203,4|2,0:0|0:0,0:0:0:0:
366,331,157851,2,0,P|304:311|318:212,1,161.999995056153,8|0,0:0|0:0,0:0:0:0:
391,244,158157,1,2,0:0:0:0:
220,351,158310,1,2,0:0:0:0:
458,307,158463,2,0,P|489:258|510:191,1,107.999996704102,8|0,0:0|0:0,0:0:0:0:
322,26,158769,5,2,0:0:0:0:
434,173,158922,1,2,0:0:0:0:
195,77,159075,1,8,0:0:0:0:
378,99,159228,1,0,0:0:0:0:
378,99,159305,1,0,0:0:0:0:
378,99,159381,1,2,0:0:0:0:
173,260,159534,1,2,0:0:0:0:
434,173,159687,1,8,0:0:0:0:
114,93,159840,6,0,P|96:138|185:154,1,161.999995056153,4|0,0:0|0:0,0:0:0:0:
195,77,160146,1,0,0:0:0:0:
66,278,160300,2,0,L|172:259,1,107.999996704102,8|0,0:0|0:0,0:0:0:0:
378,99,160606,1,2,0:0:0:0:
359,200,160759,2,0,P|289:157|276:112,1,107.999996704102,2|8,0:0|0:0,0:0:0:0:
462,376,161065,6,0,P|423:310|462:243,1,161.999995056153,4|0,0:0|0:0,0:0:0:0:
501,309,161371,1,2,0:0:0:0:
286,372,161524,2,0,L|180:353,1,107.999996704102,8|0,0:0|0:0,0:0:0:0:
11,186,161830,1,2,0:0:0:0:
107,340,161983,1,2,0:0:0:0:
180,96,162136,1,8,0:0:0:0:
23,358,162289,6,0,B|64:387|126:351|115:296|115:296|133:262|171:250,1,215.999993408203,4|2,0:0|0:0,0:0:0:0:
424,304,162749,2,0,B|344:328|344:280|264:304,1,161.999995056153,8|0,0:0|0:0,0:0:0:0:
232,376,163055,1,2,0:0:0:0:
384,228,163208,1,2,0:0:0:0:
150,142,163361,2,0,L|170:256,1,107.999996704102,8|0,0:0|0:0,0:0:0:0:
268,186,163667,5,2,0:0:0:0:
52,206,163820,1,0,0:0:0:0:
142,8,163973,1,8,0:0:0:0:
12,68,164126,1,0,0:0:0:0:
12,68,164203,1,0,0:0:0:0:
12,68,164279,1,2,0:0:0:0:
75,287,164432,1,2,0:0:0:0:
256,88,164585,1,8,0:0:0:0:
437,287,164738,6,0,B|384:284|384:244|384:244|424:216|424:172,1,161.999995056153,4|0,0:0|0:0,0:0:0:0:
404,92,165044,1,2,0:0:0:0:
204,288,165197,2,0,P|255:272|303:247,1,107.999996704102,8|2,0:0|0:0,0:0:0:0:
121,61,165504,1,2,0:0:0:0:
307,166,165657,1,2,0:0:0:0:
96,200,165810,1,10,0:0:0:0:
331,26,165963,6,0,P|407:52|470:102,1,161.999995056153,4|0,0:0|0:0,0:0:0:0:
488,180,166269,1,2,0:0:0:0:
267,73,166422,1,8,0:0:0:0:
431,16,166575,1,0,0:0:0:0:
324,236,166728,2,0,L|334:301,1,53.9999983520508,2|0,0:0|0:0,0:0:0:0:
502,306,166881,1,8,0:0:0:0:
497,266,166957,1,8,0:0:0:0:
467,239,167034,1,8,0:0:0:0:
428,237,167110,1,8,0:0:0:0:
396,261,167187,6,0,P|322:285|326:173,1,215.999993408203,4|2,0:0|0:0,0:0:0:0:
219,17,167646,2,0,B|238:129|238:129|221:149|213:169,1,161.999995056153,8|0,0:0|0:0,0:0:0:0:
202,246,167953,1,2,0:0:0:0:
320,96,168106,1,2,0:0:0:0:
74,156,168259,2,0,P|82:196|147:186,1,107.999996704102,8|0,0:0|0:0,0:0:0:0:
148,58,168565,5,2,0:0:0:0:
202,246,168718,1,2,0:0:0:0:
5,200,168871,1,8,0:0:0:0:
193,146,169024,1,0,0:0:0:0:
193,146,169101,1,0,0:0:0:0:
193,146,169177,1,2,0:0:0:0:
333,281,169330,1,2,0:0:0:0:
147,335,169483,1,8,0:0:0:0:
416,254,169636,6,0,B|435:147|435:147|467:168|473:204,1,161.999995056153,4|0,0:0|0:0,0:0:0:0:
479,317,169942,1,2,0:0:0:0:
309,147,170095,2,0,L|290:40,1,107.999996704102,8|0,0:0|0:0,0:0:0:0:
81,205,170402,1,2,0:0:0:0:
111,311,170555,2,0,P|157:283|185:238,1,107.999996704102,2|8,0:0|0:0,0:0:0:0:
429,310,170861,6,0,B|350:339|350:275|272:310,1,161.999995056153,4|0,0:0|0:0,0:0:0:0:
216,369,171167,1,2,0:0:0:0:
484,242,171320,2,0,L|455:82,1,161.999995056153,8|0,0:0|0:0,0:0:0:0:
438,0,171626,1,2,0:0:0:0:
364,176,171779,1,2,0:0:0:0:
99,65,171932,1,8,0:0:0:0:
401,88,172085,1,2,0:0:0:0:
231,120,172238,5,4,0:0:0:0:
198,135,172314,1,2,0:0:0:0:
169,156,172391,1,2,0:0:0:0:
144,182,172467,1,2,0:0:0:0:
178,226,172544,1,2,0:0:0:0:
210,210,172620,1,2,0:0:0:0:
239,189,172697,1,2,0:0:0:0:
264,163,172773,1,2,0:0:0:0:
318,163,172851,1,4,0:0:0:0:
349,196,172927,1,0,0:0:0:0:
394,190,173004,1,2,0:0:0:0:
415,150,173080,1,2,0:0:0:0:
396,109,173157,1,2,0:0:0:0:
374,69,173233,1,2,0:0:0:0:
393,27,173310,2,0,L|458:15,1,53.9999983520508,8|0,0:0|0:0,0:0:0:0:
318,163,173463,2,0,L|252:151,1,53.9999983520508,4|2,0:0|0:0,0:0:0:0:
83,128,173616,5,8,0:0:0:0:
46,166,173692,1,8,0:0:0:0:
34,218,173769,1,8,0:0:0:0:
50,269,173845,1,8,0:0:0:0:
90,304,173922,1,8,0:0:0:0:
142,314,173998,1,8,0:0:0:0:
192,296,174075,1,2,0:0:0:0:
240,271,174151,1,2,0:0:0:0:
292,256,174228,1,2,0:0:0:0:
346,251,174304,1,2,0:0:0:0:
400,256,174381,1,2,0:0:0:0:
451,271,174457,1,2,0:0:0:0:
499,295,174534,6,0,P|423:316|412:239,1,175.499991966248,4|0,0:0|0:0,0:0:0:0:
494,199,174840,1,2,0:0:0:0:
308,331,174993,1,8,0:0:0:0:
285,104,175146,1,0,0:0:0:0:
285,104,175223,1,0,0:0:0:0:
285,104,175300,1,2,0:0:0:0:
229,297,175453,1,2,0:0:0:0:
364,70,175606,1,8,0:0:0:0:
410,251,175759,1,0,0:0:0:0:
183,116,175912,5,2,0:0:0:0:
402,4,176065,1,2,0:0:0:0:
242,251,176218,2,0,L|117:272,1,116.999994644165,8|0,0:0|0:0,0:0:0:0:
56,228,176447,1,0,0:0:0:0:
56,228,176524,1,2,0:0:0:0:
312,293,176677,1,0,0:0:0:0:
76,337,176830,1,8,0:0:0:0:
294,188,176983,6,0,P|324:128|336:20,1,175.499991966248,4|0,0:0|0:0,0:0:0:0:
252,20,177328,1,0,0:0:0:0:
396,292,177442,2,0,P|442:327|495:350,1,116.999994644165,8|0,0:0|0:0,0:0:0:0:
330,109,177749,1,2,0:0:0:0:
292,334,177902,2,0,L|314:204,1,116.999994644165,2|8,0:0|0:0,0:0:0:0:
53,123,178208,6,0,P|129:137|136:59,1,175.499991966248,4|0,0:0|0:0,0:0:0:0:
52,32,178514,1,2,0:0:0:0:
83,234,178667,1,8,0:0:0:0:
285,203,178820,1,0,0:0:0:0:
83,234,178973,1,2,0:0:0:0:
301,304,179126,1,2,0:0:0:0:
253,81,179279,1,8,0:0:0:0:
79,315,179432,6,0,B|139:316|161:263|161:263|195:244|229:260,1,175.499991966248,4|0,0:0|0:0,0:0:0:0:
301,304,179738,1,2,0:0:0:0:
497,172,179891,1,8,0:0:0:0:
333,140,180044,1,0,0:0:0:0:
333,140,180121,1,0,0:0:0:0:
333,140,180197,1,2,0:0:0:0:
442,13,180351,1,2,0:0:0:0:
397,261,180504,1,8,0:0:0:0:
149,216,180657,1,0,0:0:0:0:
295,114,180810,5,2,0:0:0:0:
250,362,180963,1,2,0:0:0:0:
346,187,181116,1,8,0:0:0:0:
200,290,181269,1,0,0:0:0:0:
200,290,181345,1,0,0:0:0:0:
200,290,181422,1,2,0:0:0:0:
41,157,181575,1,2,0:0:0:0:
150,362,181728,1,8,0:0:0:0:
376,309,181881,6,0,B|393:209|393:209|437:202|459:241,1,175.499991966248,4|0,0:0|0:0,0:0:0:0:
438,361,182187,1,2,0:0:0:0:
305,153,182340,2,0,B|285:268,1,116.999994644165,8|0,0:0|0:0,0:0:0:0:
180,188,182646,1,2,0:0:0:0:
423,120,182800,2,0,B|403:4,1,116.999994644165,2|8,0:0|0:0,0:0:0:0:
20,160,183106,6,0,B|101:159|101:90|174:90,1,175.499991966248,4|0,0:0|0:0,0:0:0:0:
180,188,183412,1,2,0:0:0:0:
15,62,183565,1,8,0:0:0:0:
189,12,183718,1,0,0:0:0:0:
189,12,183794,1,8,0:0:0:0:
189,12,183871,1,6,0:0:0:0:
128,267,184024,1,8,0:0:0:0:
383,328,184177,1,2,0:0:0:0:
444,73,184330,6,0,B|456:1|456:1|411:33|360:33,1,175.499991966248,4|0,0:0|0:0,0:0:0:0:
260,9,184636,1,2,0:0:0:0:
414,201,184789,1,8,0:0:0:0:
241,182,184942,1,0,0:0:0:0:
241,182,185019,1,0,0:0:0:0:
241,182,185095,1,2,0:0:0:0:
138,321,185249,1,2,0:0:0:0:
201,89,185402,1,8,0:0:0:0:
414,201,185555,1,0,0:0:0:0:
141,171,185708,5,2,0:0:0:0:
373,109,185861,1,2,0:0:0:0:
310,340,186014,2,0,P|253:367|192:371,1,116.999994644165,8|0,0:0|0:0,0:0:0:0:
125,338,186243,1,0,0:0:0:0:
125,338,186320,1,2,0:0:0:0:
65,101,186473,1,2,0:0:0:0:
42,376,186626,1,8,0:0:0:0:
291,259,186779,6,0,B|305:180|305:180|332:138|381:121,1,175.499991966248,4|0,0:0|0:0,0:0:0:0:
461,158,187085,1,2,0:0:0:0:
194,244,187238,2,0,B|79:224,1,116.999994644165,8|0,0:0|0:0,0:0:0:0:
155,117,187544,1,2,0:0:0:0:
269,345,187697,2,0,B|384:325,1,116.999994644165,2|8,0:0|0:0,0:0:0:0:
308,218,188004,5,2,0:1:0:0:
111,370,188157,1,6,0:0:0:0:
48,116,188310,1,2,0:1:0:0:
245,268,188464,1,8,0:0:0:0:
308,14,188616,1,2,0:1:0:0:
111,166,188770,1,2,0:0:0:0:
460,211,188922,1,4,0:0:0:0:
209,89,189075,1,2,0:0:0:0:
362,287,189228,6,0,B|418:308|465:287|465:287|422:359,1,175.499991966248,12|0,0:0|0:0,0:0:0:0:
349,372,189534,1,2,0:0:0:0:
460,211,189687,2,0,P|476:169|487:92,1,116.999994644165,8|0,0:0|0:0,0:0:0:0:
199,211,189993,1,2,0:0:0:0:
401,131,190146,1,2,0:0:0:0:
139,130,190300,2,0,P|123:172|112:249,1,116.999994644165,8|0,0:0|0:0,0:0:0:0:
6,5,190606,6,0,P|30:69|30:175,1,175.499991966248,6|0,0:0|0:0,0:0:0:0:
4,260,190912,1,8,0:0:0:0:
139,130,191065,1,0,0:0:0:0:
319,181,191218,2,0,L|342:315,1,116.999994644165,2|2,0:0|0:0,0:0:0:0:
434,160,191524,1,8,0:0:0:0:
223,316,191677,1,0,0:0:0:0:
129,189,191830,6,0,L|149:73,1,116.999994644165,6|0,0:0|0:0,0:0:0:0:
112,288,192136,1,8,0:0:0:0:
48,108,192289,1,0,0:0:0:0:
184,336,192442,1,2,0:0:0:0:
266,164,192595,1,2,0:0:0:0:
106,374,192749,1,8,0:0:0:0:
48,108,192902,1,0,0:0:0:0:
48,108,192978,1,0,0:0:0:0:
48,108,193055,5,12,0:0:0:0:
256,268,193208,1,2,0:0:0:0:
335,17,193361,1,12,0:0:0:0:
271,313,193514,1,2,0:0:0:0:
179,25,193667,1,12,0:0:0:0:
475,90,193820,1,2,0:0:0:0:
187,181,193973,1,2,0:0:0:0:
478,368,194126,6,0,P|469:284|391:253,1,175.499991966248,4|0,0:0|0:0,0:0:0:0:
404,333,194432,1,2,0:0:0:0:
461,136,194585,1,2,0:0:0:0:
316,296,194738,1,2,0:0:0:0:
259,99,194891,1,2,0:0:0:0:
117,247,195044,1,2,0:0:0:0:
172,17,195197,1,2,0:0:0:0:
230,214,195350,1,8,0:0:0:0:
18,100,195504,5,2,0:0:0:0:
330,179,195657,1,2,0:0:0:0:
67,309,195810,1,2,0:0:0:0:
309,98,195963,1,2,0:1:0:0:
366,104,196039,1,2,0:1:0:0:
405,147,196116,1,2,0:1:0:0:
408,204,196192,1,2,0:1:0:0:
372,249,196269,1,2,0:1:0:0:
351,302,196345,1,2,0:1:0:0:
373,354,196422,1,2,0:1:0:0:
425,376,196498,1,2,0:1:0:0:
478,354,196575,1,2,0:1:0:0:
500,302,196651,1,2,0:1:0:0:
479,249,196728,6,0,B|427:220|369:249|369:249|310:283|238:249,1,251.999992309571,4|0,0:0|0:0,0:0:0:0:
4,216,197187,2,0,B|101:172|101:233|165:233|165:233|175:191|218:176,1,251.999992309571,4|0,0:0|0:0,0:0:0:0:
66,46,197646,2,0,B|141:48|159:114|159:114|213:71|275:114,1,251.999992309571,4|0,0:0|0:0,0:0:0:0:
217,384,198106,2,0,B|211:339|167:309|167:309|218:260|218:260|201:217|218:173,1,251.999992309571,4|0,0:0|0:0,0:0:0:0:
324,25,198565,1,8,0:0:0:0:
120,192,198718,1,8,0:0:0:0:
324,359,198871,2,0,L|363:352,3,30
28,314,199177,6,0,B|69:274|69:274|145:286,1,135,4|0,0:0|0:0,0:0:0:0:
225,306,199483,2,0,P|275:285|304:247,1,90,8|0,0:0|0:0,0:0:0:0:
301,68,199789,1,2,0:0:0:0:
220,215,199942,1,2,0:0:0:0:
394,68,200095,2,0,P|435:83|466:115,1,90,8|0,0:0|0:0,0:0:0:0:
181,115,200402,6,0,P|248:107|301:67,1,135,2|0,0:0|0:0,0:0:0:0:
108,150,200708,2,0,L|92:238,1,90,8|0,0:0|0:0,0:0:0:0:
80,315,200937,1,8,0:0:0:0:
80,315,201014,1,2,0:0:0:0:
24,159,201167,1,0,0:0:0:0:
156,327,201320,6,0,B|221:302|221:355|286:327,1,135,8|0,0:0|0:0,0:0:0:0:
399,229,201626,2,0,P|356:235|345:276,1,90,4|0,0:0|0:0,0:0:0:0:
511,169,201932,1,8,0:0:0:0:
424,319,202085,1,0,0:0:0:0:
424,319,202162,1,8,0:0:0:0:
424,319,202238,1,2,0:0:0:0:
274,231,202391,1,0,0:0:0:0:
500,158,202544,1,8,0:0:0:0:
263,220,202697,1,0,0:0:0:0:
90,45,202851,6,0,P|146:32|158:100,1,135,2|0,0:0|0:0,0:0:0:0:
53,201,203157,2,0,P|63:157|92:123,1,90,8|0,0:0|0:0,0:0:0:0:
136,194,203386,1,8,0:0:0:0:
136,194,203463,2,0,L|145:247,1,45,2|0,0:0|0:0,0:0:0:0:
261,325,203616,1,2,0:0:0:0:
240,330,203693,1,0,0:0:0:0:
227,318,203769,2,0,L|217:264,1,49.5000015106202,8|0,0:0|0:0,0:0:0:0:
300,130,203922,2,0,L|290:178,1,49.5000015106202,0|0,0:0|0:0,0:0:0:0:
477,278,204075,5,4,0:0:0:0:
370,177,204228,1,0,0:0:0:0:
505,32,204381,1,8,0:0:0:0:
431,235,204534,1,0,0:0:0:0:
431,235,204611,1,8,0:0:0:0:
431,235,204687,1,2,0:0:0:0:
334,281,204840,1,2,0:0:0:0:
148,81,204993,1,8,0:0:0:0:
342,173,205146,1,2,0:0:0:0:
165,295,205300,5,2,0:0:0:0:
143,288,205376,1,0,0:0:0:0:
127,270,205453,1,0,0:0:0:0:
122,246,205529,1,0,0:0:0:0:
114,203,205606,1,8,0:0:0:0:
92,210,205682,1,0,0:0:0:0:
76,228,205759,1,0,0:0:0:0:
71,252,205835,1,0,0:0:0:0:
78,275,205912,2,0,L|134:284,1,45,2|0,0:0|0:0,0:0:0:0:
276,164,206065,1,2,0:0:0:0:
281,188,206141,1,0,0:0:0:0:
274,211,206218,2,0,L|217:220,1,45,8|0,0:0|0:0,0:0:0:0:
103,74,206371,1,0,0:0:0:0:
98,98,206447,1,0,0:0:0:0:
105,121,206524,5,4,0:0:0:0:
334,85,206677,1,0,0:0:0:0:
181,312,206830,1,8,0:0:0:0:
264,95,206983,1,0,0:0:0:0:
10,200,207136,1,2,0:0:0:0:
239,164,207289,1,2,0:0:0:0:
13,23,207442,1,8,0:0:0:0:
18,276,207595,5,0,0:0:0:0:
21,307,207672,1,0,0:0:0:0:
24,338,207749,1,8,0:0:0:0:
255,169,207902,1,2,0:0:0:0:
258,138,207979,1,2,0:0:0:0:
261,107,208055,2,0,L|333:94,1,45,8|0,0:0|0:0,0:0:0:0:
159,211,208208,2,0,L|114:203,1,45,2|2,0:0|0:0,0:0:0:0:
308,18,208361,1,8,0:0:0:0:
350,31,208437,1,0,0:0:0:0:
379,64,208514,1,0,0:0:0:0:
387,107,208590,1,0,0:0:0:0:
371,149,208667,1,2,0:0:0:0:
336,175,208743,1,0,0:0:0:0:
336,218,208820,1,0,0:0:0:0:
371,244,208896,1,0,0:0:0:0:
412,232,208973,6,0,B|426:183|426:183|470:147|470:147|471:109|455:76,1,180,4|0,0:0|0:0,0:0:0:0:
394,229,209432,2,0,B|408:180|408:180|452:144|452:144|453:106|437:73,1,180,2|0,0:0|0:0,0:0:0:0:
376,226,209891,2,0,B|390:177|390:177|434:141|434:141|435:103|419:70,1,180,2|0,0:0|0:0,0:0:0:0:
358,223,210351,2,0,B|372:174|372:174|416:138|416:138|417:100|401:67,1,180,2|0,0:0|0:0,0:0:0:0:
390,356,210810,1,12,0:0:0:0:
332,107,210963,1,0,0:0:0:0:
100,249,211116,2,0,P|170:270|149:194,1,161.999995056153,12|0,0:0|0:0,0:0:0:0:
99,170,211422,5,8,0:0:0:0:
382,262,211575,1,2,0:1:0:0:
401,255,211652,1,2,0:1:0:0:
418,247,211728,1,2,0:1:0:0:
207,20,211881,1,8,0:0:0:0:
207,318,212034,1,2,0:1:0:0:
219,333,212111,1,2,0:1:0:0:
232,347,212187,1,2,0:1:0:0:
382,76,212340,1,8,0:0:0:0:
99,170,212493,1,2,0:1:0:0:
89,185,212570,1,2,0:1:0:0:
80,201,212646,1,2,0:1:0:0:
382,262,212800,1,8,0:0:0:0:
207,20,212953,1,2,0:1:0:0:
189,15,213030,1,2,0:1:0:0:
171,11,213106,1,2,0:1:0:0:
207,318,213259,5,8,0:0:0:0:
382,76,213412,1,8,0:0:0:0:
80,201,213565,1,8,0:0:0:0:
511,195,213718,1,4,1:3:0:0:
