osu file format v14

[General]
AudioFilename: 01. Sen -ikusa-.mp3
AudioLeadIn: 7850
PreviewTime: 54993
Countdown: 0
SampleSet: Soft
StackLeniency: 0.6
Mode: 0
LetterboxInBreaks: 0
WidescreenStoryboard: 1

[Editor]
DistanceSpacing: 1
BeatDivisor: 4
GridSize: 4
TimelineZoom: 1.4

[Metadata]
Title:Ikusa
TitleUnicode:Ikusa
Artist:Wagakki Band
ArtistUnicode:Wagakki Band
Creator:Atsuro
Version:Easy
Source:
Tags:Sengoku Musou opening pkhg [ AeonLust ] Wildcry Smokeman Coffee Hispanic Mocha Finals HR2
BeatmapID:767944
BeatmapSetID:345860

[Difficulty]
HPDrainRate:3
CircleSize:2
OverallDifficulty:2
ApproachRate:3.5
SliderMultiplier:0.999999999999999
SliderTickRate:1

[Events]
//Background and Video events
0,0,"bg.png",0,0
//Break Periods
2,80602,88817
2,121010,129226
2,199377,202695
//Storyboard Layer 0 (Background)
//Storyboard Layer 1 (Fail)
//Storyboard Layer 2 (Pass)
//Storyboard Layer 3 (Foreground)
//Storyboard Layer 4 (Overlay)
//Storyboard Sound Samples

[TimingPoints]
810,306.122448979592,4,2,1,80,1,0
46116,-100,4,2,2,70,0,0
54687,-100,4,2,1,80,0,0
55758,-100,4,2,1,85,0,1
80095,-100,4,2,1,85,0,0
80401,-100,4,2,1,85,0,1
80478,-100,4,2,1,80,0,0
109789,-100,4,2,1,90,0,1
111014,-100,4,2,1,90,0,0
119432,-100,4,2,1,80,0,0
120504,-100,4,2,1,90,0,0
120810,-100,4,2,1,80,0,0
125708,-100,4,2,3,80,0,0
128157,-100,4,2,1,80,0,0
140402,-100,4,2,2,70,0,0
147749,-100,4,2,1,70,0,0
148973,-100,4,2,2,70,0,0
152646,-100,4,2,1,70,0,0
155095,-100,4,2,0,60,0,0
157391,-100,4,2,1,85,0,1
174457,-100,4,2,1,85,0,0
174534,-100,4,2,1,85,0,1
198871,-100,4,2,1,85,0,0
199177,-100,4,2,1,85,0,1
199253,-100,4,2,1,85,0,0

[Colours]
Combo1 : 183,98,21
Combo2 : 119,38,38
Combo3 : 52,80,79

[HitObjects]
104,316,2034,6,0,L|224:316,1,99.9999999999999,2|2,0:0|0:0,0:0:0:0:
248,224,2646,2,0,L|148:224,1,99.9999999999999,2|2,0:0|0:0,0:0:0:0:
68,164,3259,2,0,P|120:128|172:128,1,99.9999999999999,2|2,0:0|0:0,0:0:0:0:
256,124,3871,2,0,P|304:132|343:163,1,99.9999999999999,2|2,0:0|0:0,0:0:0:0:
368,260,4483,6,0,P|332:332|228:320,2,150,8|8|8,0:0|0:0|0:0,0:0:0:0:
343,163,5707,2,0,B|320:80|272:56|272:56|200:56,1,200,2|8,0:0|0:0,0:0:0:0:
60,192,6932,6,0,P|64:248|204:320,1,200,4|2,0:0|0:0,0:0:0:0:
256,264,7851,1,8,0:0:0:0:
336,324,8157,2,0,P|424:284|449:191,1,200,2|2,0:0|0:0,0:0:0:0:
396,104,9075,1,8,0:0:0:0:
324,172,9381,6,0,P|232:200|132:168,1,200,2|2,0:0|0:0,0:0:0:0:
64,100,10300,1,8,0:0:0:0:
144,36,10606,2,0,P|216:24|252:24,1,99.9999999999999,2|8,0:0|0:0,0:0:0:0:
340,52,11218,2,0,P|386:108|404:139,1,99.9999999999999,2|8,0:0|0:0,0:0:0:0:
420,228,11830,6,0,P|388:296|280:280,1,200,4|2,0:0|0:0,0:0:0:0:
236,192,12749,1,8,0:0:0:0:
188,104,13055,2,0,P|136:68|72:76,1,99.9999999999999,2|8,0:0|0:0,0:0:0:0:
32,136,13667,2,0,L|48:240,1,99.9999999999999,2|8,0:0|0:0,0:0:0:0:
64,332,14279,6,0,B|144:312|148:248|146:224|146:224|208:208,1,200,2|2,0:0|0:0,0:0:0:0:
292,188,15197,1,8,0:0:0:0:
376,240,15503,2,0,P|335:281|289:290,2,99.9999999999999,2|8|2,0:0|0:0|0:0,0:0:0:0:
432,156,16422,1,2,0:0:0:0:
368,76,16728,6,0,B|304:52|248:88|248:88|248:192,1,200,4|2,0:0|0:0,0:0:0:0:
248,264,17646,1,8,0:0:0:0:
300,348,17953,2,0,P|343:289|335:216,2,150,2|2|8,0:0|0:0|0:0,0:0:0:0:
248,264,19177,6,0,L|164:184,1,99.9999999999999,2|8,0:0|0:0,0:0:0:0:
104,124,19789,2,0,L|184:40,1,99.9999999999999,2|8,0:0|0:0,0:0:0:0:
256,112,20401,2,0,P|338:160|421:112,1,200,2|2,0:0|0:0,0:0:0:0:
424,12,21320,1,8,0:0:0:0:
339,65,21626,6,0,L|339:273,1,200,4|2,0:0|0:0,0:0:0:0:
340,368,22544,1,8,0:0:0:0:
244,340,22851,2,0,L|136:292,1,99.9999999999999,2|8,0:0|0:0,0:0:0:0:
64,256,23463,2,0,P|108:208|152:200,1,99.9999999999999,2|8,0:0|0:0,0:0:0:0:
232,236,24075,6,0,P|320:224|340:128,1,200,2|2,0:0|0:0,0:0:0:0:
300,36,24993,1,8,0:0:0:0:
204,68,25300,2,0,L|108:148,1,99.9999999999999,2|8,0:0|0:0,0:0:0:0:
72,216,25912,2,0,B|84:264|84:264|127:290,1,99.9999999999999,2|8,0:0|0:0,0:0:0:0:
212,240,26524,6,0,P|304:196|392:244,1,200,4|2,0:0|0:0,0:0:0:0:
440,320,27442,1,8,0:0:0:0:
492,232,27749,2,0,L|492:120,1,99.9999999999999,2|8,0:0|0:0,0:0:0:0:
392,132,28361,2,0,L|392:32,1,99.9999999999999,2|8,0:0|0:0,0:0:0:0:
292,36,28973,6,0,B|292:104|292:104|248:172|156:136,1,200,2|2,0:0|0:0,0:0:0:0:
92,88,29891,1,8,0:0:0:0:
36,172,30197,2,0,P|24:244|44:284,1,99.9999999999999,2|8,0:0|0:0,0:0:0:0:
100,340,30810,2,0,P|172:352|212:332,1,99.9999999999999,2|8,0:0|0:0,0:0:0:0:
264,268,31422,6,0,P|348:220|436:280,1,200,4|2,0:0|0:0,0:0:0:0:
348,324,32340,1,8,0:0:0:0:
256,360,32646,2,0,P|200:340|176:288,1,99.9999999999999,2|8,0:0|0:0,0:0:0:0:
176,208,33259,2,0,L|176:104,1,99.9999999999999,2|8,0:0|0:0,0:0:0:0:
268,68,33871,6,0,P|308:156|268:244,1,200,2|2,0:0|0:0,0:0:0:0:
188,304,34789,1,8,0:0:0:0:
132,224,35095,2,0,B|97:174|97:174|68:161|68:161|34:111,2,150,8|8|8,0:0|0:0|0:0,0:0:0:0:
188,304,36320,6,0,L|320:304,1,99.9999999999999,8|8,0:0|0:0,0:0:0:0:
388,304,36932,2,0,B|448:260|448:260|448:168,2,150,8|8|2,0:0|0:0|0:0,0:0:0:0:
288,304,38157,2,0,L|288:196,1,99.9999999999999,8|8,0:0|0:0,0:0:0:0:
288,104,38769,5,8,0:0:0:0:
88,108,39381,2,0,B|40:160|40:160|40:240,2,150,8|8|8,0:0|0:0|0:0,0:0:0:0:
176,56,40606,2,0,L|176:168,1,99.9999999999999,2|8,0:0|0:0,0:0:0:0:
180,256,41218,6,0,B|232:268|232:268|277:256,1,99.9999999999999,8|8,0:0|0:0,0:0:0:0:
368,216,41830,2,0,B|368:140|368:140|324:72,2,150,8|8|8,0:0|0:0|0:0,0:0:0:0:
368,316,43055,2,0,L|252:316,1,99.9999999999999,8|2,0:0|0:0,0:0:0:0:
168,312,43667,5,8,0:0:0:0:
100,124,44279,2,0,B|172:100|172:100|242:123,2,150,8|8|8,0:0|0:0|0:0,0:0:0:0:
36,200,45504,2,0,L|36:304,1,99.9999999999999,2|2,0:0|0:0,0:0:0:0:
116,360,46116,6,0,P|192:324|156:124,1,300,4|0,0:0|0:0,0:0:0:0:
92,80,47340,2,0,P|144:40|267:88,1,200,2|0,0:0|0:0,0:0:0:0:
312,164,48259,1,0,0:0:0:0:
368,248,48565,6,0,P|412:272|512:248,2,150,2|0|0,0:0|0:0|0:0,0:0:0:0:
312,164,49789,2,0,P|216:132|124:168,1,200,2|0,0:0|0:0,0:0:0:0:
56,236,50708,1,0,0:0:0:0:
116,316,51014,6,0,B|220:352|220:276|310:315,1,200,2|0,0:0|0:0,0:0:0:0:
400,360,51932,1,0,0:0:0:0:
464,284,52238,2,0,P|492:196|464:80,1,200,2|0,0:0|0:0,0:0:0:0:
392,32,53157,1,0,0:0:0:0:
352,124,53463,6,0,B|324:176|268:204|216:172|184:144|184:144|152:116|100:84|44:112|16:168,1,400,2|2,0:0|0:0,0:0:0:0:
128,332,55300,6,0,L|316:332,2,150,8|4|8,0:0|0:0|0:0,0:0:0:0:
60,260,56524,2,0,P|144:204|208:116,1,200,2|2,0:0|0:0,0:0:0:0:
256,40,57442,1,8,0:0:0:0:
308,124,57749,6,0,P|368:203|431:246,2,150,2|4|8,0:0|0:0|0:0,0:0:0:0:
352,32,58973,2,0,L|476:32,1,99.9999999999999,2|8,0:0|0:0,0:0:0:0:
508,116,59585,2,0,P|512:188|496:232,1,99.9999999999999,2|8,0:0|0:0,0:0:0:0:
451,300,60197,6,0,P|384:327|316:300,2,150,2|4|8,0:0|0:0|0:0,0:0:0:0:
384,228,61422,2,0,L|248:76,1,200,2|2,0:0|0:0,0:0:0:0:
180,8,62340,1,8,0:0:0:0:
136,96,62646,6,0,P|84:160|8:216,2,150,2|4|8,0:0|0:0|0:0,0:0:0:0:
180,8,63871,2,0,P|232:72|188:180,1,200,2|2,0:0|0:0,0:0:0:0:
132,252,64789,1,8,0:0:0:0:
196,332,65095,6,0,P|263:359|331:332,2,150,2|4|8,0:0|0:0|0:0,0:0:0:0:
264,260,66320,2,0,L|324:180,1,99.9999999999999,2|8,0:0|0:0,0:0:0:0:
377,95,66932,2,0,P|331:79|282:89,1,99.9999999999999,2|8,0:0|0:0,0:0:0:0:
203,156,67544,6,0,P|136:183|68:156,2,150,2|4|8,0:0|0:0|0:0,0:0:0:0:
136,84,68769,2,0,L|136:300,1,200,2|2,0:0|0:0,0:0:0:0:
212,348,69687,1,8,0:0:0:0:
308,324,69993,6,0,P|368:268|360:180,2,150,2|4|8,0:0|0:0|0:0,0:0:0:0:
276,228,71218,2,0,L|236:112,1,99.9999999999999,2|8,0:0|0:0,0:0:0:0:
144,140,71830,2,0,L|104:24,2,99.9999999999999,2|8|2,0:0|0:0|0:0,0:0:0:0:
172,236,72749,1,8,0:0:0:0:
208,328,73055,6,0,L|324:296,1,99.9999999999999,2|8,0:0|0:0,0:0:0:0:
292,204,73667,2,0,L|408:172,1,99.9999999999999,2|8,0:0|0:0,0:0:0:0:
484,152,74279,1,4,1:0:0:0:
428,68,74585,1,4,1:0:0:0:
332,96,74891,6,0,L|156:148,2,150,8|4|2,0:0|0:0|0:0,0:0:0:0:
428,68,76116,2,0,P|430:118|405:161,1,99.9999999999999,2|2,0:0|0:0,0:0:0:0:
332,228,76728,2,0,L|212:264,1,99.9999999999999,2|2,0:0|0:0,0:0:0:0:
136,260,77340,2,0,L|40:231,1,99.9999999999999,2|2,0:1|0:1,0:1:0:0:
256,192,77953,12,4,80402,0:0:0:0:
60,300,90197,6,0,L|180:312,1,99.9999999999999,4|8,0:0|0:0,0:0:0:0:
256,288,90810,2,0,L|355:278,1,99.9999999999999,2|8,0:0|0:0,0:0:0:0:
452,260,91422,2,0,P|484:176|472:84,2,150,2|2|8,0:0|0:0|0:0,0:0:0:0:
355,277,92646,6,0,P|340:232|296:164,1,99.9999999999999,4|8,0:0|0:0,0:0:0:0:
236,124,93259,2,0,P|211:167|195:214,1,99.9999999999999,2|8,0:0|0:0,0:0:0:0:
180,312,93871,2,0,P|104:296|60:184,1,200,2|2,0:0|0:0,0:0:0:0:
88,96,94789,1,8,0:0:0:0:
180,52,95095,6,0,L|292:72,2,99.9999999999999,2|8|2,0:0|0:0|0:0,0:0:0:0:
88,96,96014,1,8,0:0:0:0:
124,188,96320,2,0,P|188:236|220:244,1,99.9999999999999,2|8,0:0|0:0,0:0:0:0:
308,240,96932,2,0,P|353:220|390:186,1,99.9999999999999,2|8,0:0|0:0,0:0:0:0:
356,92,97544,6,0,P|261:63|166:90,1,200,4|2,0:0|0:0,0:0:0:0:
96,164,98463,1,8,0:0:0:0:
112,264,98769,2,0,L|132:372,2,99.9999999999999,2|8|2,0:0|0:0|0:1,0:0:0:0:
96,164,99687,1,2,0:0:0:0:
188,200,99993,6,0,P|277:237|367:198,1,200,4|2,0:0|0:0,0:0:0:0:
436,124,100912,1,8,0:0:0:0:
368,52,101218,2,0,P|304:28|272:28,1,99.9999999999999,2|8,0:0|0:0,0:0:0:0:
204,100,101830,2,0,P|154:96|109:75,1,99.9999999999999,0|8,0:0|0:0,0:0:0:0:
20,32,102442,6,0,L|24:240,1,200,2|2,0:0|0:0,0:0:0:0:
32,332,103361,1,8,0:0:0:0:
116,276,103667,2,0,P|168:264|224:264,1,99.9999999999999,2|8,0:0|0:0,0:0:0:0:
296,320,104279,2,0,P|345:318|394:307,1,99.9999999999999,2|8,0:0|0:0,0:0:0:0:
472,248,104891,6,0,B|500:148|500:148|436:64,1,200,4|2,0:0|0:0,0:0:0:0:
364,8,105810,1,8,0:0:0:0:
292,80,106116,2,0,L|212:168,1,99.9999999999999,2|8,0:0|0:0,0:0:0:0:
144,96,106728,2,0,L|64:184,1,99.9999999999999,2|8,0:0|0:0,0:0:0:0:
16,248,107340,6,0,P|80:296|200:276,1,200,2|2,0:0|0:0,0:0:0:0:
256,204,108259,1,8,0:0:0:0:
318,280,108565,2,0,P|413:300|456:284,2,99.9999999999999,2|2|2,0:1|0:1|0:1,0:0:0:0:
256,204,109483,1,2,0:1:0:0:
323,127,109789,6,0,P|255:100|188:128,2,150,4|4|4,0:3|0:3|0:3,0:0:0:0:
255,204,111014,6,0,P|167:244|79:203,1,200,4|2,0:0|0:3,0:0:0:0:
16,128,111932,1,0,0:0:0:0:
84,56,112238,2,0,P|172:15|260:55,1,200,8|2,0:3|0:3,0:0:0:0:
316,140,113157,1,0,0:0:0:0:
356,232,113463,6,0,B|404:308|480:268|480:268|488:208,1,200,8|2,0:3|0:3,0:0:0:0:
496,116,114381,1,0,0:0:0:0:
416,56,114687,2,0,P|376:36|320:24,1,99.9999999999999,8|0,3:0|0:0,0:0:0:0:
220,24,115300,2,0,P|171:34|126:55,1,99.9999999999999,2|0,0:3|0:0,0:0:0:0:
64,132,115912,6,0,B|64:228|124:252|124:252|208:212,1,200,8|2,0:3|0:3,0:0:0:0:
256,168,116830,1,0,0:0:0:0:
336,227,117136,2,0,B|388:252|388:252|448:228|448:132,1,200,8|2,0:3|0:3,0:0:0:0:
404,40,118055,1,0,0:0:0:0:
320,91,118361,6,0,P|275:114|226:123,1,99.9999999999999,8|0,0:3|0:0,0:0:0:0:
144,184,118973,2,0,P|185:211|218:248,1,99.9999999999999,2|0,0:3|0:0,0:0:0:0:
312,288,119585,2,0,P|314:238|331:191,2,99.9999999999999,8|8|8,0:0|0:0|0:0,0:0:0:0:
384,360,120504,1,4,0:3:0:0:
456,292,120810,5,4,0:0:0:0:
256,264,130606,6,0,L|256:156,1,99.9999999999999,8|8,0:0|0:0,0:0:0:0:
256,64,131218,2,0,B|184:44|184:44|112:64,2,150,8|2|2,0:0|0:0|0:0,0:0:0:0:
348,104,132442,2,0,L|348:220,1,99.9999999999999,8|2,0:0|0:0,0:0:0:0:
348,304,133055,5,8,0:0:0:0:
160,236,133667,2,0,B|88:208|88:208|48:120,2,150,8|8|8,0:0|0:0|0:0,0:0:0:0:
256,260,134891,2,0,L|256:132,1,99.9999999999999,2|2,0:0|0:0,0:0:0:0:
208,72,135504,6,0,B|256:56|256:56|316:76,1,99.9999999999999,8|8,0:0|0:0,0:0:0:0:
380,132,136116,2,0,L|380:296,2,150,8|8|2,0:0|0:0|0:1,0:0:0:0:
284,156,137340,2,0,L|284:276,1,99.9999999999999,8|2,0:0|0:0,0:0:0:0:
184,276,137953,6,0,B|164:200|164:200|183:131,2,150,2|2|2,0:1|0:1|0:1,0:0:0:0:
368,200,139483,2,0,L|248:200,2,99.9999999999999,2|8|8,0:0|0:0|0:0,0:0:0:0:
468,200,140402,6,0,P|424:120|324:112,1,200,6|0,0:0|0:0,0:0:0:0:
268,200,141320,1,0,0:0:0:0:
216,112,141626,2,0,P|120:116|71:199,1,200,2|0,0:0|0:0,0:0:0:0:
96,296,142544,1,0,0:0:0:0:
180,240,142851,6,0,P|249:215|319:239,2,150,2|0|0,0:0|0:0|0:0,0:0:0:0:
96,296,144075,2,0,P|80:236|168:140,1,200,2|0,0:0|0:0,0:0:0:0:
256,100,144993,1,0,0:0:0:0:
348,140,145300,6,0,P|423:200|416:296,1,200,2|0,0:0|0:0,0:0:0:0:
336,356,146218,1,0,0:0:0:0:
276,276,146524,2,0,B|224:216|224:216|140:224|104:288,1,200,2|0,0:0|0:0,0:0:0:0:
52,340,147442,1,0,0:0:0:0:
28,244,147749,6,0,B|60:160|200:104|272:136|272:136|356:232,1,400,4|2,3:0|0:0,0:0:0:0:
452,48,149585,6,0,P|404:61|360:105,2,99.9999999999999,0|0|2,0:0|0:0|0:0,0:0:0:0:
456,248,150810,2,0,P|468:200|452:140,2,99.9999999999999,0|0|2,0:0|0:0|0:0,0:0:0:0:
284,148,152034,2,0,P|319:182|379:198,2,99.9999999999999,0|0|4,0:0|0:0|0:3,0:0:0:0:
256,192,152723,12,2,155095,0:0:0:0:
0,166,156932,5,0,0:0:0:0:
47,308,157391,2,0,P|119:323|184:288,1,150,0|8,0:0|0:0,0:0:0:0:
236,204,158156,2,0,P|280:156|312:136,1,99.9999999999999,2|8,0:0|0:0,0:0:0:0:
408,136,158769,2,0,P|448:164|481:202,1,99.9999999999999,2|8,0:0|0:0,0:0:0:0:
432,292,159381,6,0,P|359:307|286:293,2,150,2|4|8,0:0|0:0|0:0,0:0:0:0:
481,202,160606,2,0,P|464:116|352:28,1,200,2|2,0:0|0:0,0:0:0:0:
288,24,161524,1,8,0:0:0:0:
224,100,161830,6,0,P|164:138|72:144,2,150,2|4|8,0:0|0:0|0:0,0:0:0:0:
288,24,163055,2,0,L|356:112,1,99.9999999999999,2|8,0:0|0:0,0:0:0:0:
348,204,163667,2,0,L|260:272,1,99.9999999999999,2|8,0:0|0:0,0:0:0:0:
180,308,164279,6,0,P|152:244|176:168,2,150,2|4|8,0:0|0:0|0:0,0:0:0:0:
264,360,165504,2,0,B|376:360|376:360|420:336|436:284,1,200,2|2,0:0|0:0,0:0:0:0:
456,200,166422,1,8,0:0:0:0:
392,124,166728,6,0,B|352:84|352:84|312:76|312:76|264:28,2,150,2|4|8,0:0|0:0|0:0,0:0:0:0:
456,200,167953,2,0,P|412:220|352:212,1,99.9999999999999,2|8,0:0|0:0,0:0:0:0:
276,168,168565,2,0,P|232:148|172:156,1,99.9999999999999,2|8,0:0|0:0,0:0:0:0:
96,204,169177,6,0,L|48:360,2,150,2|4|8,0:0|0:0|0:0,0:0:0:0:
132,111,170402,2,0,P|220:71|308:112,1,200,2|2,0:0|0:0,0:0:0:0:
364,196,171320,1,8,0:0:0:0:
448,140,171626,6,0,B|504:88|504:88|504:12,2,150,2|4|2,0:0|0:0|0:0,0:0:0:0:
364,196,172851,2,0,L|268:252,1,99.9999999999999,2|8,0:0|0:0,0:0:0:0:
184,280,173463,2,0,P|104:236|84:196,1,99.9999999999999,2|8,0:0|0:0,0:0:0:0:
36,156,174075,6,0,B|8:84|8:84|36:16,2,150,2|4|8,0:0|0:0|0:0,0:0:0:0:
108,84,175300,2,0,L|216:84,1,99.9999999999999,2|8,0:0|0:0,0:0:0:0:
280,152,175912,2,0,L|392:152,1,99.9999999999999,2|8,0:0|0:0,0:0:0:0:
408,248,176524,6,0,P|335:264|262:247,2,150,2|4|8,0:0|0:0|0:0,0:0:0:0:
480,180,177749,2,0,P|476:100|340:60,1,200,2|2,0:0|0:0,0:0:0:0:
292,92,178667,1,8,0:0:0:0:
204,140,178973,6,0,P|108:136|48:108,2,150,2|4|8,0:0|0:0|0:0,0:0:0:0:
292,92,180197,2,0,P|344:128|376:168,1,99.9999999999999,2|8,0:0|0:0,0:0:0:0:
368,256,180810,2,0,P|334:292|292:319,1,99.9999999999999,2|8,0:0|0:0,0:0:0:0:
212,260,181422,6,0,P|132:216|68:212,2,150,2|4|8,0:0|0:0|0:0,0:0:0:0:
292,319,182646,2,0,P|331:210|291:142,1,200,2|2,0:0|0:0,0:0:0:0:
212,84,183565,1,8,0:0:0:0:
156,168,183871,6,0,L|76:320,2,150,2|4|8,0:0|0:0|0:0,0:0:0:0:
212,84,185095,2,0,P|260:64|328:68,1,99.9999999999999,2|8,0:0|0:0,0:0:0:0:
396,108,185708,2,0,P|427:149|441:215,1,99.9999999999999,2|8,0:0|0:0,0:0:0:0:
396,284,186320,6,0,B|320:296|320:296|260:240,2,150,2|4|8,0:0|0:0|0:0,0:0:0:0:
440,194,187544,2,0,P|392:100|304:72,1,200,2|2,0:0|0:0,0:0:0:0:
228,132,188463,1,8,0:0:0:0:
148,192,188769,6,0,B|72:192|72:192|16:132,2,150,2|8|8,0:0|0:0|0:0,0:0:0:0:
228,132,189993,2,0,P|292:100|328:96,1,99.9999999999999,2|8,0:0|0:0,0:0:0:0:
412,132,190606,2,0,L|456:244,1,99.9999999999999,2|8,0:0|0:0,0:0:0:0:
468,324,191218,6,0,P|404:348|308:300,2,150,2|4|8,0:0|0:0|0:0,0:0:0:0:
448,225,192442,2,0,L|336:225,1,99.9999999999999,2|8,0:0|0:0,0:0:0:0:
248,228,193055,1,12,0:0:0:0:
148,228,193361,1,12,0:0:0:0:
200,144,193667,6,0,P|232:80|196:4,2,150,8|4|2,0:0|0:0|0:0,0:0:0:0:
148,228,194891,2,0,P|108:184|104:132,1,99.9999999999999,2|2,0:0|0:0,0:0:0:0:
200,144,195504,2,0,P|240:188|244:240,1,99.9999999999999,2|2,0:0|0:0,0:0:0:0:
200,316,196116,2,0,L|92:336,1,99.9999999999999,2|2,0:1|0:1,0:0:0:0:
256,192,196728,12,4,199177,0:0:0:0:
88,188,204075,6,0,P|140:228|176:236,1,99.9999999999999,4|8,0:0|0:0,0:0:0:0:
272,236,204687,2,0,P|319:221|356:188,1,99.9999999999999,2|8,0:0|0:0,0:0:0:0:
356,88,205299,2,0,P|403:102|440:135,2,99.9999999999999,2|8|2,0:0|0:0|0:0,0:0:0:0:
256,112,206218,1,8,0:0:0:0:
176,168,206524,6,0,P|120:192|52:200,2,99.9999999999999,4|8|2,0:0|0:0|0:0,0:0:0:0:
256,112,207442,1,8,0:0:0:0:
335,167,207749,2,0,P|381:188|430:199,1,99.9999999999999,8|8,0:0|0:0,0:0:0:0:
444,100,208361,2,0,P|398:79|349:68,1,99.9999999999999,8|2,0:0|0:0,0:0:0:0:
256,112,208973,6,0,P|180:157|92:168,2,150,4|2|2,0:0|0:0|0:0,0:0:0:0:
338,54,210197,2,0,L|407:137,1,99.9999999999999,0|2,3:0|0:0,0:0:0:0:
468,208,210810,1,8,0:0:0:0:
404,288,211116,1,4,0:0:0:0:
344,208,211422,6,0,P|272:176|168:200,2,150,8|8|8,0:0|0:0|0:0,0:0:0:0:
404,288,212646,2,0,L|288:336,1,99.9999999999999,2|2,0:1|0:0,0:0:0:0:
212,324,213259,2,0,L|56:256,1,150,8|8,0:0|0:0,0:0:0:0:
