osu file format v14

[General]
AudioFilename: audio.mp3
AudioLeadIn: 0
PreviewTime: 71787
Countdown: 0
SampleSet: Soft
StackLeniency: 0.5
Mode: 0
LetterboxInBreaks: 0
WidescreenStoryboard: 1

[Editor]
Bookmarks: 29,19916,22197,38748,55300,63576,88403,96938,99007,113231,121507,129783,146334,154610,162886,175272,180466,194948,210983,225983
DistanceSpacing: 1
BeatDivisor: 4
GridSize: 16
TimelineZoom: 3.299999

[Metadata]
Title:Hanabi
TitleUnicode:華火
Artist:Wagakki Band
ArtistUnicode:和楽器バンド
Creator:Shiro
Version:Fireworks
Source:
Tags:Odaril
BeatmapID:1743930
BeatmapSetID:832426

[Difficulty]
HPDrainRate:6
CircleSize:4
OverallDifficulty:9.5
ApproachRate:10
SliderMultiplier:1.7
SliderTickRate:1

[Events]
//Background and Video events
0,0,"wallpaper-2173461.jpg",0,0
//Break Periods
2,180466,187707
//Storyboard Layer 0 (Background)
//Storyboard Layer 1 (Fail)
//Storyboard Layer 2 (Pass)
//Storyboard Layer 3 (Foreground)
//Storyboard Layer 4 (Overlay)
//Storyboard Sound Samples

[TimingPoints]
29,260.869565217391,4,2,1,10,1,0
289,279.06976744186,4,2,1,10,1,0
289,-100,4,2,1,10,0,0
707,485.82995951417,4,2,1,10,1,0
707,-100,4,2,1,10,0,0
828,-100,4,2,1,10,0,0
1678,-100,4,2,1,10,0,0
1921,-100,4,2,1,10,0,0
3864,600,4,2,1,10,1,0
4464,465.116279069767,4,2,1,10,1,0
5394,521.739130434783,4,2,1,10,1,0
5915,452.830188679245,4,2,1,10,1,0
5915,-100,4,2,1,10,0,0
6141,-100,4,2,1,10,0,0
7726,428.571428571429,4,2,1,10,1,0
8368,-100,4,2,1,10,0,0
8583,-100,4,2,1,10,0,0
9654,-100,4,2,1,10,0,0
11020,319.148936170213,4,2,1,10,1,0
11020,-100,4,2,1,10,0,0
11339,476.190476190476,4,2,1,10,1,0
11339,-100,4,2,1,10,0,0
11458,-100,4,2,1,10,0,0
12172,-100,4,2,1,10,0,0
12291,659.340659340659,4,2,1,10,1,0
12950,600,4,2,1,10,1,0
14450,833.333333333333,4,2,1,10,1,0
15283,508.474576271186,4,2,1,10,1,0
15791,420.757363253857,4,2,1,10,1,0
19853,252.100840336134,4,1,1,65,1,0
20105,258.620689655172,4,1,1,100,1,0
20234,263.157894736842,4,1,1,100,1,0
21023,270.27027027027,4,1,1,100,1,0
21664,266.666666666667,4,1,1,100,1,0
21664,-100,4,2,1,65,0,0
21730,-200,4,2,1,65,0,0
22130,-100,4,2,1,20,0,0
22197,258.620689655172,4,2,1,100,1,0
22197,-100,4,2,2,65,0,0
23296,-100,4,2,1,65,0,0
23425,-100,4,2,2,65,0,0
23684,-100,4,2,1,65,0,0
23813,-100,4,2,2,65,0,0
24071,-100,4,2,1,65,0,0
24201,-100,4,2,2,65,0,0
24330,-100,4,2,1,65,0,0
24459,-100,4,2,2,65,0,0
24718,-100,4,2,1,65,0,0
24847,-100,4,2,2,65,0,0
25106,-100,4,2,1,65,0,0
25235,-100,4,2,2,65,0,0
27434,-100,4,2,1,65,0,0
27563,-100,4,2,2,65,0,0
27821,-100,4,2,1,65,0,0
27951,-100,4,2,2,65,0,0
28209,-100,4,2,1,65,0,0
28339,-100,4,2,2,65,0,0
28468,-100,4,2,1,65,0,0
28597,-100,4,2,2,65,0,0
28727,-100,4,2,1,65,0,0
28856,-100,4,2,2,65,0,0
29503,-100,4,2,1,65,0,0
29632,-100,4,2,2,65,0,0
29890,-100,4,2,1,65,0,0
30020,-100,4,2,2,65,0,0
31571,-100,4,2,1,65,0,0
31701,-100,4,2,2,65,0,0
31959,-100,4,2,1,65,0,0
32089,-100,4,2,2,65,0,0
32347,-100,4,2,1,65,0,0
32477,-100,4,2,2,65,0,0
32606,-100,4,2,1,65,0,0
32735,-100,4,2,2,65,0,0
32994,-100,4,2,1,65,0,0
33123,-100,4,2,2,65,0,0
33382,-100,4,2,1,65,0,0
33511,-100,4,2,2,65,0,0
35709,-100,4,2,1,65,0,0
35839,-100,4,2,2,65,0,0
35968,-100,4,2,1,65,0,0
36679,-100,4,1,1,65,0,0
38748,-100,4,2,1,45,0,0
55235,-100,4,2,2,45,0,0
55365,-100,4,2,1,45,0,0
55623,-100,4,2,2,45,0,0
55753,-100,4,2,1,45,0,0
55882,-100,4,2,2,45,0,0
56140,-100,4,2,1,45,0,0
56270,-100,4,2,2,45,0,0
57175,-100,4,2,1,45,0,0
59373,-100,4,2,2,45,0,0
59761,-100,4,2,1,20,0,0
59890,-100,4,2,2,45,0,0
60020,-100,4,2,1,20,0,0
60149,-100,4,2,2,45,0,0
60408,-100,4,2,1,45,0,0
60537,-100,4,2,2,45,0,0
60925,-100,4,2,1,20,0,0
61054,-100,4,2,2,45,0,0
61442,-100,4,2,1,50,0,0
68813,-100,4,2,1,53,0,0
68942,-100,4,2,1,56,0,0
69071,-100,4,2,1,59,0,0
69201,-100,4,2,1,62,0,0
69330,-100,4,2,1,65,0,0
69459,-100,4,2,1,68,0,0
69589,-100,4,2,1,71,0,0
69718,-100,4,2,1,74,0,0
70138,-100,4,2,2,74,0,0
70268,-100,4,2,1,74,0,0
70914,-100,4,2,2,74,0,0
71043,-100,4,2,1,74,0,0
71852,-100,4,2,1,75,0,1
78770,-100,4,2,2,75,0,1
79158,-100,4,2,1,75,0,1
79287,-100,4,2,2,75,0,1
79546,-100,4,2,1,75,0,1
79675,-100,4,2,2,75,0,1
80063,-100,4,2,1,75,0,1
86270,-100,4,2,2,75,0,1
88339,-100,4,2,1,75,0,1
88403,-133.333333333333,4,2,1,50,0,0
89696,-133.333333333333,4,2,1,5,0,0
89761,-133.333333333333,4,2,1,50,0,0
90084,-133.333333333333,4,2,1,5,0,0
90149,-133.333333333333,4,2,1,50,0,0
90408,-133.333333333333,4,2,1,5,0,0
90440,-133.333333333333,4,2,1,50,0,0
96550,-200,4,2,1,50,0,0
96938,-100,4,2,1,50,0,0
104373,-100,4,2,2,50,0,0
104761,-100,4,2,1,50,0,0
106313,-100,4,2,2,50,0,0
106442,-100,4,2,1,50,0,0
106959,-100,4,2,2,50,0,0
107089,-100,4,2,1,50,0,0
107477,-100,4,2,2,50,0,0
107606,-100,4,2,1,50,0,0
108285,-100,4,2,2,50,0,0
108382,-100,4,2,1,50,0,0
108511,-100,4,2,2,50,0,0
108640,-100,4,2,1,50,0,0
108770,-100,4,2,2,50,0,0
108899,-100,4,2,1,50,0,0
109028,-100,4,2,2,50,0,0
109158,-100,4,2,1,50,0,0
110063,-100,4,2,2,50,0,0
110192,-100,4,2,1,50,0,0
111097,-100,4,2,2,50,0,0
111744,-100,4,2,1,50,0,0
113231,-100,4,2,1,65,0,0
121475,-100,4,2,2,65,0,0
121507,-100,4,2,2,50,0,0
121895,-100,4,2,1,30,0,0
121959,-100,4,2,2,50,0,0
122283,-100,4,2,1,30,0,0
122347,-100,4,2,2,50,0,0
122671,-100,4,2,1,5,0,0
122735,-100,4,2,2,50,0,0
122929,-100,4,2,1,30,0,0
123446,-100,4,2,2,50,0,0
123640,-100,4,2,1,5,0,0
123770,-100,4,2,2,50,0,0
123899,-100,4,2,1,5,0,0
124028,-100,4,2,2,50,0,0
124158,-100,4,2,1,5,0,0
124287,-100,4,2,2,50,0,0
124675,-100,4,2,1,5,0,0
124804,-100,4,2,2,50,0,0
124934,-100,4,2,1,5,0,0
125063,-100,4,2,2,50,0,0
125192,-100,4,2,1,5,0,0
125321,-100,4,2,2,50,0,0
125451,-100,4,2,1,5,0,0
125580,-100,4,2,1,50,0,0
126744,-100,4,2,1,53,0,0
126873,-100,4,2,1,56,0,0
127003,-100,4,2,1,59,0,0
127132,-100,4,2,1,62,0,0
127261,-100,4,2,1,65,0,0
127390,-100,4,2,1,68,0,0
127520,-100,4,2,1,71,0,0
127649,-100,4,2,1,74,0,0
129783,-100,4,2,1,75,0,1
136765,-100,4,2,2,75,0,1
137089,-100,4,2,1,75,0,1
137218,-100,4,2,2,75,0,1
137477,-100,4,2,1,75,0,1
137606,-100,4,2,2,75,0,1
138059,-100,4,2,1,75,0,1
144201,-100,4,2,2,75,0,1
146334,-100,4,2,2,65,0,0
146508,-100,4,2,1,65,0,0
146573,-100,4,2,2,65,0,0
146961,-100,4,2,1,65,0,0
147090,-100,4,2,2,65,0,0
147220,-100,4,2,1,65,0,0
147349,-100,4,2,2,65,0,0
147737,-100,4,2,1,65,0,0
147866,-100,4,2,2,65,0,0
147995,-100,4,2,1,65,0,0
148125,-100,4,2,2,65,0,0
148577,-100,4,2,1,65,0,0
148642,-100,4,2,2,65,0,0
149030,-100,4,2,1,65,0,0
149159,-100,4,2,2,65,0,0
149289,-100,4,2,1,65,0,0
149418,-100,4,2,2,65,0,0
149806,-100,4,2,1,65,0,0
149935,-100,4,2,2,65,0,0
150064,-100,4,2,1,65,0,0
150194,-100,4,2,2,65,0,0
150646,-100,4,2,1,65,0,0
150711,-100,4,2,2,65,0,0
151099,-100,4,2,1,65,0,0
151228,-100,4,2,2,65,0,0
151358,-100,4,2,1,65,0,0
151487,-100,4,2,2,65,0,0
151875,-100,4,2,1,65,0,0
152004,-100,4,2,2,65,0,0
152133,-100,4,2,1,65,0,0
152263,-100,4,2,2,65,0,0
152715,-100,4,2,1,65,0,0
152780,-100,4,2,2,65,0,0
153168,-100,4,2,1,65,0,0
153297,-100,4,2,2,65,0,0
153426,-100,4,2,1,65,0,0
153556,-100,4,2,2,65,0,0
153944,-100,4,2,1,65,0,0
154073,-100,4,2,2,65,0,0
154202,-100,4,2,1,65,0,0
154332,-100,4,2,2,65,0,0
154546,-100,4,2,1,50,0,0
160817,-100,4,2,1,50,0,0
161076,-100,4,2,2,50,0,0
161464,-100,4,2,1,50,0,0
161528,-100,4,2,2,50,0,0
161722,-100,4,2,1,50,0,0
161787,-100,4,2,2,50,0,0
162878,-133.333333333333,4,2,1,50,0,0
163856,-133.333333333333,4,2,2,50,0,0
163985,-133.333333333333,4,2,1,50,0,0
164115,-133.333333333333,4,2,2,50,0,0
164244,-133.333333333333,4,2,1,50,0,0
164373,-133.333333333333,4,2,2,50,0,0
164503,-133.333333333333,4,2,1,50,0,0
164632,-133.333333333333,4,2,2,50,0,0
164761,-133.333333333333,4,2,1,50,0,0
164890,-133.333333333333,4,2,1,50,0,0
168253,-133.333333333333,4,2,2,50,0,0
168640,-133.333333333333,4,2,1,50,0,0
168770,-133.333333333333,4,2,2,50,0,0
168899,-133.333333333333,4,2,1,50,0,0
171097,-133.333333333333,4,2,2,50,0,0
171227,-133.333333333333,4,2,1,50,0,0
171388,-133.333333333333,4,2,2,50,0,0
171744,-133.333333333333,4,2,1,50,0,0
171873,-133.333333333333,4,2,2,50,0,0
172003,-133.333333333333,4,2,1,50,0,0
172132,-133.333333333333,4,2,2,50,0,0
172261,-133.333333333333,4,2,1,50,0,0
172908,-133.333333333333,4,2,2,50,0,0
173037,-133.333333333333,4,2,1,50,0,0
173166,-133.333333333333,4,2,2,50,0,0
173296,-133.333333333333,4,2,1,50,0,0
173684,-133.333333333333,4,2,2,50,0,0
173813,-133.333333333333,4,2,1,50,0,0
174238,258.620689655172,4,2,1,50,1,0
174238,-100,4,2,1,50,0,0
175272,276.497695852535,4,2,1,50,1,0
175272,-100,4,2,1,50,0,0
175410,-100,4,2,1,35,0,0
175826,258.620689655172,4,2,1,35,1,0
175955,-100,4,2,1,40,0,0
176213,-100,4,2,1,45,0,0
176472,-100,4,2,1,50,0,0
180466,258.620689655172,4,2,1,65,1,0
188871,-100,4,2,2,65,0,0
190681,-100,4,2,1,59,0,0
192912,-100,4,2,1,61,0,0
192976,-100,4,2,1,63,0,0
193041,-100,4,2,1,65,0,0
193106,-100,4,2,1,67,0,0
193170,-100,4,2,1,69,0,0
193235,-100,4,2,1,71,0,0
193300,-100,4,2,1,73,0,0
193364,-100,4,2,1,75,0,0
194948,-100,4,2,1,75,0,1
201866,-100,4,2,2,75,0,1
202254,-100,4,2,1,75,0,1
202384,-100,4,2,2,75,0,1
202642,-100,4,2,1,75,0,1
202772,-100,4,2,2,75,0,1
203159,-100,4,2,1,75,0,1
207879,-100,4,2,1,45,0,1
208397,-100,4,2,1,55,0,1
208914,-100,4,2,1,65,0,1
209302,-100,4,2,1,75,0,1
209431,-100,4,2,1,40,0,0
210983,-100,4,2,1,60,0,0
211468,-100,4,2,2,60,0,0
211515,258.620689655172,4,2,1,100,1,0
211579,-100,4,2,1,60,0,0
211708,-100,4,2,2,60,0,0
211837,-100,4,2,1,60,0,0
211967,-100,4,2,2,60,0,0
212096,-100,4,2,1,60,0,0
212225,-100,4,2,2,60,0,0
212354,-100,4,2,1,60,0,0
212484,-100,4,2,2,60,0,0
212613,-100,4,2,1,60,0,0
212742,-100,4,2,2,60,0,0
212872,-100,4,2,1,60,0,0
213001,-100,4,2,2,60,0,0
213130,-100,4,2,1,60,0,0
213260,-100,4,2,2,60,0,0
213389,-100,4,2,1,60,0,0
213518,-100,4,2,2,60,0,0
213648,-100,4,2,1,60,0,0
213777,-100,4,2,2,60,0,0
214036,-100,4,2,1,60,0,0
214165,-100,4,2,2,60,0,0
214423,-100,4,2,1,60,0,0
214553,-100,4,2,2,60,0,0
216751,-100,4,2,1,60,0,0
216880,-100,4,2,2,60,0,0
217139,-100,4,2,1,60,0,0
217268,-100,4,2,2,60,0,0
217527,-100,4,2,1,60,0,0
217656,-100,4,2,2,60,0,0
217786,-100,4,2,1,60,0,0
217915,-100,4,2,2,60,0,0
218173,-100,4,2,1,60,0,0
218303,-100,4,2,2,60,0,0
218561,-100,4,2,1,60,0,0
218691,-100,4,2,2,60,0,0
220889,-100,4,2,1,60,0,0
221018,-100,4,2,2,60,0,0
221277,-100,4,2,1,60,0,0
221406,-100,4,2,2,60,0,0
221665,-100,4,2,1,60,0,0
221794,-100,4,2,2,60,0,0
221923,-100,4,2,1,60,0,0
222053,-100,4,2,2,60,0,0
222311,-100,4,2,1,60,0,0
222441,-100,4,2,2,60,0,0
222699,-100,4,2,1,60,0,0
222829,-100,4,2,2,60,0,0
225027,-100,4,2,1,60,0,0
225156,-100,4,2,2,60,0,0
225286,-100,4,2,1,60,0,0
225964,-100,4,1,1,60,0,0
229811,-100,4,2,1,60,0,0
230652,-100,4,2,1,80,0,0
231686,-100,4,2,1,75,0,0
232204,-100,4,2,1,70,0,0
232721,-100,4,2,1,65,0,0
233238,-100,4,2,1,60,0,0
233755,-100,4,2,1,55,0,0
234273,-100,4,2,1,50,0,0
234790,-100,4,2,1,45,0,0
235307,-100,4,2,1,40,0,0
235824,-100,4,2,1,35,0,0
236342,-100,4,2,1,30,0,0
236859,-100,4,2,1,15,0,0

[Colours]
Combo1 : 230,155,0
Combo2 : 236,77,0
Combo3 : 124,50,5

[HitObjects]
111,128,29,5,0,0:0:0:0:
39,279,289,2,0,L|93:299,3,56.6666666666667
172,310,707,2,0,B|236:253|236:253|252:288|285:313|335:315|364:296|382:270|393:248|398:221|388:192,1,311.666666666667
333,75,1840,2,0,B|306:101|298:121|247:151|198:166|117:171|45:122|45:122|58:88|95:67|131:70|131:70|140:172|110:243,1,595
180,286,3621,2,0,P|194:253|202:221,1,56.6666666666667
247,329,3864,6,0,B|240:357|240:357|298:352|355:375,1,141.666666666667
429,242,4464,2,0,B|436:270|436:270|377:265|321:288,1,141.666666666667
247,155,4929,2,0,B|240:183|240:183|298:178|355:201,1,141.666666666667
429,68,5394,2,0,B|436:96|436:96|377:91|320:114,1,141.666666666667
244,81,5915,5,0,0:0:0:0:
162,50,6065,2,0,B|102:101|36:109|36:109|68:163|63:250|63:250|126:229|204:259|204:259|232:220|296:215|325:257,1,566.666666666667
256,192,7726,12,0,10726,0:0:0:0:
378,91,11020,6,0,L|410:148,3,42.5
439,195,11339,2,0,P|407:303|303:254,1,255
288,184,12172,1,0,0:0:0:0:
270,111,12291,2,0,P|177:48|147:78,1,170
41,336,13550,5,0,0:0:0:0:
111,300,14450,1,0,0:0:0:0:
183,341,15283,1,0,0:0:0:0:
41,48,15791,1,0,0:0:0:0:
41,48,15896,1,0,0:0:0:0:
256,192,16001,12,0,18315,0:0:0:0:
114,123,19853,5,4,2:1:0:0:
144,286,19979,2,0,L|152:327,2,42.5,4|0|8,2:1|2:1|2:1,2:1:0:0:
127,204,20234,1,4,2:1:0:0:
127,204,20497,1,4,2:1:0:0:
127,204,20760,1,4,2:1:0:0:
323,203,20891,1,8,2:1:0:0:
227,247,21023,1,4,2:1:0:0:
227,247,21293,1,4,2:1:0:0:
227,247,21563,1,4,2:1:0:0:
423,246,21664,1,4,2:3:0:0:
423,246,21730,2,0,P|432:187|413:124,1,127.5
364,60,22197,5,2,0:0:0:0:
215,172,22326,1,0,0:0:0:0:
209,87,22455,1,8,0:0:0:0:
150,227,22584,1,0,0:0:0:0:
306,218,22714,1,2,0:0:0:0:
322,134,22843,1,0,0:0:0:0:
228,254,22972,1,8,0:0:0:0:
381,285,23102,1,0,0:0:0:0:
478,115,23231,2,0,L|447:21,1,85,2|0,0:0|2:0,0:0:0:0:
296,300,23490,1,8,0:0:0:0:
411,94,23619,2,0,L|356:11,1,85,2|0,0:0|0:0,0:0:0:0:
418,208,23878,1,2,0:0:0:0:
340,91,24007,2,0,L|266:25,1,85,8|0,0:0|0:0,0:0:0:0:
92,171,24265,6,0,P|69:211|34:239,1,85,2|0,0:0|0:0,0:0:0:0:
111,83,24524,1,8,0:0:0:0:
156,230,24653,2,2,P|179:270|214:298,1,85,0|2,0:0|0:0,0:0:0:0:
171,145,24912,1,0,0:0:0:0:
92,289,25041,1,8,0:0:0:0:
1,163,25171,1,0,0:0:0:0:
239,203,25300,1,2,0:0:0:0:
332,162,25429,1,0,0:0:0:0:
251,103,25559,1,8,0:0:0:0:
320,262,25688,1,0,0:0:0:0:
413,221,25817,1,2,0:0:0:0:
332,162,25947,1,0,0:0:0:0:
402,321,26076,1,8,0:0:0:0:
506,180,26205,1,0,0:0:0:0:
331,76,26334,5,2,0:0:0:0:
158,145,26463,1,0,0:0:0:0:
174,61,26592,1,8,0:0:0:0:
81,181,26721,1,0,0:0:0:0:
234,213,26851,1,2,0:0:0:0:
271,136,26980,1,0,0:0:0:0:
149,228,27109,1,8,0:0:0:0:
289,297,27239,1,0,0:0:0:0:
426,158,27368,2,0,L|420:59,1,85,2|0,0:0|0:0,0:0:0:0:
195,311,27627,1,8,0:0:0:0:
346,154,27757,2,0,L|377:248,1,85,2|0,0:0|0:0,0:0:0:0:
103,327,28015,1,2,0:0:0:0:
271,136,28144,2,0,L|216:53,1,85,8|0,0:0|0:0,0:0:0:0:
61,206,28403,6,0,P|27:238|9:290,1,85,2|0,0:0|0:0,0:0:0:0:
103,327,28662,2,8,P|136:294|154:242,1,85,8|0,0:0|0:0,0:0:0:0:
149,164,28921,1,2,0:0:0:0:
12,273,29050,1,0,0:0:0:0:
240,218,29179,1,8,0:0:0:0:
103,327,29308,1,0,0:0:0:0:
304,158,29438,2,0,L|394:192,1,85,2|0,0:0|0:0,0:0:0:0:
351,16,29696,1,8,0:0:0:0:
324,247,29826,2,0,L|414:281,1,85,2|0,0:0|0:0,0:0:0:0:
371,105,30084,1,2,0:0:0:0:
344,336,30214,1,8,0:0:0:0:
157,197,30343,1,8,0:0:0:0:
157,197,30408,1,8,0:0:0:0:
157,197,30472,5,2,0:0:0:0:
88,73,30602,1,0,0:0:0:0:
173,56,30731,1,8,0:0:0:0:
78,160,30860,1,0,0:0:0:0:
217,133,30990,1,2,0:0:0:0:
295,168,31119,1,0,0:0:0:0:
157,197,31248,1,8,0:0:0:0:
286,257,31378,1,0,0:0:0:0:
114,278,31507,2,0,L|46:349,1,85,2|0,0:0|0:0,0:0:0:0:
217,133,31765,1,8,0:0:0:0:
199,273,31895,2,0,L|185:370,1,85,2|0,0:0|0:0,0:0:0:0:
141,123,32153,1,2,0:0:0:0:
286,257,32283,2,0,L|332:343,1,85,8|0,0:0|0:0,0:0:0:0:
430,117,32541,6,0,P|453:82|496:52,1,85,2|0,0:0|0:0,0:0:0:0:
480,197,32800,1,8,0:0:0:0:
346,75,32929,2,0,P|308:56|256:51,1,85,0|2,0:0|0:0,0:0:0:0:
178,188,33188,1,0,0:0:0:0:
342,169,33317,1,8,0:0:0:0:
276,320,33446,1,0,0:0:0:0:
109,238,33576,1,2,0:0:0:0:
63,157,33705,1,0,0:0:0:0:
91,68,33834,1,8,0:0:0:0:
187,268,33964,1,0,0:0:0:0:
140,348,34093,1,2,0:0:0:0:
49,368,34222,1,0,0:0:0:0:
178,188,34352,1,8,0:0:0:0:
334,257,34481,1,0,0:0:0:0:
103,199,34610,5,2,0:0:0:0:
240,230,34740,1,0,0:0:0:0:
236,144,34869,1,8,0:0:0:0:
158,262,34998,1,0,0:0:0:0:
149,121,35128,1,2,0:0:0:0:
95,56,35257,1,0,0:0:0:0:
103,199,35386,1,8,0:0:0:0:
11,85,35516,1,0,0:0:0:0:
34,258,35645,2,0,L|48:344,1,85,2|0,0:0|0:0,0:0:0:0:
213,325,35903,1,8,0:0:0:0:
247,114,36033,1,0,0:0:0:0:
253,102,36097,1,0,0:0:0:0:
260,92,36162,1,0,0:0:0:0:
268,82,36226,1,0,0:0:0:0:
276,72,36291,1,0,0:0:0:0:
286,64,36356,1,0,0:0:0:0:
296,56,36420,1,0,0:0:0:0:
307,50,36485,1,0,0:0:0:0:
318,44,36550,1,0,0:0:0:0:
330,39,36614,1,0,0:0:0:0:
342,35,36679,5,2,1:0:0:0:
453,239,36809,2,0,L|470:332,1,85,6|0,0:2|2:0,0:0:0:0:
197,161,37067,2,0,L|214:254,1,85,6|0,0:2|2:0,0:0:0:0:
392,173,37326,1,0,0:0:0:0:
99,337,37455,1,2,0:0:0:0:
370,254,37584,2,0,L|387:347,1,85,6|0,0:2|2:0,0:0:0:0:
114,176,37842,2,0,L|131:269,1,85,6|0,0:2|2:0,0:0:0:0:
309,188,38102,1,0,0:0:0:0:
16,352,38231,1,2,0:0:0:0:
287,269,38360,1,2,1:2:0:0:
452,52,38748,6,0,P|408:41|326:55,1,127.5,4|0,0:0|0:0,0:0:0:0:
287,69,39007,1,8,0:0:0:0:
101,90,39136,2,0,L|12:68,1,85
196,196,39395,2,0,L|107:174,1,85,0|8,0:0|0:0,0:0:0:0:
296,306,39653,2,0,L|381:339,1,85
341,226,39912,2,0,L|430:203,1,85,0|8,0:0|0:0,0:0:0:0:
279,158,40171,2,0,L|339:88,1,85
207,288,40429,1,2,0:0:0:0:
38,231,40559,2,0,L|17:140,1,85,8|0,0:0|0:0,0:0:0:0:
228,35,40817,6,0,P|282:23|362:25,1,127.5
395,35,41076,1,8,0:0:0:0:
451,224,41205,2,0,L|466:321,1,85
362,224,41464,2,0,L|318:312,1,85,0|8,0:0|0:0,0:0:0:0:
179,117,41722,2,0,L|90:95,1,85
180,215,41981,2,0,L|269:237,1,85,0|8,0:0|0:0,0:0:0:0:
85,181,42240,2,0,L|-4:203,1,85
100,273,42498,1,0,0:0:0:0:
265,149,42628,2,0,L|354:127,1,85,8|0,0:0|0:0,0:0:0:0:
453,292,42886,6,0,P|402:319|330:330,1,127.5
290,326,43145,1,8,0:0:0:0:
180,215,43274,2,0,L|176:120,1,85
56,38,43533,2,0,L|60:133,1,85,0|8,0:0|0:0,0:0:0:0:
253,53,43791,2,0,L|340:31,1,85
340,209,44050,2,0,L|253:231,1,85,0|8,0:0|0:0,0:0:0:0:
403,98,44309,2,0,L|485:118,1,85
470,346,44567,1,0,0:0:0:0:
244,322,44696,2,0,L|149:333,1,85,8|0,0:0|0:0,0:0:0:0:
97,114,44955,6,0,P|129:80|167:56,1,85
161,172,45149,1,0,0:0:0:0:
169,195,45214,2,0,P|201:229|239:253,1,85,8|0,0:0|0:0,0:0:0:0:
233,137,45407,1,0,0:0:0:0:
241,114,45472,2,0,P|273:80|311:56,1,85
376,249,45731,1,8,0:0:0:0:
385,114,45860,1,0,0:0:0:0:
467,313,45990,6,0,P|432:346|388:360,1,85
295,324,46184,1,0,0:0:0:0:
276,310,46248,2,0,P|228:303|184:316,1,85,8|0,0:0|0:0,0:0:0:0:
76,203,46442,1,0,0:0:0:0:
60,188,46507,2,0,P|37:145|35:99,1,85
128,251,46701,1,0,0:0:0:0:
123,272,46766,2,0,P|97:312|58:337,1,85,12|0,0:0|0:0,0:0:0:0:
143,181,46959,1,0,0:0:0:0:
164,175,47024,6,0,B|203:164|223:186|242:207|292:199,1,127.5,4|0,0:0|0:0,0:0:0:0:
326,187,47283,1,8,0:0:0:0:
253,49,47412,2,0,L|153:69,1,85
336,93,47671,2,0,L|436:113,1,85,0|8,0:0|0:0,0:0:0:0:
390,259,47929,2,0,L|410:341,1,85
211,274,48188,2,0,L|205:359,1,85,0|8,0:0|0:0,0:0:0:0:
301,274,48446,2,0,L|307:359,1,85
122,259,48705,1,0,0:0:0:0:
132,55,48834,2,0,P|138:100|135:142,1,85,8|0,0:0|0:0,0:0:0:0:
280,178,49093,6,0,B|320:174|331:147|342:121|392:111,1,127.5
429,113,49352,1,8,0:0:0:0:
347,268,49481,2,0,L|358:352,1,85
122,259,49740,2,0,L|28:286,1,85,0|8,0:0|0:0,0:0:0:0:
187,361,49998,2,0,L|281:334,1,85
221,105,50257,2,0,L|127:132,1,85,0|8,0:0|0:0,0:0:0:0:
278,215,50515,1,0,0:0:0:0:
278,215,50580,1,0,0:0:0:0:
278,215,50645,2,0,L|372:188,1,85
187,199,50903,2,0,L|163:293,1,85,8|0,0:0|0:0,0:0:0:0:
314,115,51162,6,0,P|332:73|452:47,1,170,0|8,0:0|0:0,0:0:0:0:
441,169,51550,1,0,0:0:0:0:
491,283,51679,1,0,0:0:0:0:
341,266,51809,1,0,0:0:0:0:
491,283,51938,2,0,P|479:327|445:368,1,85,8|0,0:0|0:0,0:0:0:0:
230,368,52196,2,0,P|242:324|276:283,1,85
441,169,52455,1,8,0:0:0:0:
352,360,52584,1,0,0:0:0:0:
441,169,52714,2,0,P|429:125|395:84,1,85
188,76,52972,2,0,P|200:120|234:161,1,85,8|0,0:0|0:0,0:0:0:0:
369,220,53231,6,0,P|393:254|403:302,1,85
213,229,53490,2,0,P|172:215|136:182,1,85,8|0,0:0|0:0,0:0:0:0:
333,130,53748,2,0,P|373:117|422:122,1,85
294,280,54007,2,0,P|268:313|226:338,1,85,8|0,0:0|0:0,0:0:0:0:
237,135,54265,2,0,L|239:92,3,42.5,4|0|4|0,2:1|2:0|2:1|2:0,2:0:0:0:
158,100,54524,2,0,L|134:63,3,42.5,8|0|4|0,2:0|2:0|2:1|2:0,2:0:0:0:
73,116,54783,1,4,2:1:0:0:
33,282,54912,1,4,2:1:0:0:
169,177,55041,1,8,0:0:0:0:
232,336,55170,1,8,0:0:0:0:
283,171,55300,5,4,2:1:0:0:
283,171,55559,1,4,0:0:0:0:
334,104,55688,1,0,2:0:0:0:
315,248,55817,1,4,2:3:0:0:
251,94,55946,1,0,2:1:0:0:
313,324,56076,2,0,P|353:343|398:348,1,85,8|0,2:3|0:0,0:0:0:0:
366,186,56334,1,0,0:0:0:0:
195,161,56464,1,0,0:0:0:0:
414,118,56593,1,8,2:3:0:0:
230,241,56722,1,0,0:0:0:0:
212,253,56787,1,0,0:0:0:0:
193,264,56852,1,0,0:0:0:0:
20,164,56981,1,0,0:0:0:0:
283,171,57110,2,0,L|376:188,1,85,8|0,2:3|0:0,0:0:0:0:
450,317,57369,6,0,L|444:366,3,42.5
317,257,57628,2,0,L|298:302,3,42.5
474,165,57886,2,0,L|492:119,3,42.5
341,105,58145,2,0,L|347:56,3,42.5
199,50,58403,2,0,P|153:55|104:71,1,85
33,193,58662,2,0,P|79:188|128:172,1,85
326,179,58921,2,0,L|418:230,1,85
195,249,59179,2,0,L|103:300,1,85
326,319,59438,5,0,0:0:0:0:
326,319,59696,1,8,2:3:0:0:
408,299,59826,1,0,0:0:0:0:
280,248,59955,2,0,P|240:260|198:284,1,85
386,383,60214,1,8,2:3:0:0:
327,178,60343,2,0,P|303:143|268:110,1,85
109,192,60602,1,0,0:0:0:0:
116,211,60666,1,0,0:0:0:0:
123,230,60731,1,0,0:0:0:0:
403,213,60860,2,0,P|443:200|485:177,1,85
330,47,61119,1,0,0:0:0:0:
97,76,61248,1,0,0:0:0:0:
239,263,61377,1,0,0:0:0:0:
220,107,61507,6,0,L|209:15,1,85
322,173,61765,2,0,L|333:265,1,85,8|0,2:3|0:0,0:0:0:0:
137,197,62024,1,0,0:0:0:0:
137,197,62089,2,0,P|122:161|126:105,1,85
147,81,62283,2,0,L|56:81,1,85,8|0,2:3|0:0,0:0:0:0:
29,229,62541,2,0,P|27:271|43:310,1,85
234,223,62800,2,0,P|235:180|219:141,1,85,8|0,2:3|0:0,0:0:0:0:
135,363,63059,1,0,0:0:0:0:
342,306,63188,1,0,0:0:0:0:
134,255,63317,1,8,2:3:0:0:
319,146,63446,1,0,0:0:0:0:
62,81,63576,6,0,P|12:131|17:190,1,127.5,0|0,1:0|0:0,0:0:0:0:
83,154,63834,2,0,L|118:131,1,42.5,4|0,2:1|0:0,0:0:0:0:
105,322,63964,2,0,L|198:344,1,85,8|0,0:0|0:0,0:0:0:0:
186,86,64222,2,0,L|221:63,1,42.5,4|0,2:1|0:0,0:0:0:0:
208,254,64352,2,0,L|301:276,1,85,8|0,0:0|0:0,0:0:0:0:
437,49,64610,6,0,P|395:92|401:160,1,127.5,0|0,1:0|0:0,0:0:0:0:
464,119,64869,2,0,L|506:82,1,42.5,4|0,2:1|0:0,0:0:0:0:
297,89,64998,2,0,L|205:153,1,85,8|0,0:0|0:0,0:0:0:0:
444,235,65257,2,0,L|486:198,1,42.5,4|0,2:1|0:0,0:0:0:0:
277,205,65386,2,0,L|185:269,1,85,8|0,0:0|0:0,0:0:0:0:
40,37,65645,6,0,P|71:63|94:112,1,85,4|0,0:1|0:0,0:0:0:0:
34,257,65903,2,0,L|51:210,1,42.5,4|0,2:1|0:0,0:0:0:0:
231,71,66033,2,0,L|331:63,1,85,8|4,2:1|2:1,0:0:0:0:
91,340,66291,2,0,L|108:293,1,42.5,0|0,2:0|0:0,0:0:0:0:
288,154,66421,2,0,L|388:146,1,85,12|0,2:1|0:0,0:0:0:0:
453,314,66679,6,0,P|422:288|399:239,1,85,4|0,0:1|0:0,0:0:0:0:
478,127,66938,2,0,L|461:174,1,42.5,4|0,2:1|0:0,0:0:0:0:
281,313,67067,2,0,L|181:321,1,85,8|4,2:1|2:1,0:0:0:0:
421,44,67325,2,0,L|404:91,1,42.5,0|0,2:0|0:0,0:0:0:0:
224,230,67455,2,0,L|124:238,1,85,12|0,2:1|0:0,0:0:0:0:
230,59,67714,6,0,L|330:51,1,85,4|0,2:1|0:0,0:0:0:0:
146,104,67972,2,0,L|232:154,1,85,4|0,2:1|0:0,0:0:0:0:
51,92,68231,2,0,L|19:182,1,85,2|2,0:0|0:0,0:0:0:0:
224,230,68490,2,0,L|261:313,1,85,2|2,0:0|0:0,0:0:0:0:
366,104,68748,5,4,2:1:0:0:
333,309,68878,1,4,2:1:0:0:
146,104,69007,1,4,2:1:0:0:
178,309,69137,1,4,2:1:0:0:
417,121,69265,1,4,2:1:0:0:
333,343,69395,1,4,2:1:0:0:
94,121,69524,1,4,2:1:0:0:
178,343,69654,1,4,2:1:0:0:
360,42,69783,5,12,2:1:0:0:
420,24,69847,1,0,0:0:0:0:
478,47,69912,1,0,0:0:0:0:
509,101,69976,1,0,0:0:0:0:
501,163,70041,1,4,2:1:0:0:
495,205,70106,1,0,0:0:0:0:
489,247,70171,1,0,0:0:0:0:
483,289,70235,1,0,0:0:0:0:
477,331,70300,2,0,L|468:375,1,42.5,4|0,2:1|0:0,0:0:0:0:
397,175,70429,5,4,2:1:0:0:
367,120,70493,1,0,0:0:0:0:
309,95,70558,1,12,2:1:0:0:
249,111,70622,1,0,0:0:0:0:
211,160,70687,1,0,0:0:0:0:
186,194,70752,1,0,0:0:0:0:
160,228,70817,1,4,2:1:0:0:
135,262,70881,1,0,0:0:0:0:
109,296,70946,2,0,L|84:333,1,42.5
32,182,71076,5,4,2:1:0:0:
14,121,71140,1,0,0:0:0:0:
37,63,71205,1,4,2:1:0:0:
91,32,71269,1,0,0:0:0:0:
152,39,71334,2,0,L|199:55,1,42.5,8|0,2:1|0:0,0:0:0:0:
302,193,71464,2,0,L|331:233,1,42.5
460,337,71852,6,0,P|418:326|372:319,1,85,6|0,2:2|0:0,0:0:0:0:
251,331,72110,1,8,2:2:0:0:
459,122,72240,2,0,P|421:143|384:171,1,85,0|4,0:0|2:1,0:0:0:0:
320,372,72498,1,0,0:0:0:0:
278,132,72628,1,8,0:0:0:0:
172,263,72757,1,0,0:0:0:0:
168,95,72886,2,0,P|139:64|91:38,1,85
28,138,73145,1,8,0:0:0:0:
332,34,73274,2,0,P|289:32|237:48,1,85,0|2,0:0|0:0,0:0:0:0:
125,204,73532,1,0,0:0:0:0:
347,259,73662,2,0,P|389:260|430:250,1,85,8|0,0:0|0:0,0:0:0:0:
235,275,73921,6,0,P|193:280|145:293,1,85,2|0,0:0|0:0,0:0:0:0:
43,357,74179,1,8,0:0:0:0:
103,138,74309,2,0,P|76:171|52:214,1,85,0|2,0:0|0:0,0:0:0:0:
304,341,74567,1,0,0:0:0:0:
193,182,74696,1,8,0:0:0:0:
408,332,74826,1,0,0:0:0:0:
241,93,74955,2,0,P|207:69|150:53,1,85,2|0,0:0|0:0,0:0:0:0:
39,78,75214,1,8,0:0:0:0:
309,265,75343,2,0,P|265:261|214:244,1,85,0|2,0:0|0:0,0:0:0:0:
484,42,75602,2,0,P|440:45|389:62,1,85,0|8,0:0|0:0,0:0:0:0:
267,168,75860,1,0,0:0:0:0:
481,352,75990,6,0,P|437:346|343:357,1,127.5,2|0,0:0|0:0,0:0:0:0:
287,380,76248,2,0,P|244:381|196:373,1,85,8|0,0:0|0:0,0:0:0:0:
162,189,76507,2,0,P|157:136|164:104,1,85,2|0,0:0|0:0,0:0:0:0:
350,195,76765,2,0,P|355:248|348:280,1,85,8|0,0:0|0:0,0:0:0:0:
79,342,77024,2,0,P|59:263|70:169,1,170,2|8,0:0|0:0,0:0:0:0:
245,253,77412,1,0,0:0:0:0:
406,138,77541,2,0,P|424:187|426:220,1,85,2|0,0:0|0:0,0:0:0:0:
161,302,77800,2,0,P|148:250|151:217,1,85,8|0,0:0|0:0,0:0:0:0:
442,38,78059,2,0,P|478:89|503:165,1,127.5,2|0,0:0|0:0,0:0:0:0:
502,231,78317,1,8,0:0:0:0:
384,375,78446,1,0,0:0:0:0:
318,200,78576,2,0,P|288:156|254:127,1,85,2|0,0:0|0:0,0:0:0:0:
27,73,78834,5,8,2:2:0:0:
85,296,78964,1,0,0:0:0:0:
113,54,79093,2,0,L|140:154,1,85,2|0,0:0|0:0,0:0:0:0:
182,312,79352,1,8,0:0:0:0:
264,49,79481,2,0,L|264:152,1,85,0|2,0:0|0:0,0:0:0:0:
319,334,79740,1,0,0:0:0:0:
383,65,79870,1,8,0:0:0:0:
413,349,79998,1,0,0:0:0:0:
479,79,80128,6,0,P|464:125|441:162,1,85,6|0,0:0|0:0,0:0:0:0:
334,240,80386,1,8,0:0:0:0:
33,170,80516,2,0,P|80:159|123:161,1,85,0|2,0:0|0:0,0:0:0:0:
244,215,80774,1,0,0:0:0:0:
19,253,80903,1,8,0:0:0:0:
310,149,81033,1,0,0:0:0:0:
17,34,81162,2,0,P|65:31|107:40,1,85,2|0,0:0|0:0,0:0:0:0:
261,68,81420,1,8,0:0:0:0:
93,305,81550,2,0,P|140:295|178:275,1,85,0|2,0:0|0:0,0:0:0:0:
310,149,81809,1,0,0:0:0:0:
449,297,81938,2,0,P|472:339|481:381,1,85,8|0,0:0|0:0,0:0:0:0:
219,194,82196,6,0,P|157:177|94:171,1,127.5,2|0,2:0|2:0,2:0:0:0:
17,184,82455,1,8,0:0:0:0:
325,272,82584,2,0,P|281:271|229:258,1,85,0|2,0:0|0:0,0:0:0:0:
478,37,82843,2,0,P|434:38|382:51,1,85,0|8,0:0|0:0,0:0:0:0:
203,115,83102,1,0,0:0:0:0:
475,164,83231,1,2,0:0:0:0:
295,199,83360,1,0,0:0:0:0:
481,360,83490,2,0,P|452:319|415:288,1,85,8|0,0:0|0:0,0:0:0:0:
203,190,83748,1,2,0:0:0:0:
386,177,83877,1,0,0:0:0:0:
174,321,84007,2,0,P|209:285|251:261,1,85,8|0,0:0|0:0,0:0:0:0:
481,78,84265,6,0,P|399:95|308:90,1,170,2|8,0:0|0:0,0:0:0:0:
174,50,84653,1,0,0:0:0:0:
153,239,84783,2,0,P|160:282|178:330,1,85,2|0,0:0|0:0,0:0:0:0:
407,259,85041,2,0,P|400:216|381:167,1,85,8|0,0:0|0:0,0:0:0:0:
46,36,85300,2,0,P|30:124|31:209,1,170,2|8,0:0|0:0,0:0:0:0:
256,192,85688,1,0,0:0:0:0:
466,348,85817,2,0,P|476:306|482:263,1,85,2|0,0:0|0:0,0:0:0:0:
177,109,86076,2,0,P|167:151|161:194,1,85,8|0,0:0|0:0,0:0:0:0:
362,339,86334,5,2,0:0:0:0:
362,339,86593,1,8,0:0:0:0:
256,192,86722,1,0,0:0:0:0:
436,173,86852,1,8,0:0:0:0:
128,260,86981,1,0,0:0:0:0:
454,281,87110,1,2,0:0:0:0:
128,123,87240,1,2,0:0:0:0:
454,102,87369,1,2,0:0:0:0:
113,250,87498,1,0,0:0:0:0:
454,301,87628,1,2,0:0:0:0:
125,109,87757,1,2,0:0:0:0:
470,118,87887,1,2,0:0:0:0:
99,239,88015,1,2,0:0:0:0:
454,321,88145,1,2,0:0:0:0:
125,93,88274,1,2,0:0:0:0:
485,135,88403,5,6,0:0:0:0:
356,209,88791,1,0,0:0:0:0:
276,77,89179,1,2,0:0:0:0:
304,278,89438,2,0,P|284:328|218:359,1,127.500004863739
265,201,89826,2,0,P|318:193|378:234,1,127.500004863739
218,273,90214,2,0,P|184:230|180:184,1,95.6250036478044
234,106,90472,5,2,0:0:0:0:
87,62,90860,1,0,0:0:0:0:
236,28,91248,1,0,0:0:0:0:
85,140,91507,1,8,0:0:0:0:
153,316,91765,2,0,L|171:364,2,42.5000016212464,2|2|2,0:0|0:0|0:0,0:0:0:0:
141,235,92024,2,0,P|156:185|184:149,1,95.6250036478044,8|0,0:0|0:0,0:0:0:0:
226,217,92283,2,0,P|241:267|269:303,1,95.6250036478044
311,235,92541,5,6,0:0:0:0:
435,145,92929,1,2,0:0:0:0:
450,297,93317,1,2,0:0:0:0:
322,119,93576,2,0,P|277:83|233:72,1,95.6250036478044,8|0,0:0|0:0,0:0:0:0:
136,68,93834,2,0,L|56:82,1,63.7500024318696,2|0,0:0|0:0,0:0:0:0:
177,149,94093,1,2,0:0:0:0:
281,219,94222,1,2,0:0:0:0:
136,230,94352,1,2,0:0:0:0:
181,346,94481,1,2,0:0:0:0:
55,272,94610,5,10,0:0:0:0:
55,272,94740,1,2,0:0:0:0:
274,318,94869,1,2,0:0:0:0:
95,153,94998,1,2,0:0:0:0:
95,153,95257,1,0,0:0:0:0:
321,100,95386,1,10,0:0:0:0:
321,100,95516,1,2,0:0:0:0:
102,54,95645,2,0,P|60:59|28:80,1,63.7500024318696
281,219,95903,2,0,P|323:214|355:193,1,63.7500024318696
145,228,96162,1,10,0:0:0:0:
271,25,96291,1,10,0:0:0:0:
95,153,96421,1,10,0:0:0:0:
321,100,96550,1,10,0:0:0:0:
195,303,96679,1,10,0:0:0:0:
476,61,96938,6,0,L|439:145,1,85,4|0,0:0|0:0,0:0:0:0:
407,216,97196,1,0,0:0:0:0:
245,97,97326,2,0,P|201:99|153:114,1,85,8|0,2:3|0:0,0:0:0:0:
310,285,97584,1,8,2:3:0:0:
118,39,97714,2,0,P|88:71|64:116,1,85,2|0,2:3|0:0,0:0:0:0:
72,239,97972,1,0,0:0:0:0:
313,179,98102,2,0,L|350:95,1,85,4|0,0:0|0:0,0:0:0:0:
199,205,98360,2,0,L|162:289,1,85,4|0,0:0|0:0,0:0:0:0:
165,283,98748,1,2,0:0:0:0:
223,345,98878,1,2,0:0:0:0:
120,156,99007,6,0,P|76:232|86:318,1,170,6|2,0:0|0:0,0:0:0:0:
143,372,99395,1,0,0:0:0:0:
334,260,99524,2,0,L|306:168,1,85,8|0,0:0|0:0,0:0:0:0:
200,92,99783,2,0,L|227:183,1,85,2|0,0:0|0:0,0:0:0:0:
401,193,100041,1,8,0:0:0:0:
478,56,100170,1,2,0:0:0:0:
277,46,100300,1,0,0:0:0:0:
465,139,100429,1,2,0:0:0:0:
341,100,100559,2,0,P|312:160|324:230,1,127.5,8|0,0:0|0:0,0:0:0:0:
254,315,100817,6,0,L|142:338,1,85,2|0,0:0|0:0,0:0:0:0:
3,195,101076,1,8,0:0:0:0:
186,296,101205,2,0,L|269:278,1,85
467,296,101464,2,0,L|384:314,1,85,2|8,0:0|0:0,0:0:0:0:
165,189,101722,2,0,L|248:207,1,85,0|2,0:0|0:0,0:0:0:0:
453,196,101981,1,0,0:0:0:0:
453,196,102046,1,0,0:0:0:0:
453,196,102110,2,0,L|466:112,1,85,8|2,0:0|0:0,0:0:0:0:
158,33,102369,2,0,L|171:117,1,85
341,117,102628,2,0,L|354:33,1,85,8|0,0:0|0:0,0:0:0:0:
59,188,102886,6,0,L|46:272,1,85,2|0,0:0|0:0,0:0:0:0:
191,236,103145,2,0,L|204:320,1,85,8|0,0:0|0:0,0:0:0:0:
453,196,103403,1,0,0:0:0:0:
369,342,103533,1,2,0:0:0:0:
259,151,103662,2,0,L|246:67,1,85,8|0,0:0|0:0,0:0:0:0:
413,31,103921,1,2,0:0:0:0:
354,185,104050,1,2,0:0:0:0:
186,159,104179,1,8,0:0:0:0:
286,332,104308,1,2,0:0:0:0:
329,97,104438,1,2,0:0:0:0:
63,118,104567,1,0,0:0:0:0:
329,97,104696,2,0,P|397:103|438:148,1,127.5
431,232,104955,6,0,L|351:276,1,85,4|0,0:0|0:0,0:0:0:0:
171,310,105214,1,8,0:0:0:0:
395,290,105343,2,0,L|469:249,1,85
284,199,105602,2,0,L|209:239,1,85,2|8,0:0|0:0,0:0:0:0:
240,61,105860,2,0,L|315:21,1,85,0|2,0:0|0:0,0:0:0:0:
95,60,106119,2,0,L|20:20,1,85,0|8,0:0|0:0,0:0:0:0:
209,159,106378,2,0,L|284:199,1,85,2|0,0:0|0:0,0:0:0:0:
344,104,106636,1,2,0:0:0:0:
124,237,106765,2,0,L|49:197,1,85,8|0,0:0|0:0,0:0:0:0:
224,299,107024,6,0,L|319:303,1,85
483,255,107283,1,8,0:0:0:0:
287,333,107412,2,0,L|202:329,1,85
269,150,107671,2,0,L|336:202,1,85,2|8,0:0|0:0,0:0:0:0:
124,237,107929,2,0,L|56:184,1,85,0|2,0:0|0:0,0:0:0:0:
190,57,108188,1,2,0:0:0:0:
190,57,108253,1,0,0:0:0:0:
190,57,108317,2,0,L|275:61,1,85,8|2,0:0|0:0,0:0:0:0:
494,162,108576,2,0,L|409:170,1,85,0|2,0:0|0:0,0:0:0:0:
234,149,108834,2,0,L|149:140,1,85,8|0,0:0|0:0,0:0:0:0:
167,325,109093,6,0,P|232:368|321:357,1,170,2|8,0:0|0:0,0:0:0:0:
387,305,109481,1,0,0:0:0:0:
220,231,109610,2,0,L|110:242,1,85,0|2,0:0|0:0,0:0:0:0:
30,58,109869,2,0,L|140:69,1,85,8|0,0:0|0:0,0:0:0:0:
326,14,110128,2,0,P|400:33|446:123,1,170,2|8,0:0|0:0,0:0:0:0:
301,226,110515,1,2,0:0:0:0:
125,204,110645,2,0,P|124:248|133:293,1,85,0|2,0:0|0:0,0:0:0:0:
383,241,110903,2,0,P|384:197|375:152,1,85,8|0,0:0|0:0,0:0:0:0:
74,138,111162,5,2,0:0:0:0:
74,138,111227,1,0,0:0:0:0:
74,138,111291,1,0,0:0:0:0:
295,144,111421,1,8,0:0:0:0:
125,204,111550,1,0,0:0:0:0:
350,77,111679,2,0,P|397:77|435:97,1,85,0|2,0:0|0:0,0:0:0:0:
205,187,111938,1,8,0:0:0:0:
379,248,112067,1,0,0:0:0:0:
154,121,112196,2,0,L|127:76,3,42.5,2|0|0|0,0:0|0:0|0:0|0:0,0:0:0:0:
45,117,112455,2,0,L|48:64,3,42.5,2|0|0|0,0:0|0:0|0:0|0:0,0:0:0:0:
30,200,112714,1,8,0:0:0:0:
199,33,112843,1,0,0:0:0:0:
125,204,112972,1,8,0:0:0:0:
303,108,113102,1,0,0:0:0:0:
192,274,113231,6,0,P|153:295|108:305,1,85,4|0,0:0|0:0,0:0:0:0:
26,278,113490,1,2,0:0:0:0:
228,192,113619,2,0,L|231:104,1,85,8|0,2:3|0:0,0:0:0:0:
435,278,113878,1,2,0:0:0:0:
233,192,114007,2,0,L|230:104,1,85,8|0,2:3|0:0,0:0:0:0:
48,36,114265,1,2,0:0:0:0:
305,46,114395,2,0,P|323:82|320:141,1,85,8|0,2:3|0:0,0:0:0:0:
147,151,114653,1,2,0:0:0:0:
387,210,114783,1,8,2:3:0:0:
182,272,114912,1,2,0:0:0:0:
419,58,115041,1,8,2:3:0:0:
189,43,115171,1,8,2:3:0:0:
473,147,115300,6,0,P|486:188|484:238,1,85,8|0,2:3|0:0,0:0:0:0:
301,273,115559,1,2,0:0:0:0:
106,208,115688,1,8,2:3:0:0:
226,375,115817,1,2,0:0:0:0:
106,336,115946,1,2,0:0:0:0:
313,184,116076,2,0,P|354:199|388:253,1,85,8|0,2:3|0:0,0:0:0:0:
49,272,116334,1,2,0:0:0:0:
226,169,116463,1,8,2:3:0:0:
19,145,116592,1,2,0:0:0:0:
196,42,116722,1,8,2:3:0:0:
106,336,116852,2,0,P|66:356|4:345,1,85,8|0,2:3|0:0,0:0:0:0:
33,59,117110,2,0,P|71:35|133:40,1,85,8|0,2:3|0:0,0:0:0:0:
265,283,117369,6,0,P|229:307|190:323,1,85,8|0,2:3|0:0,0:0:0:0:
106,336,117628,1,2,0:0:0:0:
327,223,117757,2,0,L|420:218,1,85,8|0,2:3|0:0,0:0:0:0:
106,100,118015,1,0,0:0:0:0:
327,213,118145,2,0,L|420:218,1,85,0|0,2:3|0:0,0:0:0:0:
478,350,118403,1,2,0:0:0:0:
249,183,118533,2,0,P|209:165|168:156,1,85,8|0,2:3|0:0,0:0:0:0:
55,203,118791,1,2,0:0:0:0:
289,328,118921,1,8,2:3:0:0:
107,275,119050,1,2,0:0:0:0:
396,135,119179,1,8,2:3:0:0:
187,73,119309,1,8,2:3:0:0:
411,217,119438,6,0,P|416:261|397:310,1,85,2|0,0:0|0:0,0:0:0:0:
317,250,119696,1,2,0:0:0:0:
187,73,119826,1,0,0:0:0:0:
189,292,119955,1,2,0:0:0:0:
59,115,120084,1,0,0:0:0:0:
315,113,120214,2,0,P|357:119|403:140,1,85
109,183,120472,1,2,0:0:0:0:
342,328,120602,1,8,2:3:0:0:
342,328,120666,1,8,2:3:0:0:
342,328,120731,1,8,2:3:0:0:
315,113,120860,1,8,2:3:0:0:
143,243,120990,1,8,2:3:0:0:
391,212,121119,1,8,2:3:0:0:
218,342,121248,1,8,2:3:0:0:
191,129,121378,1,4,2:2:0:0:
191,129,121442,1,0,2:0:0:0:
191,129,121507,5,8,2:3:0:0:
45,216,121765,2,0,P|39:259|46:312,1,85
143,243,122024,2,0,P|215:213|311:200,1,170
454,285,122541,2,0,P|460:328|453:381,1,85
356,312,122800,2,0,P|318:293|264:277,2,85
407,149,123317,1,0,0:0:0:0:
271,80,123576,6,0,P|281:119|314:159,1,85
180,119,123834,2,0,P|200:154|241:184,1,85
102,180,124093,2,0,P|130:208|178:226,1,85
42,259,124352,1,0,0:0:0:0:
196,299,124481,1,0,0:0:0:0:
102,180,124610,2,0,P|73:151|25:133,1,85
180,119,124869,2,0,P|159:83|118:53,1,85
271,80,125128,2,0,P|260:40|228:1,1,85
235,181,125386,2,0,P|246:221|278:260,1,85
444,140,125645,6,0,L|511:80,1,85,2|0,0:0|0:0,0:0:0:0:
444,244,125903,2,0,L|511:304,1,85,2|0,0:0|0:0,0:0:0:0:
351,96,126162,2,0,L|377:6,1,85,2|0,0:0|0:0,0:0:0:0:
351,288,126421,2,0,L|377:378,1,85,2|0,0:0|0:0,0:0:0:0:
159,132,126679,1,2,0:0:0:0:
352,251,126809,1,2,0:0:0:0:
196,288,126938,1,2,0:0:0:0:
315,95,127067,1,2,0:0:0:0:
135,101,127196,1,2,0:0:0:0:
376,282,127326,1,2,0:0:0:0:
165,312,127455,1,2,0:0:0:0:
346,71,127584,1,2,0:0:0:0:
28,139,127714,5,10,0:0:0:0:
9,199,127778,1,0,0:0:0:0:
16,262,127843,1,0,0:0:0:0:
47,317,127907,1,0,0:0:0:0:
97,356,127972,2,0,L|147:379,1,42.5
115,224,128102,5,10,0:0:0:0:
112,160,128166,1,0,0:0:0:0:
135,101,128231,1,0,0:0:0:0:
179,56,128295,1,0,0:0:0:0:
238,31,128360,2,0,L|291:21,1,42.5
211,176,128490,5,10,0:0:0:0:
207,240,128554,1,0,0:0:0:0:
230,299,128619,1,0,0:0:0:0:
274,344,128683,1,0,0:0:0:0:
333,369,128748,2,0,L|386:378,1,42.5
316,237,128878,5,10,0:0:0:0:
296,176,128942,1,0,0:0:0:0:
303,113,129007,1,0,0:0:0:0:
334,58,129071,1,0,0:0:0:0:
384,19,129136,2,0,L|433:-3,1,42.5
395,166,129265,5,10,0:0:0:0:
405,195,129329,1,0,0:0:0:0:
422,222,129394,1,8,0:0:0:0:
445,244,129458,1,0,0:0:0:0:
473,260,129523,1,8,0:0:0:0:
463,290,129588,1,0,0:0:0:0:
446,317,129653,1,8,0:0:0:0:
423,339,129718,1,0,0:0:0:0:
395,355,129783,6,0,P|351:363|306:361,1,85,2|0,0:0|0:0,0:0:0:0:
123,329,130041,1,8,0:0:0:0:
20,112,130171,2,0,P|56:137|87:170,1,85,0|2,0:0|0:0,0:0:0:0:
215,359,130429,1,0,0:0:0:0:
55,260,130559,1,8,0:0:0:0:
349,272,130688,1,0,0:0:0:0:
137,92,130817,2,0,P|102:67|63:50,1,85,2|0,0:0|0:0,0:0:0:0:
149,239,131076,1,8,0:0:0:0:
343,72,131205,2,0,P|319:107|289:137,1,85,0|2,0:0|0:0,0:0:0:0:
84,166,131464,1,0,0:0:0:0:
265,265,131593,2,0,P|306:272|349:271,1,85,8|0,0:0|0:0,0:0:0:0:
141,359,131852,6,0,P|99:352|59:336,1,85,2|0,0:0|0:0,0:0:0:0:
1,185,132110,1,8,0:0:0:0:
224,80,132240,2,0,P|220:122|208:162,1,85,0|2,0:0|0:0,0:0:0:0:
141,359,132498,1,0,0:0:0:0:
313,213,132628,1,8,0:0:0:0:
84,166,132757,1,0,0:0:0:0:
320,38,132886,2,0,P|362:33|404:38,1,85,2|0,0:0|0:0,0:0:0:0:
512,163,133145,1,8,0:0:0:0:
267,294,133274,2,0,P|308:287|348:271,1,85,0|2,0:0|0:0,0:0:0:0:
65,88,133533,2,0,P|106:94|146:110,1,85,0|8,0:0|0:0,0:0:0:0:
4,270,133791,1,0,0:0:0:0:
123,23,133921,6,0,P|186:18|259:29,1,127.5,2|0,0:0|0:0,0:0:0:0:
314,53,134179,2,0,P|356:47|407:27,1,85,8|0,0:0|0:0,0:0:0:0:
404,255,134438,2,0,P|365:274|323:280,1,85,2|0,0:0|0:0,0:0:0:0:
108,129,134696,2,0,P|147:110|189:104,1,85,8|0,0:0|0:0,0:0:0:0:
322,360,134955,2,0,P|235:373|149:352,1,170,2|8,0:0|0:0,0:0:0:0:
307,199,135343,1,0,0:0:0:0:
249,26,135472,2,0,P|291:26|336:36,1,85,2|0,0:0|0:0,0:0:0:0:
201,277,135731,2,0,P|169:248|141:211,1,85,8|0,0:0|0:0,0:0:0:0:
414,89,135990,2,0,P|434:137|444:211,1,127.5,2|0,0:0|0:0,0:0:0:0:
425,287,136248,1,8,0:0:0:0:
333,121,136378,1,0,0:0:0:0:
328,328,136507,2,0,P|292:351|249:368,1,85,2|0,0:0|0:0,0:0:0:0:
72,370,136765,5,8,0:0:0:0:
356,247,136895,1,0,0:0:0:0:
55,283,137024,2,0,L|157:260,1,85,2|0,0:0|0:0,0:0:0:0:
384,168,137283,1,8,0:0:0:0:
55,192,137412,2,0,L|155:192,1,85,0|2,0:0|0:0,0:0:0:0:
412,88,137671,1,0,0:0:0:0:
55,101,137800,1,8,0:0:0:0:
440,8,137929,1,0,0:0:0:0:
72,14,138059,6,0,P|112:18|162:27,1,85,6|0,0:0|0:0,0:0:0:0:
325,103,138317,1,8,0:0:0:0:
186,330,138446,2,0,P|200:290|217:251,1,85,0|2,0:0|0:0,0:0:0:0:
357,21,138705,1,0,0:0:0:0:
286,296,138834,1,8,0:0:0:0:
412,88,138964,1,0,0:0:0:0:
68,238,139093,2,0,P|102:213|139:191,1,85,2|0,0:0|0:0,0:0:0:0:
356,247,139352,1,8,0:0:0:0:
101,333,139481,2,0,P|143:333|185:329,1,85,0|2,0:0|0:0,0:0:0:0:
440,229,139740,1,0,0:0:0:0:
230,99,139869,2,0,P|187:98|145:102,1,85,8|0,0:0|0:0,0:0:0:0:
286,296,140128,6,0,P|347:317|410:331,1,127.5,2|0,0:0|0:0,0:0:0:0:
484,332,140386,1,8,0:0:0:0:
328,136,140515,2,0,P|368:149|406:167,1,85,0|2,0:0|0:0,0:0:0:0:
106,217,140774,2,0,P|144:235|184:248,1,85,0|8,0:0|0:0,0:0:0:0:
39,26,141033,1,0,0:0:0:0:
212,174,141162,1,2,0:0:0:0:
187,30,141291,1,0,0:0:0:0:
184,248,141421,2,0,P|196:290|225:330,1,85,8|0,0:0|0:0,0:0:0:0:
300,210,141679,1,2,0:0:0:0:
325,354,141808,1,0,0:0:0:0:
328,136,141938,2,0,P|315:93|286:53,1,85,8|0,0:0|0:0,0:0:0:0:
80,115,142196,6,0,P|48:195|35:292,1,170,2|8,0:0|0:0,0:0:0:0:
128,365,142584,1,0,0:0:0:0:
314,283,142714,2,0,P|349:252|382:201,1,85,2|0,0:0|0:0,0:0:0:0:
198,101,142972,2,0,P|162:131|129:182,1,85,8|0,0:0|0:0,0:0:0:0:
210,342,143231,2,0,P|298:357|389:350,1,170,2|8,0:0|0:0,0:0:0:0:
256,192,143619,1,0,0:0:0:0:
302,42,143748,2,0,P|262:31|207:25,1,85,2|0,0:0|0:0,0:0:0:0:
237,268,144007,2,0,P|277:276|331:281,1,85,8|0,2:0|0:0,0:0:0:0:
381,87,144265,5,2,0:0:0:0:
381,87,144524,1,8,0:0:0:0:
342,294,144653,1,0,0:0:0:0:
130,87,144783,1,8,0:0:0:0:
169,294,144912,1,0,0:0:0:0:
396,82,145041,1,2,0:0:0:0:
346,306,145170,1,2,0:0:0:0:
114,82,145300,1,2,0:0:0:0:
164,306,145429,1,2,0:0:0:0:
414,77,145559,1,2,0:0:0:0:
350,321,145688,1,2,0:0:0:0:
96,77,145818,1,2,0:0:0:0:
160,321,145947,1,2,0:0:0:0:
431,74,146076,1,2,0:0:0:0:
353,334,146205,1,2,0:0:0:0:
79,74,146334,6,0,P|63:137|65:206,1,127.5,6|0,0:0|0:0,0:0:0:0:
74,241,146593,1,8,0:0:0:0:
188,60,146722,1,0,0:0:0:0:
165,250,146852,2,0,L|155:334,1,85
352,344,147110,2,0,L|362:260,1,85,8|0,0:0|0:0,0:0:0:0:
314,76,147369,1,0,0:0:0:0:
245,304,147498,1,0,0:0:0:0:
423,146,147628,2,0,L|432:61,1,85,8|0,0:0|0:0,0:0:0:0:
179,47,147886,2,0,L|170:132,1,85
264,318,148145,1,8,0:0:0:0:
295,62,148274,1,0,0:0:0:0:
502,207,148403,6,0,P|479:273|453:328,1,127.5
433,361,148662,1,8,0:0:0:0:
398,130,148791,1,0,0:0:0:0:
265,295,148921,2,0,L|233:373,1,85
42,319,149180,2,0,L|73:240,1,85,8|0,0:0|0:0,0:0:0:0:
230,91,149438,1,0,0:0:0:0:
165,311,149567,1,0,0:0:0:0:
124,102,149696,2,0,L|155:23,1,85,8|0,0:0|0:0,0:0:0:0:
362,69,149955,2,0,L|330:147,1,85
139,317,150214,1,8,0:0:0:0:
256,85,150343,1,0,0:0:0:0:
367,263,150472,6,0,P|404:323|472:366,1,127.5
490,372,150731,1,8,0:0:0:0:
432,159,150860,1,0,0:0:0:0:
277,315,150990,2,0,L|213:377,1,85
99,176,151248,2,0,L|35:238,1,85,8|0,0:0|0:0,0:0:0:0:
142,376,151507,1,0,0:0:0:0:
298,137,151636,1,0,0:0:0:0:
88,140,151765,2,0,L|24:202,1,85,8|0,0:0|0:0,0:0:0:0:
312,325,152024,2,0,L|248:387,1,85
61,307,152283,1,8,0:0:0:0:
288,129,152412,1,0,0:0:0:0:
478,236,152541,6,0,P|452:291|410:351,1,127.5
384,376,152800,1,8,0:0:0:0:
177,309,152929,1,0,0:0:0:0:
357,167,153059,2,0,L|421:105,1,85
150,94,153317,2,0,L|214:32,1,85,8|0,0:0|0:0,0:0:0:0:
377,35,153576,1,0,0:0:0:0:
230,228,153705,1,0,0:0:0:0:
122,75,153834,2,0,L|186:13,1,85,8|0,0:0|0:0,0:0:0:0:
369,200,154093,2,0,L|433:138,1,85,8|0,0:0|0:0,0:0:0:0:
294,11,154352,1,8,0:0:0:0:
210,217,154481,1,0,0:0:0:0:
438,315,154610,5,8,0:0:0:0:
202,328,154740,1,2,0:0:0:0:
202,328,154998,1,2,0:0:0:0:
202,328,155257,1,2,0:0:0:0:
461,287,155386,1,8,0:0:0:0:
179,305,155515,1,2,0:0:0:0:
179,305,155774,1,0,0:0:0:0:
153,281,156033,1,2,0:0:0:0:
153,281,156097,1,2,0:0:0:0:
153,281,156162,2,0,P|138:238|144:189,1,85,8|0,0:0|0:0,0:0:0:0:
340,88,156421,2,0,P|355:131|349:180,1,85,2|0,0:0|0:0,0:0:0:0:
233,345,156679,5,8,0:0:0:0:
240,142,156809,1,2,0:0:0:0:
240,142,157067,1,2,0:0:0:0:
219,115,157326,1,2,0:0:0:0:
219,115,157390,1,2,0:0:0:0:
219,115,157455,1,8,0:0:0:0:
233,345,157584,1,2,0:0:0:0:
233,345,157843,1,0,0:0:0:0:
254,372,158102,1,2,0:0:0:0:
254,372,158166,1,2,0:0:0:0:
254,372,158231,1,12,0:0:0:0:
240,142,158360,1,2,0:0:0:0:
452,247,158490,1,8,0:0:0:0:
159,264,158619,1,8,0:0:0:0:
460,169,158748,6,0,P|461:109|439:38,1,127.5,2|0,0:0|0:0,0:0:0:0:
387,197,159007,2,0,L|369:281,1,85,12|0,0:0|0:0,0:0:0:0:
236,293,159265,1,2,0:0:0:0:
59,258,159395,1,0,0:0:0:0:
304,221,159524,2,0,L|322:137,1,85,8|0,0:0|0:0,0:0:0:0:
198,74,159783,1,2,0:0:0:0:
23,128,159913,1,0,0:0:0:0:
218,210,160041,2,0,L|236:294,1,85,8|0,0:0|0:0,0:0:0:0:
23,311,160300,1,6,0:0:0:0:
198,74,160429,1,2,0:0:0:0:
196,368,160559,1,2,0:0:0:0:
23,128,160688,1,2,0:0:0:0:
304,221,160817,6,0,P|362:226|433:195,1,127.5,6|0,0:0|0:0,0:0:0:0:
466,137,161076,1,0,0:0:0:0:
496,312,161205,1,0,0:0:0:0:
466,137,161334,2,0,L|449:51,1,85
198,74,161593,2,0,L|215:160,1,85
244,332,161852,1,0,0:0:0:0:
29,236,162110,1,0,0:0:0:0:
277,236,162369,1,0,0:0:0:0:
62,140,162628,1,0,0:0:0:0:
310,140,162886,6,0,P|370:125|432:97,1,127.500004863739,2|0,0:0|0:0,0:0:0:0:
496,29,163274,2,0,L|497:77,2,31.8750012159348,2|0|0,0:0|0:0|0:0,0:0:0:0:
472,219,163662,1,2,0:0:0:0:
332,49,163921,2,0,L|255:69,1,63.7500024318696,14|0,0:0|0:0,0:0:0:0:
174,114,164179,2,0,L|251:134,1,63.7500024318696,0|2,0:0|0:0,0:0:0:0:
331,181,164438,2,0,L|254:201,1,63.7500024318696
173,246,164696,2,0,L|250:266,1,63.7500024318696,2|0,0:0|0:0,0:0:0:0:
330,313,164955,6,0,P|272:331|225:333,1,95.6250036478044,2|0,0:0|0:0,0:0:0:0:
189,324,165214,1,0,0:0:0:0:
60,167,165343,2,0,P|46:237|47:299,1,127.500004863739,2|0,0:0|0:0,0:0:0:0:
106,367,165731,1,2,0:0:0:0:
146,129,165990,1,8,0:0:0:0:
323,198,166248,2,0,L|303:246,2,42.5000016212464,2|2|2,0:0|0:0|0:0,0:0:0:0:
356,123,166507,2,0,L|424:114,1,63.7500024318696,8|0,0:0|0:0,0:0:0:0:
358,40,166765,2,0,L|290:31,1,63.7500024318696,2|0,0:0|0:0,0:0:0:0:
404,189,167024,6,0,P|415:251|408:332,1,127.500004863739,6|0,0:0|0:0,0:0:0:0:
316,331,167412,1,2,0:0:0:0:
40,250,167800,1,0,0:0:0:0:
323,198,168059,1,8,0:0:0:0:
47,117,168317,1,0,0:0:0:0:
159,190,168446,1,0,0:0:0:0:
47,117,168576,2,0,L|27:47,1,63.7500024318696
156,37,168834,2,0,L|176:107,1,63.7500024318696
134,285,169093,6,0,P|174:324|244:349,1,127.500004863739,6|0,0:0|0:0,0:0:0:0:
325,303,169481,2,0,L|454:325,1,127.500004863739,2|0,0:0|0:0,0:0:0:0:
478,232,169869,2,0,L|414:204,1,63.7500024318696,2|0,0:0|0:0,0:0:0:0:
211,251,170128,2,0,L|278:242,1,63.7500024318696,12|0,0:0|0:0,0:0:0:0:
438,127,170386,1,8,0:0:0:0:
248,150,170515,1,8,0:0:0:0:
438,127,170645,1,2,0:0:0:0:
271,35,170774,1,2,0:0:0:0:
352,209,170903,1,2,0:0:0:0:
389,20,171033,1,2,0:0:0:0:
173,74,171162,6,0,P|122:104|95:148,1,95.6250036478044,2|0,0:0|0:0,0:0:0:0:
81,206,171421,1,0,0:0:0:0:
106,341,171550,1,0,0:0:0:0:
211,251,171679,2,0,L|278:242,1,63.7500024318696
248,150,171938,2,0,L|315:141,1,63.7500024318696
454,310,172196,2,0,P|394:305|326:319,1,127.500004863739,8|0,0:0|0:0,0:0:0:0:
249,372,172584,1,8,0:0:0:0:
81,206,172714,1,2,0:0:0:0:
81,206,172972,2,0,L|148:197,1,63.7500024318696
284,48,173231,6,0,P|210:62|154:64,1,127.500004863739,2|0,0:0|0:0,0:0:0:0:
65,37,173619,1,2,0:0:0:0:
223,138,173748,2,0,P|260:133|298:120,1,63.7500024318696
433,132,174007,2,0,P|405:147|375:158,1,63.7500024318696
241,215,174238,1,12,0:0:0:0:
407,302,174496,2,0,L|478:337,2,56.6666666666667,2|2|2,0:0|0:0|0:0,0:0:0:0:
241,215,174755,2,0,P|153:213|69:234,1,170,8|2,0:0|0:0,0:0:0:0:
280,346,175272,5,6,0:0:0:0:
280,346,175548,1,0,0:0:0:0:
401,228,175824,1,8,0:0:0:0:
326,76,176084,1,8,0:0:0:0:
159,101,176343,1,8,0:0:0:0:
132,268,176601,2,0,L|187:335,1,85,8|0,0:0|0:0,0:0:0:0:
265,186,176860,2,0,L|229:264,1,85,8|0,0:0|0:0,0:0:0:0:
68,112,177119,2,0,L|103:190,1,85,8|0,0:0|0:0,0:0:0:0:
256,23,177377,2,0,L|241:108,1,85,10|0,0:0|0:0,0:0:0:0:
329,330,177636,1,0,0:0:0:0:
448,217,177765,1,0,0:0:0:0:
445,333,177894,1,0,0:0:0:0:
332,213,178024,1,0,0:0:0:0:
213,326,178152,1,0,0:0:0:0:
216,210,178282,1,0,0:0:0:0:
329,330,178412,5,10,0:0:0:0:
393,121,178584,1,10,0:0:0:0:
109,265,178757,1,10,0:0:0:0:
173,56,178929,1,10,0:0:0:0:
448,217,179101,1,10,0:0:0:0:
54,169,179274,1,14,0:0:0:0:
80,113,188741,5,2,0:0:0:0:
92,153,189000,1,2,0:0:0:0:
104,193,189259,1,2,0:0:0:0:
116,233,189517,1,2,0:0:0:0:
213,141,189776,1,2,0:0:0:0:
214,182,190035,1,2,0:0:0:0:
215,224,190294,1,2,0:0:0:0:
216,266,190552,1,2,0:0:0:0:
350,94,190810,5,2,0:0:0:0:
383,171,191069,1,2,0:0:0:0:
368,254,191327,1,2,0:0:0:0:
401,331,191586,1,2,0:0:0:0:
237,142,191845,1,2,0:0:0:0:
185,207,192104,1,2,0:0:0:0:
178,291,192362,1,2,0:0:0:0:
126,357,192621,1,2,0:0:0:0:
91,133,192879,6,0,L|110:80,7,42.5
202,64,193397,2,0,L|212:112,1,42.5
354,96,193526,2,0,L|368:136,5,42.5
470,252,193914,1,2,0:0:0:0:
432,303,193978,1,2,0:0:0:0:
379,337,194043,1,2,0:0:0:0:
317,350,194107,1,2,0:0:0:0:
255,339,194172,1,2,0:0:0:0:
217,287,194236,1,2,0:0:0:0:
164,253,194301,1,2,0:0:0:0:
102,240,194365,1,2,0:0:0:0:
40,251,194430,1,12,0:0:0:0:
324,189,194560,1,10,0:0:0:0:
449,104,194948,6,0,P|410:86|364:77,1,85,6|0,0:0|0:0,0:0:0:0:
250,92,195207,1,8,0:0:0:0:
458,332,195336,2,0,P|417:345|370:350,1,85,0|2,0:0|0:0,0:0:0:0:
118,311,195595,1,0,0:0:0:0:
221,249,195724,1,8,0:0:0:0:
40,221,195853,1,0,0:0:0:0:
324,189,195983,2,0,P|366:191|411:205,1,85,2|0,0:0|0:0,0:0:0:0:
512,253,196241,1,8,0:0:0:0:
200,329,196371,2,0,P|240:342|286:348,1,85,0|2,0:0|0:0,0:0:0:0:
512,253,196629,1,0,0:0:0:0:
334,71,196759,2,0,P|293:57|247:51,1,85,8|0,0:0|0:0,0:0:0:0:
135,236,197017,6,0,P|113:272|81:307,1,85,2|0,0:0|0:0,0:0:0:0:
99,160,197276,1,8,0:0:0:0:
300,276,197405,2,0,P|278:240|246:205,1,85,0|2,0:0|0:0,0:0:0:0:
32,40,197664,1,0,0:0:0:0:
296,145,197793,1,8,0:0:0:0:
22,125,197922,1,0,0:0:0:0:
349,209,198052,2,0,P|368:246|381:287,1,85,2|0,0:0|0:0,0:0:0:0:
253,347,198310,1,8,0:0:0:0:
382,130,198440,2,0,P|410:161|433:196,1,85,0|2,0:0|0:0,0:0:0:0:
118,90,198698,2,0,P|140:125|169:156,1,85,0|8,0:0|0:0,0:0:0:0:
300,276,198957,1,0,0:0:0:0:
0,357,199086,6,0,P|5:305|33:233,1,127.5,2|0,0:0|0:0,0:0:0:0:
59,169,199345,2,0,P|52:124|35:80,1,85,8|0,0:0|0:0,0:0:0:0:
158,232,199603,2,0,P|183:269|217:302,1,85,2|0,0:0|0:0,0:0:0:0:
354,152,199862,2,0,P|328:114|294:81,1,85,8|0,0:0|0:0,0:0:0:0:
132,345,200121,2,0,P|178:365|298:372,1,170,2|8,0:0|0:0,0:0:0:0:
256,192,200509,1,0,0:0:0:0:
380,39,200638,2,0,P|338:19|292:9,1,85,2|0,0:0|0:0,0:0:0:0:
286,267,200897,2,0,P|331:271|378:265,1,85,8|0,0:0|0:0,0:0:0:0:
170,24,201155,2,0,P|122:39|54:82,1,127.5,2|0,0:0|0:0,0:0:0:0:
14,136,201414,1,8,0:0:0:0:
37,330,201543,1,0,0:0:0:0:
116,151,201672,2,0,P|154:127|199:112,1,85,2|0,0:0|0:0,0:0:0:0:
454,68,201931,5,8,0:0:0:0:
384,346,202060,1,0,0:0:0:0:
309,29,202190,2,0,L|322:131,1,85,2|0,0:0|0:0,0:0:0:0:
128,346,202448,1,8,0:0:0:0:
203,29,202578,2,0,L|190:131,1,85,0|2,0:0|0:0,0:0:0:0:
309,355,202836,1,0,0:0:0:0:
116,151,202965,1,8,0:0:0:0:
396,233,203095,1,0,0:0:0:0:
203,29,203224,6,0,P|158:26|102:28,1,85,6|0,0:0|0:0,0:0:0:0:
5,88,203483,1,8,0:0:0:0:
312,212,203612,2,0,P|269:214|227:214,1,85,0|2,0:0|0:0,0:0:0:0:
116,151,203871,1,0,0:0:0:0:
333,121,204000,1,8,0:0:0:0:
115,281,204129,1,0,0:0:0:0:
417,305,204259,2,0,P|374:307|332:307,1,85,2|0,0:0|0:0,0:0:0:0:
206,287,204517,1,8,0:0:0:0:
399,182,204647,2,0,P|442:180|484:180,1,85,0|2,0:0|0:0,0:0:0:0:
510,304,204905,1,0,0:0:0:0:
257,376,205034,2,0,P|213:376|171:375,1,85,8|0,0:0|0:0,0:0:0:0:
279,165,205293,6,0,P|337:130|407:99,1,127.5,2|0,0:0|0:0,0:0:0:0:
459,77,205552,1,8,0:0:0:0:
193,124,205681,2,0,P|223:94|258:70,1,85,0|2,0:0|0:0,0:0:0:0:
252,313,205940,2,0,P|287:289|319:260,1,85,0|8,0:0|0:0,0:0:0:0:
55,321,206198,1,0,0:0:0:0:
97,87,206328,1,2,0:0:0:0:
279,165,206457,1,0,0:0:0:0:
97,87,206586,2,0,P|89:132|86:180,1,85,8|0,0:0|0:0,0:0:0:0:
377,313,206845,1,2,0:0:0:0:
195,235,206974,1,0,0:0:0:0:
377,313,207103,2,0,P|385:268|388:220,1,85,8|0,0:0|0:0,0:0:0:0:
360,38,207362,6,0,P|295:31|224:33,1,127.5
167,46,207621,1,8,2:3:0:0:
137,355,207750,1,8,2:3:0:0:
12,195,207879,1,8,2:3:0:0:
353,203,208008,1,8,2:3:0:0:
189,40,208138,1,8,2:3:0:0:
159,359,208267,1,8,2:3:0:0:
22,184,208397,1,8,2:3:0:0:
372,192,208526,1,8,2:3:0:0:
211,36,208655,1,8,2:3:0:0:
181,364,208784,1,8,2:3:0:0:
32,172,208914,1,8,2:3:0:0:
392,180,209043,1,8,2:3:0:0:
233,32,209172,1,8,2:3:0:0:
203,369,209302,1,10,2:3:0:0:
99,352,210983,2,0,L|144:340,7,42.5,2|0|0|0|0|0|0|0,0:0|0:0|0:0|0:0|0:0|0:0|0:0|0:0,0:0:0:0:
181,329,211515,6,0,P|223:316|272:309,1,85,6|0,0:0|0:0,0:0:0:0:
93,244,211773,2,0,P|49:242|-1:248,1,85,8|0,0:0|0:0,0:0:0:0:
175,148,212032,2,0,P|218:146|268:152,1,85,2|0,0:0|0:0,0:0:0:0:
93,53,212290,2,0,P|50:62|4:81,1,85,8|0,0:0|0:0,0:0:0:0:
280,46,212548,2,0,L|371:59,1,85,2|0,0:0|0:0,0:0:0:0:
175,148,212807,2,0,L|84:161,1,85,8|0,0:0|0:0,0:0:0:0:
261,227,213066,2,0,L|352:232,1,85,2|0,0:0|0:0,0:0:0:0:
183,314,213324,2,0,L|91:319,1,85,8|0,0:0|0:0,0:0:0:0:
390,354,213583,6,0,L|482:349,1,85,2|0,0:0|0:0,0:0:0:0:
237,377,213842,1,8,0:0:0:0:
403,279,213971,2,0,L|495:274,1,85,0|2,0:0|0:0,0:0:0:0:
250,302,214229,1,0,0:0:0:0:
416,204,214359,2,0,L|508:199,1,85,8|0,0:0|0:0,0:0:0:0:
129,72,214617,1,2,0:0:0:0:
312,74,214747,1,0,0:0:0:0:
217,124,214876,1,8,0:0:0:0:
403,128,215005,1,0,0:0:0:0:
123,173,215135,1,2,0:0:0:0:
213,232,215264,1,0,0:0:0:0:
28,223,215393,1,8,0:0:0:0:
302,289,215523,1,0,0:0:0:0:
405,23,215652,5,2,0:0:0:0:
414,219,215782,1,0,0:0:0:0:
444,119,215911,1,8,0:0:0:0:
453,315,216040,1,0,0:0:0:0:
309,211,216170,1,2,0:0:0:0:
312,106,216299,1,0,0:0:0:0:
371,293,216428,1,8,0:0:0:0:
204,229,216558,1,0,0:0:0:0:
227,24,216687,2,0,L|329:11,1,85,2|0,0:0|0:0,0:0:0:0:
444,119,216946,1,8,0:0:0:0:
232,99,217075,2,0,L|130:86,1,85,0|2,0:0|0:0,0:0:0:0:
15,194,217333,1,0,0:0:0:0:
261,169,217463,2,0,L|363:156,1,85,8|0,0:0|0:0,0:0:0:0:
478,264,217721,6,0,L|376:277,1,85,2|0,0:0|0:0,0:0:0:0:
477,185,217980,1,8,0:0:0:0:
328,315,218109,2,0,L|226:328,1,85,0|2,0:0|0:0,0:0:0:0:
327,236,218368,1,0,0:0:0:0:
178,366,218497,2,0,L|76:379,1,85,8|0,0:0|0:0,0:0:0:0:
278,173,218756,1,2,0:0:0:0:
176,286,218885,1,0,0:0:0:0:
51,153,219015,1,8,0:0:0:0:
229,110,219144,1,0,0:0:0:0:
267,262,219273,1,2,0:0:0:0:
41,230,219402,1,0,0:0:0:0:
180,46,219532,1,12,0:0:0:0:
400,63,219661,1,8,0:0:0:0:
400,63,219726,1,8,0:0:0:0:
400,63,219790,5,6,0:0:0:0:
267,262,219919,1,0,0:0:0:0:
492,180,220048,1,8,0:0:0:0:
410,304,220178,1,0,0:0:0:0:
240,190,220307,1,2,0:0:0:0:
470,255,220436,1,0,0:0:0:0:
331,308,220566,1,8,0:0:0:0:
261,114,220695,1,0,0:0:0:0:
465,21,220824,2,0,L|464:106,1,85,2|0,0:0|0:0,0:0:0:0:
384,237,221083,1,8,0:0:0:0:
364,28,221212,2,0,L|362:112,1,85,0|2,0:0|0:0,0:0:0:0:
282,243,221471,1,0,0:0:0:0:
262,29,221600,2,0,L|260:113,1,85,8|0,0:0|0:0,0:0:0:0:
133,323,221859,6,0,L|134:238,1,85,2|0,0:0|0:0,0:0:0:0:
160,30,222117,1,8,0:0:0:0:
18,165,222247,2,0,L|17:250,1,85,0|2,0:0|0:0,0:0:0:0:
207,281,222505,1,0,0:0:0:0:
363,113,222635,2,0,L|364:28,1,85,8|0,0:0|0:0,0:0:0:0:
146,134,222893,1,2,0:0:0:0:
442,277,223023,1,0,0:0:0:0:
299,210,223152,1,8,0:0:0:0:
313,368,223281,1,0,0:0:0:0:
397,187,223411,1,2,0:0:0:0:
243,293,223540,1,0,0:0:0:0:
413,372,223669,1,8,0:0:0:0:
497,192,223798,1,0,0:0:0:0:
222,81,223928,5,6,0:0:0:0:
38,206,224057,1,0,0:0:0:0:
59,97,224186,1,8,0:0:0:0:
80,309,224316,1,0,0:0:0:0:
264,184,224445,1,2,0:0:0:0:
243,293,224574,1,0,0:0:0:0:
222,81,224704,1,8,0:0:0:0:
80,309,224833,1,0,0:0:0:0:
328,377,224962,2,0,L|434:370,1,85,2|0,0:0|0:0,0:0:0:0:
512,323,225221,1,8,0:0:0:0:
434,80,225350,1,0,0:0:0:0:
420,70,225415,1,0,0:0:0:0:
405,60,225480,1,0,0:0:0:0:
390,52,225545,1,0,0:0:0:0:
375,45,225609,1,0,0:0:0:0:
359,39,225674,1,0,0:0:0:0:
343,34,225739,1,0,0:0:0:0:
326,30,225803,1,0,0:0:0:0:
309,28,225868,1,0,0:0:0:0:
293,26,225933,1,0,0:0:0:0:
277,27,225997,5,2,1:1:0:0:
359,261,226126,2,0,L|387:378,1,85,6|0,1:2|2:0,0:0:0:0:
130,224,226385,2,0,L|158:341,1,85,6|0,1:2|2:0,0:0:0:0:
314,178,226643,1,0,0:0:0:0:
85,141,226773,1,2,0:0:0:0:
473,279,226902,2,0,L|501:396,1,85,6|0,1:2|2:0,0:0:0:0:
245,243,227161,2,0,L|273:360,1,85,6|0,1:2|2:0,0:0:0:0:
428,196,227419,1,0,0:0:0:0:
16,206,227548,2,0,L|44:323,1,85,6|0,1:2|2:0,0:0:0:0:
241,109,227807,2,0,L|269:-8,1,85,6|0,1:2|2:0,0:0:0:0:
412,48,228066,5,2,1:1:0:0:
149,270,228195,2,0,L|121:387,1,85,6|0,1:2|2:0,0:0:0:0:
378,233,228454,2,0,L|350:350,1,85,6|0,1:2|2:0,0:0:0:0:
194,187,228712,1,0,0:0:0:0:
423,150,228842,1,2,0:0:0:0:
35,288,228971,2,0,L|7:405,1,85,6|0,1:2|2:0,0:0:0:0:
263,252,229230,2,0,L|235:369,1,85,6|0,1:2|2:0,0:0:0:0:
80,205,229488,1,0,0:0:0:0:
492,215,229617,1,2,0:0:0:0:
287,134,229747,1,6,1:2:0:0:
449,293,229876,2,0,L|431:372,3,56.6666666666667,2|2|2|2,0:0|0:0|0:0|0:0,0:0:0:0:
157,98,230652,1,4,0:0:0:0:
256,192,230782,12,0,236601,0:0:0:0:
