osu file format v14

[General]
AudioFilename: audio.mp3
AudioLeadIn: 0
PreviewTime: 55094
Countdown: 0
SampleSet: Soft
StackLeniency: 0.7
Mode: 0
LetterboxInBreaks: 0
WidescreenStoryboard: 1

[Editor]
DistanceSpacing: 1.2
BeatDivisor: 4
GridSize: 32
TimelineZoom: 1

[Metadata]
Title:Silent Night
TitleUnicode:Silent Night
Artist:Wafu
ArtistUnicode:Wafu
Creator:Wafu
Version:Hard
Source:
Tags:christmas xmas carol stille nacht heilige nacht franz xaver gruber
BeatmapID:1155752
BeatmapSetID:545544

[Difficulty]
HPDrainRate:5.8
CircleSize:5
OverallDifficulty:5.8
ApproachRate:6.8
SliderMultiplier:1.6
SliderTickRate:1

[Events]
//Background and Video events
0,0,"bg.jpg",0,0
//Break Periods
//Storyboard Layer 0 (Background)
//Storyboard Layer 1 (Fail)
//Storyboard Layer 2 (Pass)
//Storyboard Layer 3 (Foreground)
//Storyboard Sound Samples

[TimingPoints]
29,789.473684210526,3,2,1,30,1,0
29,-133.333333333333,3,2,1,30,0,0
55292,789.473684210526,3,2,1,35,1,1
56870,-100,3,2,2,35,0,1
57660,-100,3,2,3,35,0,1
59239,-100,3,2,4,35,0,1
60028,-100,3,2,1,35,0,1
61607,-100,3,2,2,35,0,1
62397,-100,3,2,3,35,0,1
63976,-100,3,2,2,35,0,1
64765,-100,3,2,5,35,0,1
66344,-100,3,2,6,35,0,1
67134,-100,3,2,7,35,0,1
68713,-100,3,2,2,35,0,1
69502,-100,3,2,8,35,0,1
71081,-100,3,2,9,35,0,1
71870,-100,3,2,10,35,0,1
73449,-100,3,2,11,35,0,1
74239,-100,3,2,12,35,0,1
75818,-100,3,2,6,35,0,1
76607,-100,3,2,8,35,0,1
78186,-100,3,2,6,35,0,1
78976,-100,3,2,1,35,0,1
80555,-100,3,2,2,35,0,1
81344,-100,3,2,2,35,0,1
82923,-100,3,2,6,35,0,1
83713,-100,3,2,5,35,0,1
85291,-100,3,2,6,35,0,1
86080,-100,3,2,8,35,0,1
87659,-100,3,2,6,35,0,1
88449,-100,3,2,1,35,0,1
90028,-100,3,2,2,35,0,1
90817,-100,3,2,2,35,0,1
92396,-100,3,2,6,35,0,1
93186,-100,3,2,4,35,0,1
94765,-100,3,2,5,35,0,1
95555,-100,3,2,6,35,0,1
97134,-100,3,2,11,35,0,1
97923,-100,3,2,7,35,0,1
99502,-100,3,2,8,35,0,1
100291,-100,3,2,9,35,0,0
102660,-100,3,2,9,30,0,0
103449,-100,3,2,2,30,0,0
104239,-100,3,2,10,30,0,0
105028,-100,3,2,1,30,0,0
105818,-100,3,2,11,30,0,0
106607,-100,3,2,12,30,0,0
107397,-100,3,2,4,30,0,0

[Colours]
Combo1 : 242,193,79
Combo2 : 191,176,204
Combo3 : 145,189,213
Combo4 : 253,225,159
Combo5 : 203,152,220
Combo6 : 113,155,255

[HitObjects]
285,336,29,6,0,P|370:320|412:244,1,180.000006866455,2|0,0:0|0:0,0:0:0:0:
395,173,1607,1,0,0:0:0:0:
455,42,2397,1,2,0:0:0:0:
124,37,4765,6,0,B|142:85|109:120|109:120|75:156|94:203,1,180.000006866455,2|0,0:0|0:0,0:0:0:0:
132,264,6344,1,0,0:0:0:0:
238,166,7134,1,2,0:0:0:0:
393,307,9502,6,0,P|443:217|342:199,1,240.000009155274,2|0,0:0|0:0,0:0:0:0:
256,316,11871,1,2,0:0:0:0:
169,199,14239,6,0,P|68:217|118:307,1,240.000009155274,2|0,0:0|0:0,0:0:0:0:
256,316,16608,1,2,0:0:0:0:
424,81,18976,6,0,B|304:68|304:68|251:27|191:60,1,240.000009155274,2|0,0:0|0:0,0:0:0:0:
68,134,21344,2,0,P|100:211|184:203,1,180.000006866455,2|0,0:0|0:0,0:0:0:0:
140,147,22923,1,0,0:0:0:0:
232,257,23713,6,0,L|411:241,1,180.000006866455,2|0,0:0|0:0,0:0:0:0:
443,176,25292,1,0,0:0:0:0:
339,76,26081,1,2,0:0:0:0:
180,45,28450,6,0,B|144:106|189:154|189:154|234:202|199:265,1,240.000009155274,2|0,0:0|0:0,0:0:0:0:
60,305,30818,2,0,L|45:125,1,180.000006866455,2|0,0:0|0:0,0:0:0:0:
91,69,32397,1,0,0:0:0:0:
166,189,33186,6,0,P|252:195|301:125,1,180.000006866455,2|0,0:0|0:0,0:0:0:0:
307,53,34765,1,0,0:0:0:0:
165,24,35555,1,2,0:0:0:0:
195,335,37923,6,0,L|434:315,1,240.000009155274,2|0,0:0|0:0,0:0:0:0:
475,177,40292,2,0,P|404:123|316:127,1,180.000006866455,2|0,0:0|0:0,0:0:0:0:
259,171,41871,1,0,0:0:0:0:
214,307,42660,5,2,0:0:0:0:
15,40,45028,1,2,0:0:0:0:
426,161,47397,6,0,L|430:41,2,120.000004577637,2|0|0,0:0|0:0|0:0,0:0:0:0:
371,294,49765,2,0,P|290:330|205:306,1,180.000006866455,2|0,0:0|0:0,0:0:0:0:
170,243,51344,1,0,0:0:0:0:
253,125,52134,5,2,0:0:0:0:
441,115,55292,6,0,P|449:192|397:249,1,160,10|0,0:0|0:0,0:0:0:0:
301,232,56476,1,0,0:0:0:0:
233,299,56870,2,0,L|153:301,1,80,8|0,0:0|0:0,0:0:0:0:
55,246,57660,2,0,B|28:210|48:169|48:169|67:128|41:95,2,160,10|0|8,0:0|0:0|0:0,0:0:0:0:
270,306,60028,6,0,L|429:290,1,160,10|0,0:0|0:0,0:0:0:0:
475,205,61213,1,0,0:0:0:0:
426,122,61607,2,0,P|389:107|350:112,1,80,8|0,0:0|0:0,0:0:0:0:
272,193,62397,2,0,L|112:187,1,160,10|0,0:0|0:0,0:0:0:0:
0,32,63976,1,8,0:0:0:0:
209,110,64765,6,0,P|248:113|286:101,1,80,10|0,0:0|0:0,0:0:0:0:
350,28,65555,2,0,P|387:15|427:19,1,80
494,87,66344,1,8,0:0:0:0:
441,167,66739,1,0,0:0:0:0:
492,268,67134,2,0,P|445:329|368:324,2,160,10|0|8,0:0|0:0|0:0,0:0:0:0:
286,186,69502,6,0,L|206:195,1,80,10|0,0:0|0:0,0:0:0:0:
142,122,70292,2,0,L|62:131,2,80,0|0|8,0:0|0:0|0:0,0:0:0:0:
222,69,71476,1,0,0:0:0:0:
324,113,71870,2,0,P|365:178|339:250,2,160,10|0|8,0:0|0:0|0:0,0:0:0:0:
111,183,74239,6,0,L|31:190,2,80,10|0|0,0:0|0:0|0:0,0:0:0:0:
173,110,75423,1,0,0:0:0:0:
105,42,75818,1,8,0:0:0:0:
319,104,76607,2,0,P|325:181|271:236,2,160,10|0|8,0:0|0:0|0:0,0:0:0:0:
104,37,78976,6,0,L|24:45,1,80,6|0,0:0|0:0,0:0:0:0:
6,139,79765,2,0,P|37:162|76:162,1,80
160,115,80555,1,8,0:0:0:0:
104,37,80949,1,0,0:0:0:0:
214,56,81344,2,0,P|252:124|241:202,2,160,6|0|8,0:0|0:0|0:0,0:0:0:0:
83,238,83713,6,0,L|88:330,2,80,10|0|0,0:0|0:0|0:0,0:0:0:0:
139,160,84897,1,0,0:0:0:0:
198,235,85291,1,8,0:0:0:0:
404,321,86081,2,0,P|442:252|431:174,2,160,10|0|8,0:0|0:0|0:0,0:0:0:0:
211,206,88449,6,0,P|172:196|133:206,1,80,6|0,0:0|0:0,0:0:0:0:
98,295,89239,2,0,P|59:304|20:295,1,80
59,207,90028,1,8,0:0:0:0:
153,226,90423,1,0,0:0:0:0:
258,187,90818,2,0,P|332:199|358:272,2,160,6|0|8,0:0|0:0|0:0,0:0:0:0:
71,62,93186,6,0,B|54:101|77:139|77:139|101:177|84:214,1,160,6|0,0:0|0:0,0:0:0:0:
13,279,94370,1,0,0:0:0:0:
107,294,94765,2,0,L|186:286,1,80,4|0,0:0|0:0,0:0:0:0:
262,203,95555,2,0,P|266:125|208:73,2,160,6|0|8,0:0|0:0|0:0,0:0:0:0:
83,339,97923,6,0,P|120:350|159:342,1,80,6|0,0:0|0:0,0:0:0:0:
235,284,98713,2,0,P|273:276|311:287,1,80
383,350,99502,1,4,0:0:0:0:
399,255,99897,1,0,0:0:0:0:
297,208,100291,1,6,0:0:0:0:
268,220,102660,6,0,P|218:278|142:269,2,160,10|8|4,0:0|0:0|0:0,0:0:0:0:
234,95,105028,2,0,P|283:36|359:46,2,160,10|4|4,0:0|0:0|0:0,0:0:0:0:
339,168,107397,5,10,0:0:0:0:
256,192,107594,12,2,109765,0:0:0:0:
