osu file format v14

[General]
AudioFilename: audio.mp3
AudioLeadIn: 0
PreviewTime: -1
Countdown: 0
SampleSet: None
StackLeniency: 0.7
Mode: 3
LetterboxInBreaks: 0
SpecialStyle: 0
WidescreenStoryboard: 0

[Editor]
DistanceSpacing: 1.2
BeatDivisor: 4
GridSize: 4
TimelineZoom: 1

[Metadata]
Title:Sango
TitleUnicode:退冶屋珊瑚
Artist:Wada Kaoru
ArtistUnicode:Wada Kaoru
Creator:pikechu
Version:Sango
Source:Inuyasha
Tags:
BeatmapID:1647691
BeatmapSetID:784860

[Difficulty]
HPDrainRate:8
CircleSize:7
OverallDifficulty:8
ApproachRate:5
SliderMultiplier:1.4
SliderTickRate:1

[Events]
//Background and Video events
0,0,"qyc.jpg",0,0
//Break Periods
//Storyboard Layer 0 (Background)
//Storyboard Layer 1 (Fail)
//Storyboard Layer 2 (Pass)
//Storyboard Layer 3 (Foreground)
//Storyboard Sound Samples
Sample,103714,0,"E3S_s.wav",62
Sample,104571,0,"E3S.wav",62

[TimingPoints]
0,857.142,4,1,1,100,1,0

[HitObjects]
375,192,857,5,0,0:0:0:62:A3S_s.wav
10,192,1286,1,0,0:0:0:62:E4S_s.wav
302,192,1714,1,0,0:0:0:62:B4S_s.wav
83,192,2143,1,0,0:0:0:62:C5S_s.wav
448,192,2571,1,0,0:0:0:62:G5S_s.wav
229,192,3429,1,0,0:0:0:62:B6S_s.wav
156,192,4286,1,0,0:0:0:62:A3S_s.wav
375,192,4286,1,0,0:0:0:62:G6S_s.wav
10,192,4714,1,0,0:0:0:62:E4S_s.wav
302,192,5143,1,0,0:0:0:62:B4S_s.wav
83,192,5571,1,0,0:0:0:62:C5S_s.wav
448,192,6000,1,0,0:0:0:62:G5S_s.wav
229,192,6857,1,0,0:0:0:62:C6S_s.wav
156,192,7714,1,0,0:0:0:62:A3S_s.wav
375,192,7714,1,0,0:0:0:62:B5S_s.wav
10,192,8143,1,0,0:0:0:62:E4S_s.wav
83,192,8571,1,0,0:0:0:62:B4S_s.wav
302,192,8571,1,0,0:0:0:62:G5S_s.wav
448,192,9000,1,0,0:0:0:62:C5S_s.wav
156,192,9429,1,0,0:0:0:62:E5S_s.wav
229,192,9429,1,0,0:0:0:62:G5S_s.wav
375,192,11143,1,0,0:0:0:62:A3S_s.wav
10,192,11571,1,0,0:0:0:62:E4S_s.wav
302,192,12000,1,0,0:0:0:62:B4S_s.wav
83,192,12429,1,0,0:0:0:62:C5S_s.wav
448,192,12857,1,0,0:0:0:62:G5S_s.wav
229,192,14143,1,0,0:0:0:62:B5S_s.wav
156,192,14357,1,0,0:0:0:62:C6S_s.wav
10,192,14571,1,0,0:0:0:62:A3S_s.wav
375,192,14571,1,0,0:0:0:62:G6S_s.wav
302,192,15000,1,0,0:0:0:62:E4S_s.wav
83,192,15429,1,0,0:0:0:62:B4S_s.wav
448,192,15429,1,0,0:0:0:62:B6S_s.wav
229,192,15857,1,0,0:0:0:62:C5S_s.wav
156,192,16286,1,0,0:0:0:62:G5S_s.wav
375,192,17571,1,0,0:0:0:62:A6S_s.wav
10,192,17786,1,0,0:0:0:62:G6S_s.wav
83,192,18000,1,0,0:0:0:62:A3S_s.wav
302,192,18000,1,0,0:0:0:62:E6S.wav
448,192,18429,1,0,0:0:0:62:E4S_s.wav
229,192,18857,1,0,0:0:0:62:B4S_s.wav
156,192,19286,1,0,0:0:0:62:C5S_s.wav
375,192,19714,1,0,0:0:0:62:G5S_s.wav
10,192,21000,1,0,0:0:0:62:D6S_s.wav
302,192,21214,1,0,0:0:0:62:C6S_s.wav
83,192,21429,1,0,0:0:0:62:F3S_s.wav
448,192,21429,1,0,0:0:0:62:A5S.wav
229,192,21857,1,0,0:0:0:62:C4S_s.wav
156,192,22286,1,0,0:0:0:62:G4S_s.wav
375,192,22714,1,0,0:0:0:62:A4S_s.wav
10,192,23143,1,0,0:0:0:62:E5S_s.wav
302,192,24857,1,0,0:0:0:62:F3S_s.wav
83,192,25286,1,0,0:0:0:62:C4S_s.wav
448,192,25714,1,0,0:0:0:62:G4S_s.wav
229,192,26143,1,0,0:0:0:62:A4S_s.wav
156,192,26571,1,0,0:0:0:62:E5S_s.wav
375,192,27857,1,0,0:0:0:62:B5S_s.wav
10,192,28071,1,0,0:0:0:62:C6S_s.wav
83,192,28286,1,0,0:0:0:62:A3S_s.wav
302,192,28286,1,0,0:0:0:62:G6S_s.wav
448,192,28714,1,0,0:0:0:62:E4S_s.wav
156,192,29143,1,0,0:0:0:62:B4S_s.wav
229,192,29143,1,0,0:0:0:62:B6S_s.wav
375,192,29571,1,0,0:0:0:62:C5S_s.wav
10,192,30000,1,0,0:0:0:62:G5S_s.wav
302,192,31286,1,0,0:0:0:62:A6S_s.wav
83,192,31500,1,0,0:0:0:62:G6S_s.wav
156,192,31714,1,0,0:0:0:62:A3S_s.wav
448,192,31714,1,0,0:0:0:62:E6S.wav
229,192,32143,1,0,0:0:0:62:E4S_s.wav
375,192,32571,1,0,0:0:0:62:B4S_s.wav
10,192,33000,1,0,0:0:0:62:C5S_s.wav
302,192,33429,1,0,0:0:0:62:G5S_s.wav
83,192,34714,1,0,0:0:0:62:D6S_s.wav
448,192,34929,1,0,0:0:0:62:C6S_s.wav
156,192,35143,1,0,0:0:0:62:F3S_s.wav
229,192,35143,1,0,0:0:0:62:D6S_s.wav
375,192,35571,1,0,0:0:0:62:C4S_s.wav
10,192,36000,1,0,0:0:0:62:G4S_s.wav
302,192,36000,1,0,0:0:0:62:E6S_s.wav
83,192,36429,1,0,0:0:0:62:A4S_s.wav
448,192,36857,1,0,0:0:0:62:E5S_s.wav
229,192,38571,1,0,0:0:0:62:F3S_s.wav
156,192,39000,1,0,0:0:0:62:C4S_s.wav
375,192,39429,1,0,0:0:0:62:G4S_s.wav
10,192,39857,1,0,0:0:0:62:A4S_s.wav
302,192,40286,1,0,0:0:0:62:E5S_s.wav
83,192,41571,1,0,0:0:0:62:D6S_s.wav
448,192,41786,1,0,0:0:0:62:C6S_s.wav
156,192,42000,1,0,0:0:0:62:G3S_s.wav
229,192,42000,1,0,0:0:0:62:B5S_s.wav
375,192,42429,1,0,0:0:0:62:D4S_s.wav
10,192,42857,1,0,0:0:0:62:A4S_s.wav
302,192,42857,1,0,0:0:0:62:G5S_s.wav
83,192,43286,1,0,0:0:0:62:B4S_s.wav
448,192,43714,1,0,0:0:0:62:D5S_s.wav
156,192,45000,1,0,0:0:0:62:A5S_s.wav
229,192,45214,1,0,0:0:0:62:B5S_s.wav
10,192,45429,1,0,0:0:0:62:F3S_s.wav
375,192,45429,1,0,0:0:0:62:A5S.wav
302,192,45857,1,0,0:0:0:62:C4S_s.wav
83,192,46286,1,0,0:0:0:62:G4S_s.wav
448,192,46714,1,0,0:0:0:62:A4S_s.wav
156,192,47143,1,0,0:0:0:62:C5S_s.wav
229,192,48429,1,0,0:0:0:62:F5S_s.wav
10,192,48857,1,0,0:0:0:62:A3S_s.wav
375,192,48857,1,0,0:0:0:62:E5S.wav
302,192,49286,1,0,0:0:0:62:E4S_s.wav
83,192,49714,1,0,0:0:0:62:B4S_s.wav
448,192,50143,1,0,0:0:0:62:C5S_s.wav
156,192,50571,1,0,0:0:0:62:G5S_s.wav
229,192,52286,1,0,0:0:0:62:A3S_s.wav
375,192,52714,1,0,0:0:0:62:E4S_s.wav
10,192,53143,1,0,0:0:0:62:B4S_s.wav
302,192,53571,1,0,0:0:0:62:C5S_s.wav
83,192,54000,1,0,0:0:0:62:G5S_s.wav
448,192,55286,1,0,0:0:0:62:B5S_s.wav
156,192,55500,1,0,0:0:0:62:C6S_s.wav
229,192,55714,1,0,0:0:0:62:A3S_s.wav
375,192,55714,1,0,0:0:0:62:G6S_s.wav
10,192,56143,1,0,0:0:0:62:E4S_s.wav
83,192,56571,1,0,0:0:0:62:B4S_s.wav
302,192,56571,1,0,0:0:0:62:B6S_s.wav
448,192,57000,1,0,0:0:0:62:C5S_s.wav
156,192,57429,1,0,0:0:0:62:G5S_s.wav
229,192,58714,1,0,0:0:0:62:A6S_s.wav
375,192,58929,1,0,0:0:0:62:G6S_s.wav
10,192,59143,1,0,0:0:0:62:A3S_s.wav
302,192,59143,1,0,0:0:0:62:E6S.wav
83,192,59571,1,0,0:0:0:62:E4S_s.wav
448,192,60000,1,0,0:0:0:62:B4S_s.wav
156,192,60429,1,0,0:0:0:62:C5S_s.wav
229,192,60857,1,0,0:0:0:62:G5S_s.wav
375,192,62143,1,0,0:0:0:62:D6S_s.wav
10,192,62357,1,0,0:0:0:62:C6S_s.wav
83,192,62571,1,0,0:0:0:62:F3S_s.wav
302,192,62571,1,0,0:0:0:62:A5S.wav
448,192,63000,1,0,0:0:0:62:C4S_s.wav
156,192,63429,1,0,0:0:0:62:G4S_s.wav
229,192,63857,1,0,0:0:0:62:A4S_s.wav
375,192,64286,1,0,0:0:0:62:E5S_s.wav
10,192,66000,1,0,0:0:0:62:F3S_s.wav
302,192,66429,1,0,0:0:0:62:C4S_s.wav
83,192,66857,1,0,0:0:0:62:G4S_s.wav
448,192,67286,1,0,0:0:0:62:A4S_s.wav
156,192,67714,1,0,0:0:0:62:E5S_s.wav
229,192,69000,1,0,0:0:0:62:B5S_s.wav
375,192,69214,1,0,0:0:0:62:C6S_s.wav
10,192,69429,1,0,0:0:0:62:A3S_s.wav
302,192,69429,1,0,0:0:0:62:G6S_s.wav
83,192,69857,1,0,0:0:0:62:E4S_s.wav
156,192,70286,1,0,0:0:0:62:B4S_s.wav
448,192,70286,1,0,0:0:0:62:B6S_s.wav
229,192,70714,1,0,0:0:0:62:C5S_s.wav
375,192,71143,1,0,0:0:0:62:G5S_s.wav
10,192,72428,1,0,0:0:0:62:A6S_s.wav
302,192,72643,1,0,0:0:0:62:G6S_s.wav
83,192,72857,1,0,0:0:0:62:A3S_s.wav
448,192,72857,1,0,0:0:0:62:E6S.wav
156,192,73286,1,0,0:0:0:62:E4S_s.wav
229,192,73714,1,0,0:0:0:62:B4S_s.wav
375,192,74143,1,0,0:0:0:62:C5S_s.wav
10,192,74571,1,0,0:0:0:62:G5S_s.wav
302,192,75857,1,0,0:0:0:62:D6S_s.wav
83,192,76071,1,0,0:0:0:62:C6S_s.wav
156,192,76286,1,0,0:0:0:62:F3S_s.wav
448,192,76286,1,0,0:0:0:62:D6S_s.wav
229,192,76714,1,0,0:0:0:62:C4S_s.wav
10,192,77143,1,0,0:0:0:62:G4S_s.wav
375,192,77143,1,0,0:0:0:62:E6S_s.wav
302,192,77571,1,0,0:0:0:62:A4S_s.wav
83,192,78000,1,0,0:0:0:62:E5S_s.wav
448,192,79714,1,0,0:0:0:62:F3S_s.wav
156,192,80143,1,0,0:0:0:62:C4S_s.wav
229,192,80571,1,0,0:0:0:62:G4S_s.wav
10,192,81000,1,0,0:0:0:62:A4S_s.wav
375,192,81428,1,0,0:0:0:62:E5S_s.wav
302,192,82714,1,0,0:0:0:62:D6S_s.wav
83,192,82928,1,0,0:0:0:62:C6S_s.wav
156,192,83143,1,0,0:0:0:62:G3S_s.wav
448,192,83143,1,0,0:0:0:62:D6S_s.wav
229,192,83357,1,0,0:0:0:62:E6S_s.wav
10,192,83571,1,0,0:0:0:62:D4S_s.wav
375,192,83571,1,0,0:0:0:62:G6S.wav
302,192,84000,1,0,0:0:0:62:A4S_s.wav
83,192,84428,1,0,0:0:0:62:B4S_s.wav
448,192,84857,1,0,0:0:0:62:D5S_s.wav
156,192,85714,1,0,0:0:0:62:E6S_s.wav
229,192,86143,1,0,0:0:0:62:G6S_s.wav
10,192,86571,1,0,0:0:0:62:F3S_s.wav
375,192,86571,1,0,0:0:0:62:B6S_s.wav
302,192,87000,1,0,0:0:0:62:C4S_s.wav
83,192,87428,1,0,0:0:0:62:G4S_s.wav
448,192,87428,1,0,0:0:0:62:C7S.wav
156,192,87857,1,0,0:0:0:62:A4S_s.wav
229,192,88286,1,0,0:0:0:62:C5S_s.wav
375,192,89786,1,0,0:0:0:62:E6S_s.wav
10,192,90000,1,0,0:0:0:62:A3S_s.wav
302,192,90000,1,0,0:0:0:62:E7S.wav
83,192,90428,1,0,0:0:0:62:E4S_s.wav
448,192,90857,1,0,0:0:0:62:B4S_s.wav
156,192,91286,1,0,0:0:0:62:C5S_s.wav
229,192,91714,1,0,0:0:0:62:G5S_s.wav
375,192,93428,1,0,0:0:0:62:A3S_s.wav
10,192,93857,1,0,0:0:0:62:E4S_s.wav
302,192,94286,1,0,0:0:0:62:B4S_s.wav
83,192,94714,1,0,0:0:0:62:C5S_s.wav
448,192,95143,1,0,0:0:0:62:G5S_s.wav
156,192,96643,1,0,0:0:0:62:E5S_s.wav
229,192,96857,1,0,0:0:0:62:A3S_s.wav
375,192,96857,1,0,0:0:0:62:E6S.wav
10,192,97286,1,0,0:0:0:62:E4S_s.wav
302,192,97714,1,0,0:0:0:62:B4S_s.wav
83,192,98143,1,0,0:0:0:62:C5S_s.wav
448,192,98571,1,0,0:0:0:62:G5S_s.wav
156,192,100286,1,0,0:0:0:62:A3S_s.wav
229,192,100714,1,0,0:0:0:62:E4S_s.wav
375,192,101143,1,0,0:0:0:62:B4S_s.wav
10,192,101571,1,0,0:0:0:62:C5S_s.wav
302,192,102000,1,0,0:0:0:62:G5S_s.wav
10,192,103714,1,0,0:0:0:62:G3S_s.wav
83,192,103714,1,0,0:0:0:62:B3S_s.wav
156,192,103714,1,0,0:0:0:62:E4S_s.wav
229,192,103714,1,0,0:0:0:62:E5S_s.wav
302,192,103714,1,0,0:0:0:62:G5S_s.wav
375,192,103714,1,0,0:0:0:62:B5S_s.wav
448,192,103714,1,0,0:0:0:62:E6S_s.wav
10,192,104571,1,0,0:0:0:62:G3S.wav
83,192,104571,1,0,0:0:0:62:B3S.wav
156,192,104571,1,0,0:0:0:62:E4S.wav
229,192,104571,1,0,0:0:0:62:E5S.wav
302,192,104571,1,0,0:0:0:62:G5S.wav
375,192,104571,1,0,0:0:0:62:B5S.wav
448,192,104571,1,0,0:0:0:62:E6S.wav
