osu file format v14

[General]
AudioFilename: audio.mp3
AudioLeadIn: 0
PreviewTime: -1
Countdown: 0
SampleSet: None
StackLeniency: 0.7
Mode: 3
LetterboxInBreaks: 0
SpecialStyle: 0
WidescreenStoryboard: 0

[Editor]
DistanceSpacing: 1.2
BeatDivisor: 4
GridSize: 4
TimelineZoom: 1

[Metadata]
Title:Naughty Cat
TitleUnicode:顽皮的猫儿
Artist:Wada Kaoru
ArtistUnicode:Wada Kaoru
Creator:pikechu
Version:Naughty Cat
Source:Inuyasha
Tags:
BeatmapID:1647688
BeatmapSetID:784860

[Difficulty]
HPDrainRate:8
CircleSize:7
OverallDifficulty:8
ApproachRate:5
SliderMultiplier:1.4
SliderTickRate:1

[Events]
//Background and Video events
0,0,"qyc.jpg",0,0
//Break Periods
//Storyboard Layer 0 (Background)
//Storyboard Layer 1 (Fail)
//Storyboard Layer 2 (Pass)
//Storyboard Layer 3 (Foreground)
//Storyboard Sound Samples

[TimingPoints]
0,625,4,1,1,100,1,0

[HitObjects]
10,192,0,5,0,0:0:0:62:A3S_s.wav
375,192,0,1,0,0:0:0:62:G6S_s.wav
156,192,313,1,0,0:0:0:62:E4S_s.wav
448,192,313,1,0,0:0:0:62:F#6S_Gb6S_s.wav
302,192,625,1,0,0:0:0:62:A4S_s.wav
83,192,938,1,0,0:0:0:62:D6S_s.wav
10,192,1250,1,0,0:0:0:62:A3S_s.wav
229,192,1250,1,0,0:0:0:62:E6S_s.wav
375,192,1563,1,0,0:0:0:62:E4S_s.wav
156,192,1875,1,0,0:0:0:62:A4S_s.wav
302,192,2500,1,0,0:0:0:62:A3S_s.wav
448,192,2500,1,0,0:0:0:62:G6S_s.wav
83,192,2813,1,0,0:0:0:62:E4S_s.wav
229,192,2813,1,0,0:0:0:62:F#6S_Gb6S_s.wav
10,192,3125,1,0,0:0:0:62:A4S_s.wav
375,192,3438,1,0,0:0:0:62:D6S_s.wav
156,192,3750,1,0,0:0:0:62:A3S_s.wav
302,192,3750,1,0,0:0:0:62:E6S_s.wav
448,192,4063,1,0,0:0:0:62:E4S_s.wav
229,192,4375,1,0,0:0:0:62:A4S_s.wav
10,192,5000,1,0,0:0:0:62:G3S_s.wav
83,192,5000,1,0,0:0:0:62:B5S_s.wav
156,192,5313,1,0,0:0:0:62:D4S_s.wav
375,192,5313,1,0,0:0:0:62:B5S_s.wav
302,192,5625,1,0,0:0:0:62:G4S_s.wav
448,192,5625,1,0,0:0:0:62:B5S_s.wav
229,192,5938,1,0,0:0:0:62:C6S_s.wav
10,192,6250,1,0,0:0:0:62:G3S_s.wav
83,192,6250,1,0,0:0:0:62:D6S_s.wav
156,192,6563,1,0,0:0:0:62:D4S_s.wav
375,192,6563,1,0,0:0:0:62:B5S_s.wav
302,192,6875,1,0,0:0:0:62:G4S_s.wav
448,192,6875,1,0,0:0:0:62:G5S_s.wav
229,192,7188,1,0,0:0:0:62:G5S_s.wav
10,192,7500,1,0,0:0:0:62:A3S_s.wav
83,192,7500,1,0,0:0:0:62:A5S_s.wav
156,192,7813,1,0,0:0:0:62:E4S_s.wav
375,192,7813,1,0,0:0:0:62:A5S_s.wav
302,192,8125,1,0,0:0:0:62:A4S_s.wav
448,192,8125,1,0,0:0:0:62:A5S_s.wav
229,192,8438,1,0,0:0:0:62:D6S_s.wav
10,192,8750,1,0,0:0:0:62:A3S_s.wav
83,192,8750,1,0,0:0:0:62:E6S.wav
375,192,9063,1,0,0:0:0:62:E4S_s.wav
156,192,9375,1,0,0:0:0:62:A4S_s.wav
302,192,10000,1,0,0:0:0:62:A3S_s.wav
448,192,10000,1,0,0:0:0:62:G6S_s.wav
10,192,10313,1,0,0:0:0:62:E4S_s.wav
229,192,10313,1,0,0:0:0:62:F#6S_Gb6S_s.wav
83,192,10625,1,0,0:0:0:62:A4S_s.wav
375,192,10938,1,0,0:0:0:62:D6S_s.wav
156,192,11250,1,0,0:0:0:62:A3S_s.wav
448,192,11250,1,0,0:0:0:62:E6S_s.wav
302,192,11563,1,0,0:0:0:62:E4S_s.wav
229,192,11875,1,0,0:0:0:62:A4S_s.wav
10,192,12500,1,0,0:0:0:62:A3S_s.wav
83,192,12500,1,0,0:0:0:62:G6S_s.wav
156,192,12813,1,0,0:0:0:62:E4S_s.wav
375,192,12813,1,0,0:0:0:62:F#6S_Gb6S_s.wav
448,192,13125,1,0,0:0:0:62:A4S_s.wav
302,192,13438,1,0,0:0:0:62:D6S_s.wav
83,192,13750,1,0,0:0:0:62:A3S_s.wav
229,192,13750,1,0,0:0:0:62:E6S_s.wav
10,192,14063,1,0,0:0:0:62:E4S_s.wav
375,192,14375,1,0,0:0:0:62:A4S_s.wav
156,192,15000,1,0,0:0:0:62:G3S_s.wav
448,192,15000,1,0,0:0:0:62:B5S_s.wav
229,192,15313,1,0,0:0:0:62:D4S_s.wav
302,192,15313,1,0,0:0:0:62:B5S_s.wav
10,192,15625,1,0,0:0:0:62:G4S_s.wav
83,192,15625,1,0,0:0:0:62:B5S_s.wav
375,192,15938,1,0,0:0:0:62:C6S_s.wav
156,192,16250,1,0,0:0:0:62:G3S_s.wav
448,192,16250,1,0,0:0:0:62:D6S_s.wav
229,192,16563,1,0,0:0:0:62:D4S_s.wav
302,192,16563,1,0,0:0:0:62:B5S_s.wav
10,192,16875,1,0,0:0:0:62:G4S_s.wav
83,192,16875,1,0,0:0:0:62:G5S_s.wav
375,192,17188,1,0,0:0:0:62:G5S_s.wav
156,192,17500,1,0,0:0:0:62:A3S_s.wav
448,192,17500,1,0,0:0:0:62:A5S_s.wav
229,192,17813,1,0,0:0:0:62:E4S_s.wav
302,192,17813,1,0,0:0:0:62:A5S_s.wav
10,192,18125,1,0,0:0:0:62:A4S_s.wav
83,192,18125,1,0,0:0:0:62:A5S_s.wav
375,192,18438,1,0,0:0:0:62:G5S_s.wav
156,192,18750,1,0,0:0:0:62:A3S_s.wav
448,192,18750,1,0,0:0:0:62:A5S_s.wav
229,192,19063,1,0,0:0:0:62:E4S_s.wav
83,192,19375,1,0,0:0:0:62:A4S_s.wav
302,192,19375,1,0,0:0:0:62:C6S_s.wav
10,192,19688,1,0,0:0:0:62:D6S_s.wav
156,192,20000,1,0,0:0:0:62:C4S_s.wav
375,192,20000,1,0,0:0:0:62:E6S_s.wav
448,192,20313,1,0,0:0:0:62:E4S_s.wav
229,192,20625,1,0,0:0:0:62:G4S_s.wav
302,192,20625,1,0,0:0:0:62:G6S_s.wav
10,192,21250,1,0,0:0:0:62:D4S_s.wav
83,192,21250,1,0,0:0:0:62:F#6S_Gb6S_s.wav
375,192,21563,1,0,0:0:0:62:F#4S_Gb4S_s.wav
156,192,21875,1,0,0:0:0:62:A4S_s.wav
448,192,21875,1,0,0:0:0:62:D6S_s.wav
229,192,22500,1,0,0:0:0:62:A3S_s.wav
302,192,22500,1,0,0:0:0:62:E6S_s.wav
10,192,22813,1,0,0:0:0:62:E4S_s.wav
83,192,22813,1,0,0:0:0:62:F#6S_Gb6S_s.wav
156,192,23125,1,0,0:0:0:62:A4S_s.wav
375,192,23125,1,0,0:0:0:62:E6S_s.wav
448,192,23438,1,0,0:0:0:62:D6S_s.wav
229,192,23750,1,0,0:0:0:62:A3S_s.wav
302,192,23750,1,0,0:0:0:62:E6S_s.wav
10,192,24063,1,0,0:0:0:62:E4S_s.wav
83,192,24375,1,0,0:0:0:62:A4S_s.wav
375,192,24375,1,0,0:0:0:62:C6S_s.wav
156,192,24688,1,0,0:0:0:62:D6S_s.wav
229,192,25000,1,0,0:0:0:62:C4S_s.wav
448,192,25000,1,0,0:0:0:62:E6S_s.wav
302,192,25313,1,0,0:0:0:62:E4S_s.wav
10,192,25625,1,0,0:0:0:62:G4S_s.wav
375,192,25625,1,0,0:0:0:62:G6S_s.wav
83,192,26250,1,0,0:0:0:62:D4S_s.wav
156,192,26250,1,0,0:0:0:62:A6S.wav
448,192,26563,1,0,0:0:0:62:F#4S_Gb4S_s.wav
229,192,26875,1,0,0:0:0:62:A4S_s.wav
302,192,27188,1,0,0:0:0:62:F#6S_Gb6S_s.wav
10,192,27500,1,0,0:0:0:62:A3S_s.wav
375,192,27500,1,0,0:0:0:62:E6S.wav
156,192,27813,1,0,0:0:0:62:E4S_s.wav
83,192,28125,1,0,0:0:0:62:A4S_s.wav
448,192,28750,1,0,0:0:0:62:A3S_s.wav
229,192,29063,1,0,0:0:0:62:E4S_s.wav
10,192,29375,1,0,0:0:0:62:A4S_s.wav
302,192,29375,1,0,0:0:0:62:C6S_s.wav
375,192,29688,1,0,0:0:0:62:D6S_s.wav
83,192,30000,1,0,0:0:0:62:C4S_s.wav
156,192,30000,1,0,0:0:0:62:E6S_s.wav
448,192,30313,1,0,0:0:0:62:E4S_s.wav
229,192,30625,1,0,0:0:0:62:G4S_s.wav
302,192,30625,1,0,0:0:0:62:G6S_s.wav
10,192,31250,1,0,0:0:0:62:D4S_s.wav
375,192,31250,1,0,0:0:0:62:F#6S_Gb6S_s.wav
156,192,31563,1,0,0:0:0:62:F#4S_Gb4S_s.wav
83,192,31875,1,0,0:0:0:62:A4S_s.wav
448,192,31875,1,0,0:0:0:62:D6S_s.wav
229,192,32500,1,0,0:0:0:62:A3S_s.wav
302,192,32500,1,0,0:0:0:62:E6S_s.wav
10,192,32813,1,0,0:0:0:62:E4S_s.wav
375,192,32813,1,0,0:0:0:62:F#6S_Gb6S_s.wav
156,192,33125,1,0,0:0:0:62:A4S_s.wav
448,192,33125,1,0,0:0:0:62:E6S_s.wav
83,192,33438,1,0,0:0:0:62:D6S_s.wav
229,192,33750,1,0,0:0:0:62:A3S_s.wav
302,192,33750,1,0,0:0:0:62:E6S_s.wav
10,192,34063,1,0,0:0:0:62:E4S_s.wav
156,192,34375,1,0,0:0:0:62:A4S_s.wav
375,192,34375,1,0,0:0:0:62:A5S_s.wav
448,192,34688,1,0,0:0:0:62:B5S_s.wav
83,192,35000,1,0,0:0:0:62:F3S_s.wav
229,192,35000,1,0,0:0:0:62:C6S_s.wav
302,192,35313,1,0,0:0:0:62:C4S_s.wav
10,192,35625,1,0,0:0:0:62:F4S_s.wav
375,192,35625,1,0,0:0:0:62:D6S_s.wav
156,192,36250,1,0,0:0:0:62:G3S_s.wav
448,192,36250,1,0,0:0:0:62:B5S.wav
83,192,36563,1,0,0:0:0:62:D4S_s.wav
229,192,36875,1,0,0:0:0:62:G4S_s.wav
302,192,37188,1,0,0:0:0:62:G5S_s.wav
10,192,37500,1,0,0:0:0:62:A3S_s.wav
375,192,37500,1,0,0:0:0:62:A5S_s.wav
156,192,37813,1,0,0:0:0:62:E4S_s.wav
448,192,38125,1,0,0:0:0:62:A4S_s.wav
83,192,38750,1,0,0:0:0:62:A3S_s.wav
229,192,39063,1,0,0:0:0:62:E4S_s.wav
302,192,39375,1,0,0:0:0:62:A4S_s.wav
10,192,40000,1,0,0:0:0:62:A3S_s.wav
375,192,40000,1,0,0:0:0:62:G6S_s.wav
156,192,40313,1,0,0:0:0:62:E4S_s.wav
448,192,40313,1,0,0:0:0:62:F#6S_Gb6S_s.wav
83,192,40625,1,0,0:0:0:62:A4S_s.wav
229,192,40938,1,0,0:0:0:62:D6S_s.wav
10,192,41250,1,0,0:0:0:62:A3S_s.wav
302,192,41250,1,0,0:0:0:62:E6S_s.wav
375,192,41563,1,0,0:0:0:62:E4S_s.wav
156,192,41875,1,0,0:0:0:62:A4S_s.wav
83,192,42500,1,0,0:0:0:62:A3S_s.wav
448,192,42500,1,0,0:0:0:62:G6S_s.wav
10,192,42813,1,0,0:0:0:62:E4S_s.wav
229,192,42813,1,0,0:0:0:62:F#6S_Gb6S_s.wav
302,192,43125,1,0,0:0:0:62:A4S_s.wav
375,192,43438,1,0,0:0:0:62:D6S_s.wav
156,192,43750,1,0,0:0:0:62:A3S_s.wav
448,192,43750,1,0,0:0:0:62:E6S_s.wav
83,192,44063,1,0,0:0:0:62:E4S_s.wav
229,192,44375,1,0,0:0:0:62:A4S_s.wav
10,192,45000,1,0,0:0:0:62:G3S_s.wav
302,192,45000,1,0,0:0:0:62:B5S_s.wav
156,192,45313,1,0,0:0:0:62:D4S_s.wav
375,192,45313,1,0,0:0:0:62:B5S_s.wav
83,192,45625,1,0,0:0:0:62:G4S_s.wav
448,192,45625,1,0,0:0:0:62:B5S_s.wav
229,192,45938,1,0,0:0:0:62:C6S_s.wav
10,192,46250,1,0,0:0:0:62:G3S_s.wav
302,192,46250,1,0,0:0:0:62:D6S_s.wav
156,192,46563,1,0,0:0:0:62:D4S_s.wav
375,192,46563,1,0,0:0:0:62:B5S_s.wav
83,192,46875,1,0,0:0:0:62:G4S_s.wav
448,192,46875,1,0,0:0:0:62:G5S_s.wav
229,192,47188,1,0,0:0:0:62:G5S_s.wav
10,192,47500,1,0,0:0:0:62:A3S_s.wav
302,192,47500,1,0,0:0:0:62:A5S_s.wav
156,192,47813,1,0,0:0:0:62:E4S_s.wav
375,192,47813,1,0,0:0:0:62:A5S_s.wav
83,192,48125,1,0,0:0:0:62:A4S_s.wav
448,192,48125,1,0,0:0:0:62:A5S_s.wav
229,192,48438,1,0,0:0:0:62:D6S_s.wav
10,192,48750,1,0,0:0:0:62:A3S_s.wav
302,192,48750,1,0,0:0:0:62:E6S.wav
156,192,49063,1,0,0:0:0:62:E4S_s.wav
375,192,49375,1,0,0:0:0:62:A4S_s.wav
83,192,50000,1,0,0:0:0:62:A3S_s.wav
448,192,50000,1,0,0:0:0:62:G6S_s.wav
229,192,50313,1,0,0:0:0:62:E4S_s.wav
302,192,50313,1,0,0:0:0:62:F#6S_Gb6S_s.wav
10,192,50625,1,0,0:0:0:62:A4S_s.wav
156,192,50938,1,0,0:0:0:62:D6S_s.wav
83,192,51250,1,0,0:0:0:62:A3S_s.wav
375,192,51250,1,0,0:0:0:62:E6S_s.wav
448,192,51563,1,0,0:0:0:62:E4S_s.wav
229,192,51875,1,0,0:0:0:62:A4S_s.wav
10,192,52500,1,0,0:0:0:62:A3S_s.wav
302,192,52500,1,0,0:0:0:62:G6S_s.wav
156,192,52813,1,0,0:0:0:62:E4S_s.wav
375,192,52813,1,0,0:0:0:62:F#6S_Gb6S_s.wav
83,192,53125,1,0,0:0:0:62:A4S_s.wav
448,192,53438,1,0,0:0:0:62:D6S_s.wav
229,192,53750,1,0,0:0:0:62:A3S_s.wav
302,192,53750,1,0,0:0:0:62:E6S_s.wav
10,192,54063,1,0,0:0:0:62:E4S_s.wav
375,192,54375,1,0,0:0:0:62:A4S_s.wav
83,192,55000,1,0,0:0:0:62:G3S_s.wav
156,192,55000,1,0,0:0:0:62:B5S_s.wav
302,192,55313,1,0,0:0:0:62:D4S_s.wav
448,192,55313,1,0,0:0:0:62:B5S_s.wav
10,192,55625,1,0,0:0:0:62:G4S_s.wav
229,192,55625,1,0,0:0:0:62:B5S_s.wav
375,192,55938,1,0,0:0:0:62:C6S_s.wav
83,192,56250,1,0,0:0:0:62:G3S_s.wav
156,192,56250,1,0,0:0:0:62:D6S_s.wav
302,192,56563,1,0,0:0:0:62:D4S_s.wav
448,192,56563,1,0,0:0:0:62:B5S_s.wav
10,192,56875,1,0,0:0:0:62:G4S_s.wav
229,192,56875,1,0,0:0:0:62:G5S_s.wav
375,192,57188,1,0,0:0:0:62:G5S_s.wav
83,192,57500,1,0,0:0:0:62:A3S_s.wav
156,192,57500,1,0,0:0:0:62:A5S_s.wav
302,192,57813,1,0,0:0:0:62:E4S_s.wav
448,192,57813,1,0,0:0:0:62:A5S_s.wav
10,192,58125,1,0,0:0:0:62:A4S_s.wav
229,192,58125,1,0,0:0:0:62:A5S_s.wav
375,192,58438,1,0,0:0:0:62:E6S_s.wav
83,192,58750,1,0,0:0:0:62:A3S_s.wav
156,192,58750,1,0,0:0:0:62:A5S_s.wav
302,192,59063,1,0,0:0:0:62:E4S_s.wav
448,192,59375,1,0,0:0:0:62:A4S_s.wav
10,192,60000,1,0,0:0:0:62:A5S_s.wav
229,192,60000,1,0,0:0:0:62:A6S_s.wav
156,192,60313,1,0,0:0:0:62:A5S_s.wav
375,192,60313,1,0,0:0:0:62:A6S_s.wav
83,192,60625,1,0,0:0:0:62:A5S_s.wav
302,192,60625,1,0,0:0:0:62:A6S_s.wav
10,192,60938,1,0,0:0:0:62:E6S_s.wav
448,192,60938,1,0,0:0:0:62:E7S_s.wav
156,192,61250,1,0,0:0:0:62:A5S_s.wav
229,192,61250,1,0,0:0:0:62:A6S_s.wav
83,192,61875,1,0,0:0:0:62:A3S_s.wav
302,192,61875,1,0,0:0:0:62:E4S_s.wav
375,192,61875,1,0,0:0:0:62:A4S_s.wav
