osu file format v14

[General]
AudioFilename: audio.mp3
AudioLeadIn: 0
PreviewTime: -1
Countdown: 0
SampleSet: None
StackLeniency: 0.7
Mode: 3
LetterboxInBreaks: 0
SpecialStyle: 0
WidescreenStoryboard: 0

[Editor]
DistanceSpacing: 1.2
BeatDivisor: 4
GridSize: 4
TimelineZoom: 1

[Metadata]
Title:Kikyou
TitleUnicode:悲运的巫女桔梗
Artist:Wada Kaoru
ArtistUnicode:Wada Kaoru
Creator:pikechu
Version:Kikyou
Source:Inuyasha
Tags:
BeatmapID:1647685
BeatmapSetID:784860

[Difficulty]
HPDrainRate:8
CircleSize:7
OverallDifficulty:8
ApproachRate:5
SliderMultiplier:1.4
SliderTickRate:1

[Events]
//Background and Video events
0,0,"qyc.jpg",0,0
//Break Periods
//Storyboard Layer 0 (Background)
//Storyboard Layer 1 (Fail)
//Storyboard Layer 2 (Pass)
//Storyboard Layer 3 (Foreground)
//Storyboard Sound Samples

[TimingPoints]
0,1000,4,1,1,100,1,0

[HitObjects]
375,192,0,5,0,0:0:0:62:B6S_s.wav
10,192,500,1,0,0:0:0:62:A6S_s.wav
448,192,1000,1,0,0:0:0:62:E6S_s.wav
83,192,1500,1,0,0:0:0:62:F#6S_Gb6S_s.wav
302,192,2000,1,0,0:0:0:62:B5S_s.wav
156,192,2500,1,0,0:0:0:62:A5S_s.wav
229,192,3000,1,0,0:0:0:62:E5S_s.wav
375,192,3500,1,0,0:0:0:62:F#5S_Gb5S_s.wav
10,192,4000,1,0,0:0:0:62:B3S_s.wav
448,192,4500,1,0,0:0:0:62:E4S_s.wav
83,192,5000,1,0,0:0:0:62:F#4S_Gb4S_s.wav
302,192,5500,1,0,0:0:0:62:B4S_s.wav
156,192,6000,1,0,0:0:0:62:A4S_s.wav
229,192,7000,1,0,0:0:0:62:E4S_s.wav
375,192,8000,1,0,0:0:0:62:F#4S_Gb4S.wav
10,192,10000,1,0,0:0:0:62:B3S.wav
448,192,10000,1,0,0:0:0:62:B6S.wav
83,192,12000,1,0,0:0:0:62:E3S_s.wav
302,192,12000,1,0,0:0:0:62:E6S_s.wav
156,192,12500,1,0,0:0:0:62:B3S_s.wav
229,192,13000,1,0,0:0:0:62:E4S_s.wav
375,192,13000,1,0,0:0:0:62:B6S_s.wav
10,192,13500,1,0,0:0:0:62:F#4S_Gb4S_s.wav
83,192,14000,1,0,0:0:0:62:B4S.wav
448,192,14000,1,0,0:0:0:62:F#6S_Gb6S.wav
156,192,16000,1,0,0:0:0:62:D3S_s.wav
302,192,16000,1,0,0:0:0:62:F#6S_Gb6S_s.wav
229,192,16500,1,0,0:0:0:62:B3S_s.wav
375,192,16500,1,0,0:0:0:62:E6S_s.wav
10,192,17000,1,0,0:0:0:62:E4S_s.wav
448,192,17000,1,0,0:0:0:62:B5S_s.wav
83,192,17500,1,0,0:0:0:62:F#4S_Gb4S_s.wav
302,192,17500,1,0,0:0:0:62:E6S_s.wav
156,192,18000,1,0,0:0:0:62:B4S.wav
375,192,18000,1,0,0:0:0:62:F#6S_Gb6S.wav
10,192,20000,1,0,0:0:0:62:E3S_s.wav
229,192,20000,1,0,0:0:0:62:E6S_s.wav
448,192,20500,1,0,0:0:0:62:B3S_s.wav
83,192,21000,1,0,0:0:0:62:E4S_s.wav
302,192,21000,1,0,0:0:0:62:B6S_s.wav
156,192,21500,1,0,0:0:0:62:F#4S_Gb4S_s.wav
10,192,22000,1,0,0:0:0:62:B4S.wav
375,192,22000,1,0,0:0:0:62:F#6S_Gb6S.wav
229,192,24000,1,0,0:0:0:62:D3S_s.wav
448,192,24000,1,0,0:0:0:62:F#6S_Gb6S_s.wav
83,192,24500,1,0,0:0:0:62:B3S_s.wav
302,192,24500,1,0,0:0:0:62:E6S_s.wav
156,192,25000,1,0,0:0:0:62:E4S_s.wav
375,192,25000,1,0,0:0:0:62:B5S_s.wav
10,192,25500,1,0,0:0:0:62:F#4S_Gb4S_s.wav
448,192,25500,1,0,0:0:0:62:E6S_s.wav
83,192,26000,1,0,0:0:0:62:B4S.wav
229,192,26000,1,0,0:0:0:62:F#6S_Gb6S_s.wav
302,192,27000,1,0,0:0:0:62:E6S_s.wav
156,192,27500,1,0,0:0:0:62:F#6S_Gb6S_s.wav
10,192,28000,1,0,0:0:0:62:C3S_s.wav
375,192,28000,1,0,0:0:0:62:G6S_s.wav
448,192,28500,1,0,0:0:0:62:B3S_s.wav
83,192,29000,1,0,0:0:0:62:G4S_s.wav
229,192,29000,1,0,0:0:0:62:D7S_s.wav
302,192,29500,1,0,0:0:0:62:B4S_s.wav
156,192,30000,1,0,0:0:0:62:D5S_s.wav
375,192,30000,1,0,0:0:0:62:A6S.wav
10,192,32000,1,0,0:0:0:62:D3S_s.wav
448,192,32000,1,0,0:0:0:62:A6S.wav
83,192,32500,1,0,0:0:0:62:A3S_s.wav
229,192,33000,1,0,0:0:0:62:D4S_s.wav
156,192,33500,1,0,0:0:0:62:F#4S_Gb4S_s.wav
302,192,33500,1,0,0:0:0:62:G6S_s.wav
10,192,34000,1,0,0:0:0:62:A4S_s.wav
375,192,34000,1,0,0:0:0:62:D6S_s.wav
448,192,35000,1,0,0:0:0:62:E6S_s.wav
83,192,35500,1,0,0:0:0:62:F#6S_Gb6S_s.wav
229,192,36000,1,0,0:0:0:62:C3S_s.wav
302,192,36000,1,0,0:0:0:62:G6S.wav
156,192,36500,1,0,0:0:0:62:G3S_s.wav
375,192,37000,1,0,0:0:0:62:C4S_s.wav
10,192,37500,1,0,0:0:0:62:E4S_s.wav
83,192,38000,1,0,0:0:0:62:G4S_s.wav
448,192,38000,1,0,0:0:0:62:B6S.wav
229,192,40000,1,0,0:0:0:62:D3S_s.wav
302,192,40500,1,0,0:0:0:62:A3S_s.wav
156,192,41000,1,0,0:0:0:62:D4S_s.wav
375,192,41000,1,0,0:0:0:62:A6S_s.wav
10,192,41500,1,0,0:0:0:62:F#4S_Gb4S_s.wav
448,192,41500,1,0,0:0:0:62:G6S_s.wav
83,192,42000,1,0,0:0:0:62:A4S_s.wav
229,192,42000,1,0,0:0:0:62:F#6S_Gb6S_s.wav
302,192,43000,1,0,0:0:0:62:D6S_s.wav
156,192,44000,1,0,0:0:0:62:E3S_s.wav
375,192,44000,1,0,0:0:0:62:E6S_s.wav
10,192,44500,1,0,0:0:0:62:B3S_s.wav
229,192,45000,1,0,0:0:0:62:E4S_s.wav
448,192,45000,1,0,0:0:0:62:B6S_s.wav
83,192,45500,1,0,0:0:0:62:F#4S_Gb4S_s.wav
156,192,46000,1,0,0:0:0:62:B4S.wav
302,192,46000,1,0,0:0:0:62:F#6S_Gb6S.wav
10,192,48000,1,0,0:0:0:62:D3S_s.wav
375,192,48000,1,0,0:0:0:62:F#6S_Gb6S_s.wav
229,192,48500,1,0,0:0:0:62:B3S_s.wav
448,192,48500,1,0,0:0:0:62:E6S_s.wav
83,192,49000,1,0,0:0:0:62:E4S_s.wav
302,192,49000,1,0,0:0:0:62:B5S_s.wav
156,192,49500,1,0,0:0:0:62:F#4S_Gb4S_s.wav
375,192,49500,1,0,0:0:0:62:E6S_s.wav
10,192,50000,1,0,0:0:0:62:B4S.wav
229,192,50000,1,0,0:0:0:62:F#6S_Gb6S.wav
83,192,52000,1,0,0:0:0:62:E3S_s.wav
448,192,52000,1,0,0:0:0:62:E6S_s.wav
302,192,52500,1,0,0:0:0:62:B3S_s.wav
156,192,53000,1,0,0:0:0:62:E4S_s.wav
375,192,53000,1,0,0:0:0:62:B6S_s.wav
229,192,53500,1,0,0:0:0:62:F#4S_Gb4S_s.wav
10,192,54000,1,0,0:0:0:62:B4S.wav
448,192,54000,1,0,0:0:0:62:F#6S_Gb6S.wav
83,192,56000,1,0,0:0:0:62:D3S_s.wav
302,192,56000,1,0,0:0:0:62:F#6S_Gb6S_s.wav
156,192,56500,1,0,0:0:0:62:B3S_s.wav
375,192,56500,1,0,0:0:0:62:E6S_s.wav
10,192,57000,1,0,0:0:0:62:E4S_s.wav
229,192,57000,1,0,0:0:0:62:B5S_s.wav
83,192,57500,1,0,0:0:0:62:F#4S_Gb4S_s.wav
448,192,57500,1,0,0:0:0:62:E6S_s.wav
156,192,58000,1,0,0:0:0:62:B4S.wav
302,192,58000,1,0,0:0:0:62:F#6S_Gb6S_s.wav
375,192,59000,1,0,0:0:0:62:E6S_s.wav
10,192,59500,1,0,0:0:0:62:F#6S_Gb6S_s.wav
83,192,60000,1,0,0:0:0:62:C3S_s.wav
229,192,60000,1,0,0:0:0:62:G6S_s.wav
448,192,60500,1,0,0:0:0:62:B3S_s.wav
156,192,61000,1,0,0:0:0:62:G4S_s.wav
302,192,61000,1,0,0:0:0:62:D7S_s.wav
375,192,61500,1,0,0:0:0:62:B4S_s.wav
10,192,62000,1,0,0:0:0:62:D5S_s.wav
229,192,62000,1,0,0:0:0:62:A6S.wav
83,192,64000,1,0,0:0:0:62:D3S_s.wav
448,192,64000,1,0,0:0:0:62:A6S.wav
156,192,64500,1,0,0:0:0:62:A3S_s.wav
302,192,65000,1,0,0:0:0:62:D4S_s.wav
10,192,65500,1,0,0:0:0:62:F#4S_Gb4S_s.wav
375,192,65500,1,0,0:0:0:62:G6S_s.wav
83,192,66000,1,0,0:0:0:62:A4S_s.wav
229,192,66000,1,0,0:0:0:62:D6S_s.wav
448,192,67000,1,0,0:0:0:62:E6S_s.wav
156,192,67500,1,0,0:0:0:62:F#6S_Gb6S_s.wav
10,192,68000,1,0,0:0:0:62:C3S_s.wav
302,192,68000,1,0,0:0:0:62:G6S.wav
375,192,68500,1,0,0:0:0:62:G3S_s.wav
229,192,69000,1,0,0:0:0:62:C4S_s.wav
83,192,69500,1,0,0:0:0:62:E4S_s.wav
156,192,70000,1,0,0:0:0:62:G4S_s.wav
448,192,70000,1,0,0:0:0:62:B6S.wav
302,192,72000,1,0,0:0:0:62:D3S_s.wav
10,192,72500,1,0,0:0:0:62:A3S_s.wav
229,192,73000,1,0,0:0:0:62:D4S_s.wav
375,192,73000,1,0,0:0:0:62:A6S_s.wav
83,192,73500,1,0,0:0:0:62:F#4S_Gb4S_s.wav
448,192,73500,1,0,0:0:0:62:G6S_s.wav
156,192,74000,1,0,0:0:0:62:A4S_s.wav
302,192,74000,1,0,0:0:0:62:F#6S_Gb6S_s.wav
10,192,75000,1,0,0:0:0:62:D6S_s.wav
229,192,76000,1,0,0:0:0:62:E3S_s.wav
375,192,76000,1,0,0:0:0:62:E6S.wav
83,192,76500,1,0,0:0:0:62:B3S_s.wav
448,192,77000,1,0,0:0:0:62:E4S_s.wav
156,192,77500,1,0,0:0:0:62:F#4S_Gb4S_s.wav
302,192,78000,1,0,0:0:0:62:B4S.wav
10,192,80000,1,0,0:0:0:62:D3S_s.wav
229,192,80000,1,0,0:0:0:62:D6S.wav
375,192,80500,1,0,0:0:0:62:B3S_s.wav
83,192,81000,1,0,0:0:0:62:E4S_s.wav
156,192,81500,1,0,0:0:0:62:F#4S_Gb4S_s.wav
448,192,81500,1,0,0:0:0:62:E6S_s.wav
229,192,82000,1,0,0:0:0:62:B4S.wav
302,192,82000,1,0,0:0:0:62:F#6S_Gb6S.wav
10,192,84000,1,0,0:0:0:62:E3S_s.wav
375,192,84000,1,0,0:0:0:62:E6S.wav
83,192,84500,1,0,0:0:0:62:B3S_s.wav
448,192,85000,1,0,0:0:0:62:E4S_s.wav
156,192,85500,1,0,0:0:0:62:F#4S_Gb4S_s.wav
229,192,86000,1,0,0:0:0:62:B4S.wav
10,192,88000,1,0,0:0:0:62:D3S_s.wav
302,192,88000,1,0,0:0:0:62:D6S.wav
375,192,88500,1,0,0:0:0:62:B3S_s.wav
83,192,89000,1,0,0:0:0:62:E4S_s.wav
156,192,89500,1,0,0:0:0:62:F#4S_Gb4S_s.wav
448,192,89500,1,0,0:0:0:62:E6S_s.wav
10,192,90000,1,0,0:0:0:62:B4S.wav
229,192,90000,1,0,0:0:0:62:F#6S_Gb6S.wav
302,192,91938,1,0,0:0:0:62:E3S.wav
375,192,91975,1,0,0:0:0:62:B3S.wav
83,192,92000,1,0,0:0:0:62:E6S.wav
448,192,92013,1,0,0:0:0:62:E4S.wav
