osu file format v14

[General]
AudioFilename: audio.mp3
AudioLeadIn: 0
PreviewTime: -1
Countdown: 0
SampleSet: None
StackLeniency: 0.7
Mode: 3
LetterboxInBreaks: 0
SpecialStyle: 0
WidescreenStoryboard: 0

[Editor]
DistanceSpacing: 1.2
BeatDivisor: 4
GridSize: 4
TimelineZoom: 1

[Metadata]
Title:COME
TitleUnicode:片尾曲 COME
Artist:Wada Kaoru
ArtistUnicode:Wada Kaoru
Creator:pikechu
Version:COME
Source:Inuyasha
Tags:
BeatmapID:1647681
BeatmapSetID:784860

[Difficulty]
HPDrainRate:8
CircleSize:7
OverallDifficulty:8
ApproachRate:5
SliderMultiplier:1.4
SliderTickRate:1

[Events]
//Background and Video events
0,0,"qyc.jpg",0,0
//Break Periods
//Storyboard Layer 0 (Background)
//Storyboard Layer 1 (Fail)
//Storyboard Layer 2 (Pass)
//Storyboard Layer 3 (Foreground)
//Storyboard Sound Samples

[TimingPoints]
0,500,4,1,1,100,1,0

[HitObjects]
10,192,0,5,0,0:0:0:62:C4S_s.wav
83,192,0,1,0,0:0:0:62:D4S.wav
302,192,0,1,0,0:0:0:62:E4S.wav
375,192,0,1,0,0:0:0:62:G4S.wav
448,192,0,1,0,0:0:0:62:C5S_s.wav
229,192,250,1,0,0:0:0:62:E5S_s.wav
156,192,500,1,0,0:0:0:62:C4S_s.wav
448,192,500,1,0,0:0:0:62:G5S_s.wav
10,192,1000,1,0,0:0:0:62:C4S_s.wav
375,192,1500,1,0,0:0:0:62:C4S_s.wav
83,192,2000,1,0,0:0:0:62:A3S_s.wav
156,192,2000,1,0,0:0:0:62:C4S.wav
229,192,2000,1,0,0:0:0:62:D4S.wav
302,192,2000,1,0,0:0:0:62:G4S.wav
448,192,2000,1,0,0:0:0:62:C5S_s.wav
10,192,2250,1,0,0:0:0:62:E5S_s.wav
83,192,2500,1,0,0:0:0:62:A3S_s.wav
375,192,2500,1,0,0:0:0:62:A5S_s.wav
448,192,3000,1,0,0:0:0:62:A3S_s.wav
156,192,3500,1,0,0:0:0:62:A3S_s.wav
10,192,4000,1,0,0:0:0:62:E4S_s.wav
229,192,4000,1,0,0:0:0:62:G4S.wav
302,192,4000,1,0,0:0:0:62:B4S_s.wav
375,192,4000,1,0,0:0:0:62:D5S.wav
83,192,4250,1,0,0:0:0:62:E5S_s.wav
156,192,4500,1,0,0:0:0:62:E4S_s.wav
448,192,4500,1,0,0:0:0:62:G5S_s.wav
302,192,5000,1,0,0:0:0:62:E4S_s.wav
10,192,5500,1,0,0:0:0:62:E4S_s.wav
229,192,6000,1,0,0:0:0:62:E4S_s.wav
375,192,6500,1,0,0:0:0:62:E4S_s.wav
83,192,7000,1,0,0:0:0:62:D4S_s.wav
156,192,7000,1,0,0:0:0:62:F#4S_Gb4S.wav
302,192,7000,1,0,0:0:0:62:A4S.wav
448,192,7000,1,0,0:0:0:62:C5S_s.wav
10,192,7125,1,0,0:0:0:62:D5S_s.wav
229,192,7250,1,0,0:0:0:62:E5S_s.wav
375,192,7375,1,0,0:0:0:62:F#5S_Gb5S_s.wav
83,192,7500,1,0,0:0:0:62:D4S_s.wav
448,192,7500,1,0,0:0:0:62:G5S_s.wav
156,192,7625,1,0,0:0:0:62:A5S_s.wav
302,192,7750,1,0,0:0:0:62:B5S_s.wav
10,192,7875,1,0,0:0:0:62:D6S_s.wav
83,192,8000,1,0,0:0:0:62:C4S_s.wav
156,192,8000,1,0,0:0:0:62:D4S.wav
229,192,8000,1,0,0:0:0:62:E4S.wav
375,192,8000,1,0,0:0:0:62:G4S.wav
448,192,8000,1,0,0:0:0:62:C5S_s.wav
302,192,8250,1,0,0:0:0:62:E5S_s.wav
10,192,8500,1,0,0:0:0:62:C4S_s.wav
375,192,8500,1,0,0:0:0:62:G5S_s.wav
83,192,9000,1,0,0:0:0:62:C4S_s.wav
448,192,9500,1,0,0:0:0:62:C4S_s.wav
10,192,10000,1,0,0:0:0:62:A3S_s.wav
156,192,10000,1,0,0:0:0:62:C4S.wav
229,192,10000,1,0,0:0:0:62:D4S.wav
302,192,10000,1,0,0:0:0:62:G4S.wav
375,192,10000,1,0,0:0:0:62:C5S_s.wav
83,192,10250,1,0,0:0:0:62:E5S_s.wav
156,192,10500,1,0,0:0:0:62:A3S_s.wav
448,192,10500,1,0,0:0:0:62:A5S_s.wav
375,192,11000,1,0,0:0:0:62:A3S_s.wav
10,192,11500,1,0,0:0:0:62:A3S_s.wav
83,192,12000,1,0,0:0:0:62:E4S_s.wav
229,192,12000,1,0,0:0:0:62:G4S.wav
302,192,12000,1,0,0:0:0:62:B4S_s.wav
448,192,12000,1,0,0:0:0:62:D5S.wav
156,192,12250,1,0,0:0:0:62:E5S_s.wav
10,192,12500,1,0,0:0:0:62:E4S_s.wav
375,192,12500,1,0,0:0:0:62:G5S_s.wav
302,192,13000,1,0,0:0:0:62:E4S_s.wav
83,192,13500,1,0,0:0:0:62:E4S_s.wav
448,192,14000,1,0,0:0:0:62:E4S_s.wav
229,192,14500,1,0,0:0:0:62:E4S_s.wav
10,192,15000,1,0,0:0:0:62:D4S_s.wav
156,192,15000,1,0,0:0:0:62:F#4S_Gb4S.wav
375,192,15000,1,0,0:0:0:62:A4S.wav
83,192,15500,1,0,0:0:0:62:D4S_s.wav
302,192,15500,1,0,0:0:0:62:E6S_s.wav
448,192,15750,1,0,0:0:0:62:G6S.wav
156,192,16000,1,0,0:0:0:62:C4S_s.wav
229,192,16000,1,0,0:0:0:62:B5S.wav
375,192,16000,1,0,0:0:0:62:D6S.wav
10,192,16250,1,0,0:0:0:62:C5S_s.wav
302,192,16500,1,0,0:0:0:62:C4S_s.wav
83,192,16750,1,0,0:0:0:62:C5S_s.wav
448,192,17000,1,0,0:0:0:62:C4S_s.wav
156,192,17250,1,0,0:0:0:62:C5S_s.wav
229,192,17500,1,0,0:0:0:62:C4S_s.wav
375,192,17500,1,0,0:0:0:62:A6S_s.wav
10,192,17750,1,0,0:0:0:62:C5S_s.wav
302,192,17750,1,0,0:0:0:62:F#6S_Gb6S.wav
83,192,18000,1,0,0:0:0:62:A3S_s.wav
156,192,18000,1,0,0:0:0:62:C6S.wav
448,192,18000,1,0,0:0:0:62:D6S.wav
229,192,18250,1,0,0:0:0:62:A4S_s.wav
375,192,18500,1,0,0:0:0:62:A3S_s.wav
10,192,18750,1,0,0:0:0:62:A4S_s.wav
302,192,19000,1,0,0:0:0:62:A3S_s.wav
156,192,19250,1,0,0:0:0:62:A4S_s.wav
83,192,19500,1,0,0:0:0:62:A3S_s.wav
448,192,19500,1,0,0:0:0:62:E6S_s.wav
229,192,19750,1,0,0:0:0:62:A4S_s.wav
375,192,19750,1,0,0:0:0:62:F#6S_Gb6S.wav
10,192,20000,1,0,0:0:0:62:E3S_s.wav
156,192,20000,1,0,0:0:0:62:G5S.wav
302,192,20000,1,0,0:0:0:62:B5S.wav
448,192,20000,1,0,0:0:0:62:D6S.wav
83,192,20250,1,0,0:0:0:62:E4S_s.wav
375,192,20500,1,0,0:0:0:62:E3S_s.wav
229,192,20750,1,0,0:0:0:62:E4S_s.wav
448,192,21000,1,0,0:0:0:62:E3S_s.wav
10,192,21250,1,0,0:0:0:62:E4S_s.wav
302,192,21250,1,0,0:0:0:62:E6S_s.wav
83,192,21500,1,0,0:0:0:62:E3S_s.wav
156,192,21500,1,0,0:0:0:62:E6S_s.wav
229,192,21750,1,0,0:0:0:62:E4S_s.wav
375,192,21750,1,0,0:0:0:62:B5S.wav
10,192,22000,1,0,0:0:0:62:E3S_s.wav
156,192,22000,1,0,0:0:0:62:D5S.wav
302,192,22000,1,0,0:0:0:62:E5S.wav
448,192,22000,1,0,0:0:0:62:G5S.wav
83,192,22250,1,0,0:0:0:62:E4S_s.wav
229,192,22500,1,0,0:0:0:62:E3S_s.wav
375,192,22750,1,0,0:0:0:62:E4S_s.wav
10,192,23000,1,0,0:0:0:62:D3S_s.wav
156,192,23000,1,0,0:0:0:62:F#5S_Gb5S.wav
448,192,23000,1,0,0:0:0:62:A5S.wav
302,192,23250,1,0,0:0:0:62:D4S_s.wav
83,192,23500,1,0,0:0:0:62:D3S_s.wav
229,192,23500,1,0,0:0:0:62:E6S_s.wav
156,192,23750,1,0,0:0:0:62:D4S_s.wav
375,192,23750,1,0,0:0:0:62:G6S.wav
10,192,24000,1,0,0:0:0:62:C4S_s.wav
302,192,24000,1,0,0:0:0:62:B5S.wav
448,192,24000,1,0,0:0:0:62:D6S.wav
83,192,24250,1,0,0:0:0:62:C5S_s.wav
229,192,24500,1,0,0:0:0:62:C4S_s.wav
156,192,24750,1,0,0:0:0:62:C5S_s.wav
375,192,25000,1,0,0:0:0:62:C4S_s.wav
10,192,25250,1,0,0:0:0:62:C5S_s.wav
302,192,25500,1,0,0:0:0:62:C4S_s.wav
448,192,25500,1,0,0:0:0:62:A6S_s.wav
83,192,25750,1,0,0:0:0:62:C5S_s.wav
229,192,25750,1,0,0:0:0:62:F#6S_Gb6S.wav
10,192,26000,1,0,0:0:0:62:A3S_s.wav
156,192,26000,1,0,0:0:0:62:C6S.wav
375,192,26000,1,0,0:0:0:62:D6S.wav
448,192,26250,1,0,0:0:0:62:A4S_s.wav
302,192,26500,1,0,0:0:0:62:A3S_s.wav
229,192,26750,1,0,0:0:0:62:A4S_s.wav
83,192,27000,1,0,0:0:0:62:A3S_s.wav
375,192,27000,1,0,0:0:0:62:F#6S_Gb6S_s.wav
10,192,27250,1,0,0:0:0:62:A4S_s.wav
156,192,27250,1,0,0:0:0:62:E6S_s.wav
302,192,27500,1,0,0:0:0:62:A3S_s.wav
448,192,27500,1,0,0:0:0:62:E6S_s.wav
83,192,27750,1,0,0:0:0:62:A4S_s.wav
229,192,27750,1,0,0:0:0:62:E6S.wav
10,192,28000,1,0,0:0:0:62:E3S_s.wav
156,192,28000,1,0,0:0:0:62:G5S.wav
375,192,28000,1,0,0:0:0:62:B5S.wav
448,192,28000,1,0,0:0:0:62:D6S.wav
302,192,28250,1,0,0:0:0:62:E4S_s.wav
229,192,28500,1,0,0:0:0:62:E3S_s.wav
83,192,28750,1,0,0:0:0:62:E4S_s.wav
448,192,29000,1,0,0:0:0:62:E3S_s.wav
10,192,29250,1,0,0:0:0:62:E4S_s.wav
375,192,29500,1,0,0:0:0:62:E3S_s.wav
156,192,29750,1,0,0:0:0:62:E4S_s.wav
83,192,30000,1,0,0:0:0:62:E3S_s.wav
229,192,30000,1,0,0:0:0:62:D5S.wav
302,192,30000,1,0,0:0:0:62:E5S.wav
448,192,30000,1,0,0:0:0:62:G5S.wav
10,192,30250,1,0,0:0:0:62:E4S_s.wav
375,192,30500,1,0,0:0:0:62:E3S_s.wav
156,192,30750,1,0,0:0:0:62:E4S_s.wav
83,192,31000,1,0,0:0:0:62:D3S_s.wav
229,192,31000,1,0,0:0:0:62:F#5S_Gb5S.wav
302,192,31000,1,0,0:0:0:62:A5S.wav
448,192,31250,1,0,0:0:0:62:D4S_s.wav
10,192,31500,1,0,0:0:0:62:D3S_s.wav
375,192,31500,1,0,0:0:0:62:E6S_s.wav
156,192,31750,1,0,0:0:0:62:D4S_s.wav
302,192,31750,1,0,0:0:0:62:G6S.wav
83,192,32000,1,0,0:0:0:62:C4S_s.wav
229,192,32000,1,0,0:0:0:62:B5S.wav
448,192,32000,1,0,0:0:0:62:D6S.wav
10,192,32250,1,0,0:0:0:62:C5S_s.wav
375,192,32500,1,0,0:0:0:62:C4S_s.wav
156,192,32750,1,0,0:0:0:62:C5S_s.wav
302,192,33000,1,0,0:0:0:62:C4S_s.wav
83,192,33250,1,0,0:0:0:62:C5S_s.wav
229,192,33500,1,0,0:0:0:62:C4S_s.wav
448,192,33500,1,0,0:0:0:62:A6S_s.wav
10,192,33750,1,0,0:0:0:62:C5S_s.wav
375,192,33750,1,0,0:0:0:62:F#6S_Gb6S.wav
83,192,34000,1,0,0:0:0:62:A3S_s.wav
156,192,34000,1,0,0:0:0:62:G5S.wav
229,192,34000,1,0,0:0:0:62:C6S.wav
302,192,34000,1,0,0:0:0:62:D6S.wav
448,192,34250,1,0,0:0:0:62:A4S_s.wav
10,192,34500,1,0,0:0:0:62:A3S_s.wav
375,192,34750,1,0,0:0:0:62:A4S_s.wav
156,192,35000,1,0,0:0:0:62:A3S_s.wav
302,192,35250,1,0,0:0:0:62:A4S_s.wav
83,192,35500,1,0,0:0:0:62:A3S_s.wav
229,192,35500,1,0,0:0:0:62:E6S_s.wav
10,192,35750,1,0,0:0:0:62:A4S_s.wav
448,192,35750,1,0,0:0:0:62:F#6S_Gb6S_s.wav
83,192,36000,1,0,0:0:0:62:E3S_s.wav
156,192,36000,1,0,0:0:0:62:G5S.wav
229,192,36000,1,0,0:0:0:62:B5S.wav
302,192,36000,1,0,0:0:0:62:D6S.wav
375,192,36000,1,0,0:0:0:62:F#6S_Gb6S.wav
448,192,36250,1,0,0:0:0:62:E4S_s.wav
10,192,36500,1,0,0:0:0:62:E3S_s.wav
375,192,36750,1,0,0:0:0:62:E4S_s.wav
83,192,37000,1,0,0:0:0:62:E3S_s.wav
229,192,37250,1,0,0:0:0:62:E4S_s.wav
302,192,37250,1,0,0:0:0:62:E6S_s.wav
156,192,37500,1,0,0:0:0:62:E3S_s.wav
448,192,37500,1,0,0:0:0:62:E6S_s.wav
10,192,37750,1,0,0:0:0:62:E4S_s.wav
375,192,37750,1,0,0:0:0:62:G6S.wav
83,192,38000,1,0,0:0:0:62:E3S_s.wav
229,192,38000,1,0,0:0:0:62:G5S.wav
302,192,38000,1,0,0:0:0:62:B5S.wav
448,192,38000,1,0,0:0:0:62:D6S.wav
156,192,38250,1,0,0:0:0:62:E4S_s.wav
375,192,38500,1,0,0:0:0:62:E3S_s.wav
10,192,38750,1,0,0:0:0:62:E4S_s.wav
83,192,39000,1,0,0:0:0:62:D3S_s.wav
302,192,39000,1,0,0:0:0:62:F#6S_Gb6S.wav
448,192,39250,1,0,0:0:0:62:D4S_s.wav
156,192,39500,1,0,0:0:0:62:D3S_s.wav
229,192,39500,1,0,0:0:0:62:G6S_s.wav
10,192,39750,1,0,0:0:0:62:D4S_s.wav
375,192,39750,1,0,0:0:0:62:B6S.wav
83,192,40000,1,0,0:0:0:62:C4S_s.wav
156,192,40000,1,0,0:0:0:62:D6S.wav
302,192,40000,1,0,0:0:0:62:E6S.wav
448,192,40000,1,0,0:0:0:62:G6S.wav
229,192,40250,1,0,0:0:0:62:C5S_s.wav
375,192,40500,1,0,0:0:0:62:C4S_s.wav
10,192,40750,1,0,0:0:0:62:C5S_s.wav
302,192,41000,1,0,0:0:0:62:C4S_s.wav
156,192,41250,1,0,0:0:0:62:C5S_s.wav
83,192,41500,1,0,0:0:0:62:C4S_s.wav
448,192,41500,1,0,0:0:0:62:C7S_s.wav
229,192,41750,1,0,0:0:0:62:C5S_s.wav
375,192,41750,1,0,0:0:0:62:A6S.wav
10,192,42000,1,0,0:0:0:62:A3S_s.wav
156,192,42000,1,0,0:0:0:62:C6S.wav
302,192,42000,1,0,0:0:0:62:D6S.wav
448,192,42000,1,0,0:0:0:62:A6S.wav
83,192,42250,1,0,0:0:0:62:A4S_s.wav
375,192,42500,1,0,0:0:0:62:A3S_s.wav
229,192,42750,1,0,0:0:0:62:A4S_s.wav
448,192,42750,1,0,0:0:0:62:A6S.wav
10,192,43000,1,0,0:0:0:62:A3S_s.wav
302,192,43250,1,0,0:0:0:62:A4S_s.wav
83,192,43500,1,0,0:0:0:62:A3S_s.wav
156,192,43500,1,0,0:0:0:62:F#6S_Gb6S_s.wav
375,192,43500,1,0,0:0:0:62:G6S_s.wav
10,192,43750,1,0,0:0:0:62:A4S_s.wav
229,192,43750,1,0,0:0:0:62:F#6S_Gb6S_s.wav
448,192,43750,1,0,0:0:0:62:F#6S_Gb6S_s.wav
83,192,44000,1,0,0:0:0:62:E3S_s.wav
156,192,44000,1,0,0:0:0:62:G5S.wav
302,192,44000,1,0,0:0:0:62:B5S.wav
375,192,44000,1,0,0:0:0:62:D6S.wav
448,192,44000,1,0,0:0:0:62:E6S.wav
229,192,44250,1,0,0:0:0:62:E4S_s.wav
10,192,44500,1,0,0:0:0:62:E3S_s.wav
302,192,44750,1,0,0:0:0:62:E4S_s.wav
83,192,45000,1,0,0:0:0:62:E3S_s.wav
448,192,45250,1,0,0:0:0:62:E4S_s.wav
156,192,45500,1,0,0:0:0:62:E3S_s.wav
375,192,45750,1,0,0:0:0:62:E4S_s.wav
10,192,46000,1,0,0:0:0:62:E3S_s.wav
83,192,46000,1,0,0:0:0:62:B4S.wav
229,192,46000,1,0,0:0:0:62:D5S.wav
302,192,46000,1,0,0:0:0:62:E5S.wav
448,192,46000,1,0,0:0:0:62:G5S.wav
156,192,46250,1,0,0:0:0:62:E4S_s.wav
375,192,46500,1,0,0:0:0:62:E3S_s.wav
83,192,46750,1,0,0:0:0:62:E4S_s.wav
10,192,47000,1,0,0:0:0:62:D3S_s.wav
229,192,47000,1,0,0:0:0:62:A4S.wav
302,192,47000,1,0,0:0:0:62:D5S.wav
448,192,47000,1,0,0:0:0:62:F#5S_Gb5S.wav
156,192,47250,1,0,0:0:0:62:D4S_s.wav
375,192,47500,1,0,0:0:0:62:D3S_s.wav
83,192,47750,1,0,0:0:0:62:D4S_s.wav
10,192,48000,1,0,0:0:0:62:C4S_s.wav
229,192,48000,1,0,0:0:0:62:G5S_s.wav
448,192,48000,1,0,0:0:0:62:B5S_s.wav
156,192,48250,1,0,0:0:0:62:C5S_s.wav
302,192,48250,1,0,0:0:0:62:E5S_s.wav
375,192,48250,1,0,0:0:0:62:G5S_s.wav
83,192,48500,1,0,0:0:0:62:C4S_s.wav
10,192,48750,1,0,0:0:0:62:C5S_s.wav
229,192,48750,1,0,0:0:0:62:G5S_s.wav
448,192,48750,1,0,0:0:0:62:B5S_s.wav
156,192,49000,1,0,0:0:0:62:C4S_s.wav
302,192,49000,1,0,0:0:0:62:E5S_s.wav
375,192,49000,1,0,0:0:0:62:G5S_s.wav
83,192,49250,1,0,0:0:0:62:C5S_s.wav
10,192,49500,1,0,0:0:0:62:C4S_s.wav
229,192,49500,1,0,0:0:0:62:G5S_s.wav
448,192,49500,1,0,0:0:0:62:B5S_s.wav
156,192,49750,1,0,0:0:0:62:C5S_s.wav
302,192,49750,1,0,0:0:0:62:E5S_s.wav
375,192,49750,1,0,0:0:0:62:G5S_s.wav
83,192,50000,1,0,0:0:0:62:A3S_s.wav
10,192,50250,1,0,0:0:0:62:A4S_s.wav
229,192,50250,1,0,0:0:0:62:G5S_s.wav
448,192,50250,1,0,0:0:0:62:B5S_s.wav
156,192,50500,1,0,0:0:0:62:A3S_s.wav
302,192,50500,1,0,0:0:0:62:E5S_s.wav
375,192,50500,1,0,0:0:0:62:G5S_s.wav
10,192,50750,1,0,0:0:0:62:A4S_s.wav
83,192,50750,1,0,0:0:0:62:F#5S_Gb5S_s.wav
448,192,50750,1,0,0:0:0:62:A5S_s.wav
229,192,51000,1,0,0:0:0:62:A3S_s.wav
156,192,51250,1,0,0:0:0:62:A4S_s.wav
302,192,51250,1,0,0:0:0:62:F#5S_Gb5S_s.wav
375,192,51250,1,0,0:0:0:62:A5S_s.wav
10,192,51500,1,0,0:0:0:62:A3S_s.wav
83,192,51500,1,0,0:0:0:62:F#5S_Gb5S_s.wav
448,192,51500,1,0,0:0:0:62:A5S_s.wav
229,192,51750,1,0,0:0:0:62:A4S_s.wav
156,192,52000,1,0,0:0:0:62:E3S_s.wav
302,192,52000,1,0,0:0:0:62:G5S_s.wav
375,192,52000,1,0,0:0:0:62:B5S_s.wav
10,192,52250,1,0,0:0:0:62:E4S_s.wav
83,192,52250,1,0,0:0:0:62:E5S_s.wav
448,192,52250,1,0,0:0:0:62:G5S_s.wav
229,192,52500,1,0,0:0:0:62:E3S_s.wav
156,192,52750,1,0,0:0:0:62:E4S_s.wav
302,192,52750,1,0,0:0:0:62:G5S_s.wav
375,192,52750,1,0,0:0:0:62:B5S_s.wav
10,192,53000,1,0,0:0:0:62:E3S_s.wav
83,192,53000,1,0,0:0:0:62:E5S_s.wav
448,192,53000,1,0,0:0:0:62:G5S_s.wav
229,192,53250,1,0,0:0:0:62:E4S_s.wav
156,192,53500,1,0,0:0:0:62:E3S_s.wav
302,192,53500,1,0,0:0:0:62:G5S_s.wav
375,192,53500,1,0,0:0:0:62:B5S_s.wav
10,192,53750,1,0,0:0:0:62:E4S_s.wav
83,192,53750,1,0,0:0:0:62:E5S_s.wav
448,192,53750,1,0,0:0:0:62:G5S_s.wav
229,192,54000,1,0,0:0:0:62:E3S_s.wav
156,192,54250,1,0,0:0:0:62:E4S_s.wav
302,192,54250,1,0,0:0:0:62:G5S_s.wav
375,192,54250,1,0,0:0:0:62:B5S_s.wav
10,192,54500,1,0,0:0:0:62:E3S_s.wav
83,192,54500,1,0,0:0:0:62:E5S_s.wav
448,192,54500,1,0,0:0:0:62:G5S_s.wav
156,192,54750,1,0,0:0:0:62:E4S_s.wav
229,192,54750,1,0,0:0:0:62:F#5S_Gb5S_s.wav
302,192,54750,1,0,0:0:0:62:A5S_s.wav
375,192,55000,1,0,0:0:0:62:D3S_s.wav
10,192,55250,1,0,0:0:0:62:D4S_s.wav
83,192,55250,1,0,0:0:0:62:F#5S_Gb5S_s.wav
448,192,55250,1,0,0:0:0:62:A5S_s.wav
229,192,55500,1,0,0:0:0:62:D3S_s.wav
302,192,55500,1,0,0:0:0:62:E6S_s.wav
156,192,55750,1,0,0:0:0:62:D4S_s.wav
375,192,55750,1,0,0:0:0:62:G6S.wav
10,192,56000,1,0,0:0:0:62:C4S_s.wav
83,192,56000,1,0,0:0:0:62:B5S.wav
448,192,56000,1,0,0:0:0:62:D6S.wav
302,192,56250,1,0,0:0:0:62:C5S_s.wav
229,192,56500,1,0,0:0:0:62:C4S_s.wav
156,192,56750,1,0,0:0:0:62:C5S_s.wav
375,192,57000,1,0,0:0:0:62:C4S_s.wav
10,192,57250,1,0,0:0:0:62:C5S_s.wav
83,192,57500,1,0,0:0:0:62:C4S_s.wav
448,192,57500,1,0,0:0:0:62:A6S_s.wav
229,192,57750,1,0,0:0:0:62:C5S_s.wav
302,192,57750,1,0,0:0:0:62:F#6S_Gb6S.wav
10,192,58000,1,0,0:0:0:62:A3S_s.wav
156,192,58000,1,0,0:0:0:62:G5S.wav
375,192,58000,1,0,0:0:0:62:C6S.wav
448,192,58000,1,0,0:0:0:62:D6S.wav
83,192,58250,1,0,0:0:0:62:A4S_s.wav
302,192,58500,1,0,0:0:0:62:A3S_s.wav
229,192,58750,1,0,0:0:0:62:A4S_s.wav
10,192,59000,1,0,0:0:0:62:A3S_s.wav
448,192,59000,1,0,0:0:0:62:F#6S_Gb6S_s.wav
156,192,59250,1,0,0:0:0:62:A4S_s.wav
375,192,59250,1,0,0:0:0:62:E6S_s.wav
83,192,59500,1,0,0:0:0:62:A3S_s.wav
302,192,59500,1,0,0:0:0:62:E6S_s.wav
10,192,59750,1,0,0:0:0:62:A4S_s.wav
229,192,59750,1,0,0:0:0:62:E6S.wav
83,192,60000,1,0,0:0:0:62:E3S_s.wav
156,192,60000,1,0,0:0:0:62:G5S.wav
375,192,60000,1,0,0:0:0:62:B5S.wav
448,192,60000,1,0,0:0:0:62:D6S.wav
302,192,60250,1,0,0:0:0:62:E4S_s.wav
229,192,60500,1,0,0:0:0:62:E3S_s.wav
10,192,60750,1,0,0:0:0:62:E4S_s.wav
448,192,61000,1,0,0:0:0:62:E3S_s.wav
83,192,61250,1,0,0:0:0:62:E4S_s.wav
375,192,61500,1,0,0:0:0:62:E3S_s.wav
156,192,61750,1,0,0:0:0:62:E4S_s.wav
10,192,62000,1,0,0:0:0:62:E3S_s.wav
229,192,62000,1,0,0:0:0:62:D5S.wav
302,192,62000,1,0,0:0:0:62:E5S.wav
448,192,62000,1,0,0:0:0:62:G5S.wav
83,192,62250,1,0,0:0:0:62:E4S_s.wav
375,192,62500,1,0,0:0:0:62:E3S_s.wav
156,192,62750,1,0,0:0:0:62:E4S_s.wav
10,192,63000,1,0,0:0:0:62:D3S_s.wav
229,192,63000,1,0,0:0:0:62:D5S.wav
302,192,63000,1,0,0:0:0:62:F#5S_Gb5S.wav
448,192,63000,1,0,0:0:0:62:A5S.wav
83,192,63250,1,0,0:0:0:62:D4S_s.wav
375,192,63500,1,0,0:0:0:62:D3S_s.wav
156,192,63750,1,0,0:0:0:62:D4S_s.wav
10,192,64000,1,0,0:0:0:62:C4S_s.wav
83,192,64000,1,0,0:0:0:62:D5S.wav
229,192,64000,1,0,0:0:0:62:E5S.wav
302,192,64000,1,0,0:0:0:62:G5S.wav
448,192,64000,1,0,0:0:0:62:B5S.wav
375,192,64250,1,0,0:0:0:62:C5S_s.wav
156,192,64500,1,0,0:0:0:62:C4S_s.wav
302,192,64750,1,0,0:0:0:62:C5S_s.wav
83,192,65000,1,0,0:0:0:62:C4S_s.wav
448,192,65250,1,0,0:0:0:62:C5S_s.wav
10,192,65500,1,0,0:0:0:62:C4S_s.wav
229,192,65750,1,0,0:0:0:62:C5S_s.wav
83,192,66000,1,0,0:0:0:62:A3S_s.wav
156,192,66000,1,0,0:0:0:62:D5S.wav
302,192,66000,1,0,0:0:0:62:E5S.wav
375,192,66000,1,0,0:0:0:62:G5S.wav
448,192,66000,1,0,0:0:0:62:B5S.wav
10,192,66250,1,0,0:0:0:62:A4S_s.wav
229,192,66500,1,0,0:0:0:62:A3S_s.wav
448,192,66750,1,0,0:0:0:62:A4S_s.wav
156,192,67000,1,0,0:0:0:62:A3S_s.wav
302,192,67250,1,0,0:0:0:62:A4S_s.wav
83,192,67500,1,0,0:0:0:62:A3S_s.wav
375,192,67750,1,0,0:0:0:62:A4S_s.wav
10,192,68000,1,0,0:0:0:62:E3S_s.wav
156,192,68000,1,0,0:0:0:62:D5S_s.wav
229,192,68000,1,0,0:0:0:62:E5S_s.wav
302,192,68000,1,0,0:0:0:62:G5S_s.wav
448,192,68000,1,0,0:0:0:62:B5S_s.wav
10,192,68250,1,0,0:0:0:62:E4S_s.wav
83,192,68250,1,0,0:0:0:62:D5S.wav
156,192,68250,1,0,0:0:0:62:E5S.wav
375,192,68250,1,0,0:0:0:62:G5S.wav
448,192,68250,1,0,0:0:0:62:B5S.wav
302,192,68500,1,0,0:0:0:62:E3S_s.wav
229,192,68750,1,0,0:0:0:62:E4S_s.wav
83,192,69000,1,0,0:0:0:62:E3S_s.wav
156,192,69250,1,0,0:0:0:62:E4S_s.wav
448,192,69250,1,0,0:0:0:62:B6S_s.wav
10,192,69500,1,0,0:0:0:62:E3S_s.wav
375,192,69500,1,0,0:0:0:62:C7S_s.wav
229,192,69750,1,0,0:0:0:62:E4S_s.wav
302,192,69750,1,0,0:0:0:62:D7S_s.wav
83,192,70000,1,0,0:0:0:62:E3S_s.wav
448,192,70000,1,0,0:0:0:62:G6S.wav
156,192,70250,1,0,0:0:0:62:E4S_s.wav
375,192,70250,1,0,0:0:0:62:C7S_s.wav
10,192,70500,1,0,0:0:0:62:E3S_s.wav
302,192,70500,1,0,0:0:0:62:C7S_s.wav
229,192,70750,1,0,0:0:0:62:E4S_s.wav
448,192,70750,1,0,0:0:0:62:B6S_s.wav
83,192,71000,1,0,0:0:0:62:D3S_s.wav
375,192,71000,1,0,0:0:0:62:F#6S_Gb6S.wav
156,192,71250,1,0,0:0:0:62:D4S_s.wav
302,192,71250,1,0,0:0:0:62:A6S_s.wav
10,192,71500,1,0,0:0:0:62:D3S_s.wav
229,192,71500,1,0,0:0:0:62:G6S_s.wav
448,192,71750,1,0,0:0:0:62:D4S_s.wav
10,192,72000,1,0,0:0:0:62:C4S_s.wav
83,192,72000,1,0,0:0:0:62:D5S.wav
156,192,72000,1,0,0:0:0:62:E5S.wav
302,192,72000,1,0,0:0:0:62:G5S.wav
375,192,72000,1,0,0:0:0:62:B5S.wav
229,192,72250,1,0,0:0:0:62:C5S_s.wav
448,192,72500,1,0,0:0:0:62:C4S_s.wav
156,192,72750,1,0,0:0:0:62:C5S_s.wav
375,192,73000,1,0,0:0:0:62:C4S_s.wav
83,192,73250,1,0,0:0:0:62:C5S_s.wav
302,192,73500,1,0,0:0:0:62:C4S_s.wav
10,192,73750,1,0,0:0:0:62:C5S_s.wav
83,192,74000,1,0,0:0:0:62:A3S_s.wav
156,192,74000,1,0,0:0:0:62:D5S.wav
229,192,74000,1,0,0:0:0:62:E5S.wav
375,192,74000,1,0,0:0:0:62:G5S.wav
448,192,74000,1,0,0:0:0:62:B5S.wav
302,192,74250,1,0,0:0:0:62:A4S_s.wav
10,192,74500,1,0,0:0:0:62:A3S_s.wav
375,192,74750,1,0,0:0:0:62:A4S_s.wav
83,192,75000,1,0,0:0:0:62:A3S_s.wav
448,192,75250,1,0,0:0:0:62:A4S_s.wav
156,192,75500,1,0,0:0:0:62:A3S_s.wav
229,192,75500,1,0,0:0:0:62:D5S_s.wav
302,192,75500,1,0,0:0:0:62:G5S_s.wav
10,192,75750,1,0,0:0:0:62:A4S_s.wav
83,192,75750,1,0,0:0:0:62:D5S.wav
156,192,75750,1,0,0:0:0:62:E5S.wav
375,192,75750,1,0,0:0:0:62:G5S.wav
448,192,75750,1,0,0:0:0:62:B5S.wav
229,192,76000,1,0,0:0:0:62:E3S_s.wav
302,192,76250,1,0,0:0:0:62:E4S_s.wav
83,192,76500,1,0,0:0:0:62:E3S_s.wav
375,192,76750,1,0,0:0:0:62:E4S_s.wav
156,192,77000,1,0,0:0:0:62:E3S_s.wav
10,192,77250,1,0,0:0:0:62:E4S_s.wav
448,192,77250,1,0,0:0:0:62:B6S_s.wav
229,192,77500,1,0,0:0:0:62:E3S_s.wav
302,192,77500,1,0,0:0:0:62:C7S_s.wav
83,192,77750,1,0,0:0:0:62:E4S_s.wav
375,192,77750,1,0,0:0:0:62:D7S_s.wav
156,192,78000,1,0,0:0:0:62:E3S_s.wav
448,192,78000,1,0,0:0:0:62:G6S.wav
10,192,78250,1,0,0:0:0:62:E4S_s.wav
229,192,78250,1,0,0:0:0:62:C7S_s.wav
83,192,78500,1,0,0:0:0:62:E3S_s.wav
302,192,78500,1,0,0:0:0:62:C7S_s.wav
156,192,78750,1,0,0:0:0:62:E4S_s.wav
375,192,78750,1,0,0:0:0:62:B6S_s.wav
229,192,79000,1,0,0:0:0:62:D3S_s.wav
448,192,79000,1,0,0:0:0:62:F#6S_Gb6S.wav
10,192,79250,1,0,0:0:0:62:D4S_s.wav
302,192,79250,1,0,0:0:0:62:A6S_s.wav
83,192,79500,1,0,0:0:0:62:D3S_s.wav
375,192,79500,1,0,0:0:0:62:G6S_s.wav
156,192,79750,1,0,0:0:0:62:D4S_s.wav
448,192,79750,1,0,0:0:0:62:E6S_s.wav
10,192,80000,1,0,0:0:0:62:C4S_s.wav
83,192,80000,1,0,0:0:0:62:D6S_s.wav
229,192,80000,1,0,0:0:0:62:E6S_s.wav
302,192,80000,1,0,0:0:0:62:G6S_s.wav
375,192,80000,1,0,0:0:0:62:B6S_s.wav
10,192,80250,1,0,0:0:0:62:C5S_s.wav
83,192,80250,1,0,0:0:0:62:D6S_s.wav
156,192,80250,1,0,0:0:0:62:E6S_s.wav
375,192,80250,1,0,0:0:0:62:G6S_s.wav
448,192,80250,1,0,0:0:0:62:B6S_s.wav
229,192,80500,1,0,0:0:0:62:C4S_s.wav
10,192,80750,1,0,0:0:0:62:C5S_s.wav
83,192,80750,1,0,0:0:0:62:B5S_s.wav
302,192,80750,1,0,0:0:0:62:D6S_s.wav
375,192,80750,1,0,0:0:0:62:E6S_s.wav
448,192,80750,1,0,0:0:0:62:G6S_s.wav
156,192,81000,1,0,0:0:0:62:C4S_s.wav
229,192,81250,1,0,0:0:0:62:C5S_s.wav
375,192,81250,1,0,0:0:0:62:E6S_s.wav
10,192,81500,1,0,0:0:0:62:C4S_s.wav
83,192,81500,1,0,0:0:0:62:D6S_s.wav
156,192,81500,1,0,0:0:0:62:E6S_s.wav
302,192,81500,1,0,0:0:0:62:G6S_s.wav
448,192,81500,1,0,0:0:0:62:B6S_s.wav
83,192,81750,1,0,0:0:0:62:C5S_s.wav
229,192,81750,1,0,0:0:0:62:D6S_s.wav
302,192,81750,1,0,0:0:0:62:E6S_s.wav
375,192,81750,1,0,0:0:0:62:G6S_s.wav
448,192,81750,1,0,0:0:0:62:B6S_s.wav
156,192,82000,1,0,0:0:0:62:A3S_s.wav
10,192,82250,1,0,0:0:0:62:A4S_s.wav
83,192,82250,1,0,0:0:0:62:B5S.wav
302,192,82250,1,0,0:0:0:62:D6S.wav
375,192,82250,1,0,0:0:0:62:E6S.wav
448,192,82250,1,0,0:0:0:62:G6S.wav
229,192,82500,1,0,0:0:0:62:A3S_s.wav
156,192,82750,1,0,0:0:0:62:A4S_s.wav
448,192,83000,1,0,0:0:0:62:A3S_s.wav
83,192,83250,1,0,0:0:0:62:A4S_s.wav
10,192,83500,1,0,0:0:0:62:A3S_s.wav
375,192,83500,1,0,0:0:0:62:B6S_s.wav
229,192,83750,1,0,0:0:0:62:A4S_s.wav
302,192,83750,1,0,0:0:0:62:B6S.wav
83,192,84000,1,0,0:0:0:62:E3S_s.wav
156,192,84000,1,0,0:0:0:62:D6S.wav
375,192,84000,1,0,0:0:0:62:E6S.wav
448,192,84000,1,0,0:0:0:62:G6S.wav
10,192,84250,1,0,0:0:0:62:E4S_s.wav
302,192,84500,1,0,0:0:0:62:E3S_s.wav
229,192,84750,1,0,0:0:0:62:E4S_s.wav
83,192,85000,1,0,0:0:0:62:E3S_s.wav
156,192,85250,1,0,0:0:0:62:E4S_s.wav
375,192,85250,1,0,0:0:0:62:B6S_s.wav
10,192,85500,1,0,0:0:0:62:E3S_s.wav
448,192,85500,1,0,0:0:0:62:C7S_s.wav
229,192,85750,1,0,0:0:0:62:E4S_s.wav
302,192,85750,1,0,0:0:0:62:D7S_s.wav
83,192,86000,1,0,0:0:0:62:E3S_s.wav
375,192,86007,1,0,0:0:0:55:G6S.wav
156,192,86250,1,0,0:0:0:62:E4S_s.wav
448,192,86250,1,0,0:0:0:62:C7S_s.wav
10,192,86500,1,0,0:0:0:62:E3S_s.wav
302,192,86500,1,0,0:0:0:62:C7S_s.wav
229,192,86750,1,0,0:0:0:62:E4S_s.wav
375,192,86750,1,0,0:0:0:62:B6S_s.wav
83,192,86992,1,0,0:0:0:59:F#6S_Gb6S.wav
448,192,87000,1,0,0:0:0:62:D3S_s.wav
156,192,87250,1,0,0:0:0:62:D4S_s.wav
302,192,87250,1,0,0:0:0:62:A6S_s.wav
10,192,87500,1,0,0:0:0:62:D3S_s.wav
229,192,87500,1,0,0:0:0:62:G6S_s.wav
83,192,87750,1,0,0:0:0:62:D4S_s.wav
375,192,87750,1,0,0:0:0:62:G6S_s.wav
10,192,88000,1,0,0:0:0:62:C4S_s.wav
156,192,88000,1,0,0:0:0:62:D6S.wav
229,192,88000,1,0,0:0:0:62:E6S.wav
302,192,88000,1,0,0:0:0:62:G6S.wav
448,192,88000,1,0,0:0:0:62:B6S.wav
375,192,88250,1,0,0:0:0:62:C5S_s.wav
83,192,88500,1,0,0:0:0:62:C4S_s.wav
448,192,88750,1,0,0:0:0:62:C5S_s.wav
10,192,89000,1,0,0:0:0:62:C4S_s.wav
302,192,89250,1,0,0:0:0:62:C5S_s.wav
229,192,89500,1,0,0:0:0:62:C4S_s.wav
156,192,89750,1,0,0:0:0:62:C5S_s.wav
10,192,90000,1,0,0:0:0:62:A3S_s.wav
83,192,90000,1,0,0:0:0:62:D6S.wav
302,192,90000,1,0,0:0:0:62:E6S.wav
375,192,90000,1,0,0:0:0:62:G6S.wav
448,192,90000,1,0,0:0:0:62:B6S.wav
229,192,90250,1,0,0:0:0:62:A4S_s.wav
156,192,90500,1,0,0:0:0:62:A3S_s.wav
448,192,90750,1,0,0:0:0:62:A4S_s.wav
10,192,91000,1,0,0:0:0:62:A3S_s.wav
375,192,91250,1,0,0:0:0:62:A4S_s.wav
83,192,91500,1,0,0:0:0:62:A3S_s.wav
302,192,91750,1,0,0:0:0:62:A4S_s.wav
156,192,92000,1,0,0:0:0:62:E3S_s.wav
229,192,92000,1,0,0:0:0:62:B5S_s.wav
448,192,92000,1,0,0:0:0:62:G6S_s.wav
10,192,92250,1,0,0:0:0:62:E4S_s.wav
83,192,92250,1,0,0:0:0:62:G5S.wav
156,192,92250,1,0,0:0:0:62:B5S.wav
302,192,92250,1,0,0:0:0:62:D6S.wav
375,192,92250,1,0,0:0:0:62:E6S.wav
229,192,92500,1,0,0:0:0:62:E3S_s.wav
448,192,92750,1,0,0:0:0:62:E4S_s.wav
83,192,93000,1,0,0:0:0:62:E3S_s.wav
302,192,93250,1,0,0:0:0:62:E4S_s.wav
156,192,93500,1,0,0:0:0:62:E3S_s.wav
375,192,93750,1,0,0:0:0:62:E4S_s.wav
10,192,94000,1,0,0:0:0:62:E3S_s.wav
83,192,94000,1,0,0:0:0:62:D5S.wav
229,192,94000,1,0,0:0:0:62:E5S.wav
448,192,94000,1,0,0:0:0:62:G5S.wav
302,192,94250,1,0,0:0:0:62:E4S_s.wav
156,192,94500,1,0,0:0:0:62:E3S_s.wav
375,192,94750,1,0,0:0:0:62:E4S_s.wav
10,192,95000,1,0,0:0:0:62:D3S_s.wav
229,192,95000,1,0,0:0:0:62:F#5S_Gb5S.wav
448,192,95000,1,0,0:0:0:62:A5S.wav
83,192,95250,1,0,0:0:0:62:D4S_s.wav
156,192,95500,1,0,0:0:0:62:D3S_s.wav
302,192,95500,1,0,0:0:0:62:E6S_s.wav
10,192,95750,1,0,0:0:0:62:D4S_s.wav
375,192,95750,1,0,0:0:0:62:G6S_s.wav
83,192,96000,1,0,0:0:0:62:C4S_s.wav
229,192,96000,1,0,0:0:0:62:B5S.wav
448,192,96000,1,0,0:0:0:62:D6S.wav
302,192,96250,1,0,0:0:0:62:C5S_s.wav
156,192,96500,1,0,0:0:0:62:C4S_s.wav
375,192,96750,1,0,0:0:0:62:C5S_s.wav
10,192,97000,1,0,0:0:0:62:C4S_s.wav
448,192,97250,1,0,0:0:0:62:C5S_s.wav
83,192,97500,1,0,0:0:0:62:C4S_s.wav
229,192,97500,1,0,0:0:0:62:A6S_s.wav
156,192,97750,1,0,0:0:0:62:C5S_s.wav
302,192,97750,1,0,0:0:0:62:F#6S_Gb6S.wav
10,192,98000,1,0,0:0:0:62:A3S_s.wav
375,192,98000,1,0,0:0:0:62:C6S.wav
448,192,98000,1,0,0:0:0:62:D6S.wav
83,192,98250,1,0,0:0:0:62:A4S_s.wav
229,192,98500,1,0,0:0:0:62:A3S_s.wav
156,192,98750,1,0,0:0:0:62:A4S_s.wav
302,192,99000,1,0,0:0:0:62:A3S_s.wav
10,192,99250,1,0,0:0:0:62:A4S_s.wav
375,192,99500,1,0,0:0:0:62:A3S_s.wav
448,192,99500,1,0,0:0:0:62:E6S_s.wav
83,192,99750,1,0,0:0:0:62:A4S_s.wav
229,192,99750,1,0,0:0:0:62:F#6S_Gb6S.wav
10,192,100000,1,0,0:0:0:62:E3S_s.wav
156,192,100000,1,0,0:0:0:62:G5S.wav
302,192,100000,1,0,0:0:0:62:B5S.wav
448,192,100000,1,0,0:0:0:62:D6S.wav
375,192,100250,1,0,0:0:0:62:E4S_s.wav
229,192,100500,1,0,0:0:0:62:E3S_s.wav
83,192,100750,1,0,0:0:0:62:E4S_s.wav
448,192,101000,1,0,0:0:0:62:E3S_s.wav
10,192,101250,1,0,0:0:0:62:E4S_s.wav
302,192,101250,1,0,0:0:0:62:E6S_s.wav
156,192,101500,1,0,0:0:0:62:E3S_s.wav
375,192,101500,1,0,0:0:0:62:E6S_s.wav
83,192,101750,1,0,0:0:0:62:E4S_s.wav
229,192,101750,1,0,0:0:0:62:B5S.wav
10,192,102000,1,0,0:0:0:62:E3S_s.wav
156,192,102000,1,0,0:0:0:62:D5S.wav
302,192,102000,1,0,0:0:0:62:E5S.wav
448,192,102000,1,0,0:0:0:62:G5S.wav
375,192,102250,1,0,0:0:0:62:E4S_s.wav
229,192,102500,1,0,0:0:0:62:E3S_s.wav
83,192,102750,1,0,0:0:0:62:E4S_s.wav
156,192,103000,1,0,0:0:0:62:D3S_s.wav
302,192,103000,1,0,0:0:0:62:F#5S_Gb5S.wav
448,192,103000,1,0,0:0:0:62:A5S.wav
10,192,103250,1,0,0:0:0:62:D4S_s.wav
229,192,103500,1,0,0:0:0:62:D3S_s.wav
375,192,103500,1,0,0:0:0:62:E6S_s.wav
83,192,103750,1,0,0:0:0:62:D4S_s.wav
448,192,103750,1,0,0:0:0:62:G6S.wav
10,192,104000,1,0,0:0:0:62:C4S_s.wav
156,192,104000,1,0,0:0:0:62:B5S.wav
302,192,104000,1,0,0:0:0:62:D6S.wav
229,192,104250,1,0,0:0:0:62:C5S_s.wav
375,192,104500,1,0,0:0:0:62:C4S_s.wav
83,192,104750,1,0,0:0:0:62:C5S_s.wav
448,192,105000,1,0,0:0:0:62:C4S_s.wav
10,192,105250,1,0,0:0:0:62:C5S_s.wav
156,192,105500,1,0,0:0:0:62:C4S_s.wav
302,192,105500,1,0,0:0:0:62:A6S_s.wav
229,192,105750,1,0,0:0:0:62:C5S_s.wav
375,192,105750,1,0,0:0:0:62:F#6S_Gb6S.wav
10,192,106000,1,0,0:0:0:62:A3S_s.wav
83,192,106000,1,0,0:0:0:62:C6S.wav
448,192,106000,1,0,0:0:0:62:D6S.wav
302,192,106250,1,0,0:0:0:62:A4S_s.wav
156,192,106500,1,0,0:0:0:62:A3S_s.wav
229,192,106750,1,0,0:0:0:62:A4S_s.wav
83,192,107000,1,0,0:0:0:62:A3S_s.wav
375,192,107000,1,0,0:0:0:62:F#6S_Gb6S_s.wav
10,192,107250,1,0,0:0:0:62:A4S_s.wav
448,192,107250,1,0,0:0:0:62:E6S_s.wav
156,192,107500,1,0,0:0:0:62:A3S_s.wav
302,192,107500,1,0,0:0:0:62:E6S_s.wav
83,192,107750,1,0,0:0:0:62:A4S_s.wav
229,192,107750,1,0,0:0:0:62:E6S.wav
10,192,108000,1,0,0:0:0:62:E3S_s.wav
156,192,108000,1,0,0:0:0:62:G5S.wav
375,192,108000,1,0,0:0:0:62:B5S.wav
448,192,108000,1,0,0:0:0:62:D6S.wav
302,192,108250,1,0,0:0:0:62:E4S_s.wav
229,192,108500,1,0,0:0:0:62:E3S_s.wav
83,192,108750,1,0,0:0:0:62:E4S_s.wav
375,192,109000,1,0,0:0:0:62:E3S_s.wav
10,192,109250,1,0,0:0:0:62:E4S_s.wav
448,192,109500,1,0,0:0:0:62:E3S_s.wav
156,192,109750,1,0,0:0:0:62:E4S_s.wav
83,192,110000,1,0,0:0:0:62:E3S_s.wav
229,192,110000,1,0,0:0:0:62:D5S.wav
302,192,110000,1,0,0:0:0:62:E5S.wav
375,192,110000,1,0,0:0:0:62:G5S.wav
10,192,110250,1,0,0:0:0:62:E4S_s.wav
448,192,110500,1,0,0:0:0:62:E3S_s.wav
156,192,110750,1,0,0:0:0:62:E4S_s.wav
83,192,111000,1,0,0:0:0:62:D3S_s.wav
229,192,111000,1,0,0:0:0:62:F#5S_Gb5S.wav
302,192,111000,1,0,0:0:0:62:A5S.wav
375,192,111250,1,0,0:0:0:62:D4S_s.wav
10,192,111500,1,0,0:0:0:62:D3S_s.wav
448,192,111500,1,0,0:0:0:62:E6S_s.wav
156,192,111750,1,0,0:0:0:62:D4S_s.wav
302,192,111750,1,0,0:0:0:62:G6S.wav
83,192,112000,1,0,0:0:0:62:C4S_s.wav
229,192,112000,1,0,0:0:0:62:B5S.wav
375,192,112000,1,0,0:0:0:62:D6S.wav
10,192,112250,1,0,0:0:0:62:C5S_s.wav
448,192,112500,1,0,0:0:0:62:C4S_s.wav
156,192,112750,1,0,0:0:0:62:C5S_s.wav
302,192,113000,1,0,0:0:0:62:C4S_s.wav
83,192,113250,1,0,0:0:0:62:C5S_s.wav
229,192,113500,1,0,0:0:0:62:C4S_s.wav
375,192,113500,1,0,0:0:0:62:A6S_s.wav
10,192,113750,1,0,0:0:0:62:C5S_s.wav
448,192,113750,1,0,0:0:0:62:F#6S_Gb6S.wav
83,192,114000,1,0,0:0:0:62:A3S_s.wav
156,192,114000,1,0,0:0:0:62:G5S.wav
302,192,114000,1,0,0:0:0:62:C6S.wav
375,192,114000,1,0,0:0:0:62:D6S.wav
229,192,114250,1,0,0:0:0:62:A4S_s.wav
10,192,114500,1,0,0:0:0:62:A3S_s.wav
448,192,114750,1,0,0:0:0:62:A4S_s.wav
156,192,115000,1,0,0:0:0:62:A3S_s.wav
375,192,115250,1,0,0:0:0:62:A4S_s.wav
83,192,115500,1,0,0:0:0:62:A3S_s.wav
302,192,115500,1,0,0:0:0:62:E6S_s.wav
10,192,115750,1,0,0:0:0:62:A4S_s.wav
229,192,115750,1,0,0:0:0:62:F#6S_Gb6S_s.wav
83,192,116000,1,0,0:0:0:62:E3S_s.wav
156,192,116000,1,0,0:0:0:62:G5S.wav
302,192,116000,1,0,0:0:0:62:B5S.wav
375,192,116000,1,0,0:0:0:62:D6S.wav
448,192,116000,1,0,0:0:0:62:F#6S_Gb6S.wav
10,192,116250,1,0,0:0:0:62:E4S_s.wav
229,192,116500,1,0,0:0:0:62:E3S_s.wav
302,192,116750,1,0,0:0:0:62:E4S_s.wav
156,192,117000,1,0,0:0:0:62:E3S_s.wav
83,192,117250,1,0,0:0:0:62:E4S_s.wav
448,192,117250,1,0,0:0:0:62:E6S_s.wav
10,192,117500,1,0,0:0:0:62:E3S_s.wav
375,192,117500,1,0,0:0:0:62:E6S_s.wav
229,192,117750,1,0,0:0:0:62:E4S_s.wav
302,192,117750,1,0,0:0:0:62:G6S.wav
83,192,118000,1,0,0:0:0:62:E3S_s.wav
156,192,118000,1,0,0:0:0:62:G5S.wav
375,192,118000,1,0,0:0:0:62:B5S.wav
448,192,118000,1,0,0:0:0:62:D6S.wav
10,192,118250,1,0,0:0:0:62:E4S_s.wav
302,192,118500,1,0,0:0:0:62:E3S_s.wav
229,192,118750,1,0,0:0:0:62:E4S_s.wav
156,192,119000,1,0,0:0:0:62:D3S_s.wav
375,192,119000,1,0,0:0:0:62:F#6S_Gb6S.wav
83,192,119250,1,0,0:0:0:62:D4S_s.wav
10,192,119500,1,0,0:0:0:62:D3S_s.wav
448,192,119500,1,0,0:0:0:62:G6S_s.wav
229,192,119750,1,0,0:0:0:62:D4S_s.wav
302,192,119750,1,0,0:0:0:62:B6S.wav
83,192,120000,1,0,0:0:0:62:C4S_s.wav
156,192,120000,1,0,0:0:0:62:D6S.wav
375,192,120000,1,0,0:0:0:62:E6S.wav
448,192,120000,1,0,0:0:0:62:G6S.wav
10,192,120250,1,0,0:0:0:62:C5S_s.wav
229,192,120500,1,0,0:0:0:62:C4S_s.wav
302,192,120750,1,0,0:0:0:62:C5S_s.wav
156,192,121000,1,0,0:0:0:62:C4S_s.wav
375,192,121250,1,0,0:0:0:62:C5S_s.wav
83,192,121500,1,0,0:0:0:62:C4S_s.wav
448,192,121500,1,0,0:0:0:62:C7S_s.wav
10,192,121750,1,0,0:0:0:62:C5S_s.wav
229,192,121750,1,0,0:0:0:62:A6S.wav
83,192,122000,1,0,0:0:0:62:A3S_s.wav
156,192,122000,1,0,0:0:0:62:C6S.wav
302,192,122000,1,0,0:0:0:62:D6S.wav
375,192,122000,1,0,0:0:0:62:A6S.wav
448,192,122250,1,0,0:0:0:62:A4S_s.wav
10,192,122500,1,0,0:0:0:62:A3S_s.wav
83,192,122750,1,0,0:0:0:62:A4S_s.wav
229,192,122750,1,0,0:0:0:62:A6S.wav
375,192,123000,1,0,0:0:0:62:A3S_s.wav
156,192,123250,1,0,0:0:0:62:A4S_s.wav
10,192,123500,1,0,0:0:0:62:A3S_s.wav
302,192,123500,1,0,0:0:0:62:F#6S_Gb6S_s.wav
448,192,123500,1,0,0:0:0:62:G6S_s.wav
83,192,123750,1,0,0:0:0:62:A4S_s.wav
229,192,123750,1,0,0:0:0:62:F#6S_Gb6S_s.wav
375,192,123750,1,0,0:0:0:62:F#6S_Gb6S_s.wav
10,192,124000,1,0,0:0:0:62:E3S_s.wav
83,192,124000,1,0,0:0:0:62:G5S.wav
156,192,124000,1,0,0:0:0:62:B5S.wav
302,192,124000,1,0,0:0:0:62:D6S.wav
448,192,124000,1,0,0:0:0:62:E6S.wav
375,192,124250,1,0,0:0:0:62:E4S_s.wav
229,192,124500,1,0,0:0:0:62:E3S_s.wav
448,192,124750,1,0,0:0:0:62:E4S_s.wav
156,192,125000,1,0,0:0:0:62:E3S_s.wav
302,192,125250,1,0,0:0:0:62:E4S_s.wav
10,192,125500,1,0,0:0:0:62:E3S_s.wav
83,192,125750,1,0,0:0:0:62:E4S_s.wav
156,192,126000,1,0,0:0:0:62:E3S_s.wav
229,192,126000,1,0,0:0:0:62:B4S.wav
302,192,126000,1,0,0:0:0:62:D5S.wav
375,192,126000,1,0,0:0:0:62:E5S.wav
448,192,126000,1,0,0:0:0:62:G5S.wav
10,192,126250,1,0,0:0:0:62:E4S_s.wav
83,192,126500,1,0,0:0:0:62:E3S_s.wav
448,192,126750,1,0,0:0:0:62:E4S_s.wav
156,192,127000,1,0,0:0:0:62:D3S_s.wav
229,192,127000,1,0,0:0:0:62:A4S.wav
302,192,127000,1,0,0:0:0:62:D5S.wav
375,192,127000,1,0,0:0:0:62:F#5S_Gb5S.wav
10,192,127250,1,0,0:0:0:62:D4S_s.wav
83,192,127500,1,0,0:0:0:62:D3S_s.wav
448,192,127750,1,0,0:0:0:62:D4S_s.wav
156,192,128000,1,0,0:0:0:62:C4S_s.wav
229,192,128000,1,0,0:0:0:62:G5S_s.wav
302,192,128000,1,0,0:0:0:62:B5S_s.wav
10,192,128250,1,0,0:0:0:62:C5S_s.wav
83,192,128250,1,0,0:0:0:62:E5S_s.wav
375,192,128250,1,0,0:0:0:62:G5S_s.wav
448,192,128500,1,0,0:0:0:62:C4S_s.wav
156,192,128750,1,0,0:0:0:62:C5S_s.wav
229,192,128750,1,0,0:0:0:62:G5S_s.wav
302,192,128750,1,0,0:0:0:62:B5S_s.wav
10,192,129000,1,0,0:0:0:62:C4S_s.wav
83,192,129000,1,0,0:0:0:62:E5S_s.wav
375,192,129000,1,0,0:0:0:62:G5S_s.wav
448,192,129250,1,0,0:0:0:62:C5S_s.wav
156,192,129500,1,0,0:0:0:62:C4S_s.wav
229,192,129500,1,0,0:0:0:62:G5S_s.wav
302,192,129500,1,0,0:0:0:62:B5S_s.wav
10,192,129750,1,0,0:0:0:62:C5S_s.wav
83,192,129750,1,0,0:0:0:62:E5S_s.wav
375,192,129750,1,0,0:0:0:62:G5S_s.wav
448,192,130000,1,0,0:0:0:62:A3S_s.wav
156,192,130250,1,0,0:0:0:62:A4S_s.wav
229,192,130250,1,0,0:0:0:62:G5S_s.wav
302,192,130250,1,0,0:0:0:62:B5S_s.wav
10,192,130500,1,0,0:0:0:62:A3S_s.wav
83,192,130500,1,0,0:0:0:62:E5S_s.wav
375,192,130500,1,0,0:0:0:62:G5S_s.wav
156,192,130750,1,0,0:0:0:62:A4S_s.wav
302,192,130750,1,0,0:0:0:62:F#5S_Gb5S_s.wav
448,192,130750,1,0,0:0:0:62:A5S_s.wav
229,192,131000,1,0,0:0:0:62:A3S_s.wav
10,192,131250,1,0,0:0:0:62:A4S_s.wav
83,192,131250,1,0,0:0:0:62:F#5S_Gb5S_s.wav
375,192,131250,1,0,0:0:0:62:A5S_s.wav
156,192,131500,1,0,0:0:0:62:A3S_s.wav
302,192,131500,1,0,0:0:0:62:F#5S_Gb5S_s.wav
448,192,131500,1,0,0:0:0:62:A5S_s.wav
229,192,131750,1,0,0:0:0:62:A4S_s.wav
10,192,132000,1,0,0:0:0:62:E3S_s.wav
83,192,132000,1,0,0:0:0:62:G5S_s.wav
375,192,132000,1,0,0:0:0:62:B5S_s.wav
156,192,132250,1,0,0:0:0:62:E4S_s.wav
302,192,132250,1,0,0:0:0:62:E5S_s.wav
448,192,132250,1,0,0:0:0:62:G5S_s.wav
229,192,132500,1,0,0:0:0:62:E3S_s.wav
10,192,132750,1,0,0:0:0:62:E4S_s.wav
83,192,132750,1,0,0:0:0:62:G5S_s.wav
375,192,132750,1,0,0:0:0:62:B5S_s.wav
156,192,133000,1,0,0:0:0:62:E3S_s.wav
302,192,133000,1,0,0:0:0:62:E5S_s.wav
448,192,133000,1,0,0:0:0:62:G5S_s.wav
229,192,133250,1,0,0:0:0:62:E4S_s.wav
10,192,133500,1,0,0:0:0:62:E3S_s.wav
83,192,133500,1,0,0:0:0:62:G5S_s.wav
375,192,133500,1,0,0:0:0:62:B5S_s.wav
156,192,133750,1,0,0:0:0:62:E4S_s.wav
302,192,133750,1,0,0:0:0:62:E5S_s.wav
448,192,133750,1,0,0:0:0:62:G5S_s.wav
229,192,134000,1,0,0:0:0:62:E3S_s.wav
10,192,134250,1,0,0:0:0:62:E4S_s.wav
83,192,134250,1,0,0:0:0:62:G5S_s.wav
375,192,134250,1,0,0:0:0:62:B5S_s.wav
156,192,134500,1,0,0:0:0:62:E3S_s.wav
302,192,134500,1,0,0:0:0:62:E5S_s.wav
448,192,134500,1,0,0:0:0:62:G5S_s.wav
83,192,134750,1,0,0:0:0:62:E4S_s.wav
229,192,134750,1,0,0:0:0:62:F#5S_Gb5S_s.wav
375,192,134750,1,0,0:0:0:62:A5S_s.wav
10,192,135000,1,0,0:0:0:62:D3S_s.wav
156,192,135250,1,0,0:0:0:62:D4S_s.wav
302,192,135250,1,0,0:0:0:62:F#5S_Gb5S_s.wav
448,192,135250,1,0,0:0:0:62:A5S_s.wav
83,192,135500,1,0,0:0:0:62:D3S_s.wav
229,192,135500,1,0,0:0:0:62:E6S_s.wav
10,192,135750,1,0,0:0:0:62:D4S_s.wav
375,192,135750,1,0,0:0:0:62:G6S.wav
156,192,136000,1,0,0:0:0:62:C4S_s.wav
302,192,136000,1,0,0:0:0:62:B5S.wav
448,192,136000,1,0,0:0:0:62:D6S.wav
229,192,136250,1,0,0:0:0:62:C5S_s.wav
83,192,136500,1,0,0:0:0:62:C4S_s.wav
375,192,136750,1,0,0:0:0:62:C5S_s.wav
10,192,137000,1,0,0:0:0:62:C4S_s.wav
302,192,137250,1,0,0:0:0:62:C5S_s.wav
156,192,137500,1,0,0:0:0:62:C4S_s.wav
448,192,137500,1,0,0:0:0:62:A6S_s.wav
83,192,137750,1,0,0:0:0:62:C5S_s.wav
229,192,137750,1,0,0:0:0:62:F#6S_Gb6S.wav
10,192,138000,1,0,0:0:0:62:A3S_s.wav
156,192,138000,1,0,0:0:0:62:G5S.wav
302,192,138000,1,0,0:0:0:62:C6S.wav
375,192,138000,1,0,0:0:0:62:D6S.wav
448,192,138250,1,0,0:0:0:62:A4S_s.wav
83,192,138500,1,0,0:0:0:62:A3S_s.wav
229,192,138750,1,0,0:0:0:62:A4S_s.wav
10,192,139000,1,0,0:0:0:62:A3S_s.wav
375,192,139000,1,0,0:0:0:62:F#6S_Gb6S_s.wav
156,192,139250,1,0,0:0:0:62:A4S_s.wav
302,192,139250,1,0,0:0:0:62:E6S_s.wav
83,192,139500,1,0,0:0:0:62:A3S_s.wav
448,192,139500,1,0,0:0:0:62:E6S_s.wav
229,192,139750,1,0,0:0:0:62:A4S_s.wav
375,192,139750,1,0,0:0:0:62:E6S.wav
10,192,140000,1,0,0:0:0:62:E3S_s.wav
156,192,140000,1,0,0:0:0:62:G5S.wav
302,192,140000,1,0,0:0:0:62:B5S.wav
448,192,140000,1,0,0:0:0:62:D6S.wav
83,192,140250,1,0,0:0:0:62:E4S_s.wav
375,192,140500,1,0,0:0:0:62:E3S_s.wav
229,192,140750,1,0,0:0:0:62:E4S_s.wav
156,192,141000,1,0,0:0:0:62:E3S_s.wav
448,192,141250,1,0,0:0:0:62:E4S_s.wav
10,192,141500,1,0,0:0:0:62:E3S_s.wav
302,192,141750,1,0,0:0:0:62:E4S_s.wav
83,192,142000,1,0,0:0:0:62:E3S_s.wav
156,192,142000,1,0,0:0:0:62:D5S.wav
229,192,142000,1,0,0:0:0:62:E5S.wav
375,192,142000,1,0,0:0:0:62:G5S.wav
448,192,142250,1,0,0:0:0:62:E4S_s.wav
10,192,142500,1,0,0:0:0:62:E3S_s.wav
302,192,142750,1,0,0:0:0:62:E4S_s.wav
83,192,143000,1,0,0:0:0:62:D3S_s.wav
156,192,143000,1,0,0:0:0:62:D5S.wav
229,192,143000,1,0,0:0:0:62:F#5S_Gb5S.wav
375,192,143000,1,0,0:0:0:62:A5S.wav
448,192,143250,1,0,0:0:0:62:D4S_s.wav
10,192,143500,1,0,0:0:0:62:D3S_s.wav
302,192,143750,1,0,0:0:0:62:D4S_s.wav
83,192,144000,1,0,0:0:0:62:C4S_s.wav
156,192,144000,1,0,0:0:0:62:D5S.wav
229,192,144000,1,0,0:0:0:62:E5S.wav
375,192,144000,1,0,0:0:0:62:G5S.wav
448,192,144000,1,0,0:0:0:62:B5S.wav
10,192,144250,1,0,0:0:0:62:C5S_s.wav
302,192,144500,1,0,0:0:0:62:C4S_s.wav
156,192,144750,1,0,0:0:0:62:C5S_s.wav
448,192,145000,1,0,0:0:0:62:C4S_s.wav
83,192,145250,1,0,0:0:0:62:C5S_s.wav
375,192,145500,1,0,0:0:0:62:C4S_s.wav
229,192,145750,1,0,0:0:0:62:C5S_s.wav
10,192,146000,1,0,0:0:0:62:A3S_s.wav
83,192,146000,1,0,0:0:0:62:D5S.wav
156,192,146000,1,0,0:0:0:62:E5S.wav
302,192,146000,1,0,0:0:0:62:G5S.wav
448,192,146000,1,0,0:0:0:62:B5S.wav
375,192,146250,1,0,0:0:0:62:A4S_s.wav
229,192,146500,1,0,0:0:0:62:A3S_s.wav
302,192,146750,1,0,0:0:0:62:A4S_s.wav
83,192,147000,1,0,0:0:0:62:A3S_s.wav
448,192,147250,1,0,0:0:0:62:A4S_s.wav
156,192,147500,1,0,0:0:0:62:A3S_s.wav
10,192,147750,1,0,0:0:0:62:A4S_s.wav
83,192,148000,1,0,0:0:0:62:E3S_s.wav
229,192,148000,1,0,0:0:0:62:D5S_s.wav
302,192,148000,1,0,0:0:0:62:E5S_s.wav
375,192,148000,1,0,0:0:0:62:G5S_s.wav
448,192,148000,1,0,0:0:0:62:B5S_s.wav
10,192,148250,1,0,0:0:0:62:E4S_s.wav
83,192,148250,1,0,0:0:0:62:D5S.wav
156,192,148250,1,0,0:0:0:62:E5S.wav
302,192,148250,1,0,0:0:0:62:G5S.wav
375,192,148250,1,0,0:0:0:62:B5S.wav
448,192,148500,1,0,0:0:0:62:E3S_s.wav
229,192,148750,1,0,0:0:0:62:E4S_s.wav
156,192,149000,1,0,0:0:0:62:E3S_s.wav
10,192,149250,1,0,0:0:0:62:E4S_s.wav
375,192,149250,1,0,0:0:0:62:B6S_s.wav
83,192,149500,1,0,0:0:0:62:E3S_s.wav
302,192,149500,1,0,0:0:0:62:C7S_s.wav
229,192,149750,1,0,0:0:0:62:E4S_s.wav
448,192,149750,1,0,0:0:0:62:D7S_s.wav
156,192,150000,1,0,0:0:0:62:E3S_s.wav
375,192,150000,1,0,0:0:0:62:G6S.wav
10,192,150250,1,0,0:0:0:62:E4S_s.wav
302,192,150250,1,0,0:0:0:62:C7S_s.wav
83,192,150500,1,0,0:0:0:62:E3S_s.wav
448,192,150500,1,0,0:0:0:62:C7S_s.wav
229,192,150750,1,0,0:0:0:62:E4S_s.wav
375,192,150750,1,0,0:0:0:62:B6S_s.wav
156,192,151000,1,0,0:0:0:62:D3S_s.wav
302,192,151000,1,0,0:0:0:62:F#6S_Gb6S.wav
10,192,151250,1,0,0:0:0:62:D4S_s.wav
448,192,151250,1,0,0:0:0:62:A6S_s.wav
83,192,151500,1,0,0:0:0:62:D3S_s.wav
229,192,151500,1,0,0:0:0:62:G6S_s.wav
375,192,151750,1,0,0:0:0:62:D4S_s.wav
10,192,152000,1,0,0:0:0:62:C4S_s.wav
83,192,152000,1,0,0:0:0:62:D5S.wav
156,192,152000,1,0,0:0:0:62:E5S.wav
302,192,152000,1,0,0:0:0:62:G5S.wav
448,192,152000,1,0,0:0:0:62:B5S.wav
229,192,152250,1,0,0:0:0:62:C5S_s.wav
375,192,152500,1,0,0:0:0:62:C4S_s.wav
10,192,152750,1,0,0:0:0:62:C5S_s.wav
448,192,153000,1,0,0:0:0:62:C4S_s.wav
83,192,153250,1,0,0:0:0:62:C5S_s.wav
302,192,153500,1,0,0:0:0:62:C4S_s.wav
156,192,153750,1,0,0:0:0:62:C5S_s.wav
10,192,154000,1,0,0:0:0:62:A3S_s.wav
83,192,154000,1,0,0:0:0:62:D5S.wav
229,192,154000,1,0,0:0:0:62:E5S.wav
375,192,154000,1,0,0:0:0:62:G5S.wav
448,192,154000,1,0,0:0:0:62:B5S.wav
302,192,154250,1,0,0:0:0:62:A4S_s.wav
156,192,154500,1,0,0:0:0:62:A3S_s.wav
375,192,154750,1,0,0:0:0:62:A4S_s.wav
10,192,155000,1,0,0:0:0:62:A3S_s.wav
448,192,155250,1,0,0:0:0:62:A4S_s.wav
83,192,155500,1,0,0:0:0:62:A3S_s.wav
229,192,155500,1,0,0:0:0:62:D5S_s.wav
302,192,155500,1,0,0:0:0:62:G5S_s.wav
10,192,155750,1,0,0:0:0:62:A4S_s.wav
83,192,155750,1,0,0:0:0:62:D5S.wav
156,192,155750,1,0,0:0:0:62:E5S.wav
375,192,155750,1,0,0:0:0:62:G5S.wav
448,192,155750,1,0,0:0:0:62:B5S.wav
229,192,156000,1,0,0:0:0:62:E3S_s.wav
302,192,156250,1,0,0:0:0:62:E4S_s.wav
156,192,156500,1,0,0:0:0:62:E3S_s.wav
448,192,156750,1,0,0:0:0:62:E4S_s.wav
83,192,157000,1,0,0:0:0:62:E3S_s.wav
10,192,157250,1,0,0:0:0:62:E4S_s.wav
375,192,157250,1,0,0:0:0:62:B6S_s.wav
229,192,157500,1,0,0:0:0:62:E3S_s.wav
302,192,157500,1,0,0:0:0:62:C7S_s.wav
156,192,157750,1,0,0:0:0:62:E4S_s.wav
448,192,157750,1,0,0:0:0:62:D7S_s.wav
83,192,158000,1,0,0:0:0:62:E3S_s.wav
375,192,158000,1,0,0:0:0:62:G6S.wav
10,192,158250,1,0,0:0:0:62:E4S_s.wav
302,192,158250,1,0,0:0:0:62:C7S_s.wav
156,192,158500,1,0,0:0:0:62:E3S_s.wav
229,192,158500,1,0,0:0:0:62:C7S_s.wav
83,192,158750,1,0,0:0:0:62:E4S_s.wav
448,192,158750,1,0,0:0:0:62:B6S_s.wav
10,192,159000,1,0,0:0:0:62:D3S_s.wav
375,192,159000,1,0,0:0:0:62:F#6S_Gb6S.wav
229,192,159250,1,0,0:0:0:62:D4S_s.wav
302,192,159250,1,0,0:0:0:62:A6S_s.wav
156,192,159500,1,0,0:0:0:62:D3S_s.wav
448,192,159500,1,0,0:0:0:62:G6S_s.wav
83,192,159750,1,0,0:0:0:62:D4S_s.wav
375,192,159750,1,0,0:0:0:62:E6S_s.wav
10,192,160000,1,0,0:0:0:62:C4S_s.wav
156,192,160000,1,0,0:0:0:62:D6S_s.wav
229,192,160000,1,0,0:0:0:62:E6S_s.wav
302,192,160000,1,0,0:0:0:62:G6S_s.wav
448,192,160000,1,0,0:0:0:62:B6S_s.wav
10,192,160250,1,0,0:0:0:62:C5S_s.wav
83,192,160250,1,0,0:0:0:62:D6S_s.wav
302,192,160250,1,0,0:0:0:62:E6S_s.wav
375,192,160250,1,0,0:0:0:62:G6S_s.wav
448,192,160250,1,0,0:0:0:62:B6S_s.wav
229,192,160500,1,0,0:0:0:62:C4S_s.wav
10,192,160750,1,0,0:0:0:62:C5S_s.wav
83,192,160750,1,0,0:0:0:62:B5S_s.wav
156,192,160750,1,0,0:0:0:62:D6S_s.wav
302,192,160750,1,0,0:0:0:62:E6S_s.wav
448,192,160750,1,0,0:0:0:62:G6S_s.wav
375,192,161000,1,0,0:0:0:62:C4S_s.wav
156,192,161250,1,0,0:0:0:62:C5S_s.wav
229,192,161250,1,0,0:0:0:62:E6S_s.wav
10,192,161500,1,0,0:0:0:62:C4S_s.wav
83,192,161500,1,0,0:0:0:62:D6S_s.wav
302,192,161500,1,0,0:0:0:62:E6S_s.wav
375,192,161500,1,0,0:0:0:62:G6S_s.wav
448,192,161500,1,0,0:0:0:62:B6S_s.wav
83,192,161750,1,0,0:0:0:62:C5S_s.wav
156,192,161750,1,0,0:0:0:62:D6S_s.wav
229,192,161750,1,0,0:0:0:62:E6S_s.wav
375,192,161750,1,0,0:0:0:62:G6S_s.wav
448,192,161750,1,0,0:0:0:62:B6S_s.wav
10,192,162000,1,0,0:0:0:62:A3S_s.wav
83,192,162250,1,0,0:0:0:62:A4S_s.wav
156,192,162250,1,0,0:0:0:62:B5S.wav
302,192,162250,1,0,0:0:0:62:D6S.wav
375,192,162250,1,0,0:0:0:62:E6S.wav
448,192,162250,1,0,0:0:0:62:G6S.wav
229,192,162500,1,0,0:0:0:62:A3S_s.wav
10,192,162750,1,0,0:0:0:62:A4S_s.wav
375,192,163000,1,0,0:0:0:62:A3S_s.wav
83,192,163250,1,0,0:0:0:62:A4S_s.wav
156,192,163500,1,0,0:0:0:62:A3S_s.wav
302,192,163500,1,0,0:0:0:62:B6S_s.wav
229,192,163750,1,0,0:0:0:62:A4S_s.wav
448,192,163750,1,0,0:0:0:62:B6S.wav
10,192,164000,1,0,0:0:0:62:E3S_s.wav
83,192,164000,1,0,0:0:0:62:D6S.wav
302,192,164000,1,0,0:0:0:62:E6S.wav
375,192,164000,1,0,0:0:0:62:G6S.wav
156,192,164250,1,0,0:0:0:62:E4S_s.wav
229,192,164500,1,0,0:0:0:62:E3S_s.wav
448,192,164750,1,0,0:0:0:62:E4S_s.wav
83,192,165000,1,0,0:0:0:62:E3S_s.wav
10,192,165250,1,0,0:0:0:62:E4S_s.wav
302,192,165250,1,0,0:0:0:62:B6S_s.wav
156,192,165500,1,0,0:0:0:62:E3S_s.wav
375,192,165500,1,0,0:0:0:62:C7S_s.wav
229,192,165750,1,0,0:0:0:62:E4S_s.wav
448,192,165750,1,0,0:0:0:62:D7S_s.wav
83,192,166000,1,0,0:0:0:62:E3S_s.wav
302,192,166007,1,0,0:0:0:55:G6S.wav
10,192,166250,1,0,0:0:0:62:E4S_s.wav
375,192,166250,1,0,0:0:0:62:C7S_s.wav
156,192,166500,1,0,0:0:0:62:E3S_s.wav
448,192,166500,1,0,0:0:0:62:C7S_s.wav
229,192,166750,1,0,0:0:0:62:E4S_s.wav
302,192,166750,1,0,0:0:0:62:B6S_s.wav
83,192,166992,1,0,0:0:0:59:F#6S_Gb6S.wav
375,192,167000,1,0,0:0:0:62:D3S_s.wav
10,192,167250,1,0,0:0:0:62:D4S_s.wav
448,192,167250,1,0,0:0:0:62:A6S_s.wav
156,192,167500,1,0,0:0:0:62:D3S_s.wav
229,192,167500,1,0,0:0:0:62:G6S_s.wav
83,192,167750,1,0,0:0:0:62:D4S_s.wav
302,192,167750,1,0,0:0:0:62:G6S_s.wav
10,192,168000,1,0,0:0:0:62:C4S_s.wav
156,192,168000,1,0,0:0:0:62:D6S.wav
229,192,168000,1,0,0:0:0:62:E6S.wav
375,192,168000,1,0,0:0:0:62:G6S.wav
448,192,168000,1,0,0:0:0:62:B6S.wav
302,192,168250,1,0,0:0:0:62:C5S_s.wav
83,192,168500,1,0,0:0:0:62:C4S_s.wav
375,192,168750,1,0,0:0:0:62:C5S_s.wav
156,192,169000,1,0,0:0:0:62:C4S_s.wav
448,192,169250,1,0,0:0:0:62:C5S_s.wav
229,192,169500,1,0,0:0:0:62:C4S_s.wav
10,192,169750,1,0,0:0:0:62:C5S_s.wav
83,192,170000,1,0,0:0:0:62:A3S_s.wav
156,192,170000,1,0,0:0:0:62:D6S.wav
302,192,170000,1,0,0:0:0:62:E6S.wav
375,192,170000,1,0,0:0:0:62:G6S.wav
448,192,170000,1,0,0:0:0:62:B6S.wav
229,192,170250,1,0,0:0:0:62:A4S_s.wav
10,192,170500,1,0,0:0:0:62:A3S_s.wav
375,192,170750,1,0,0:0:0:62:A4S_s.wav
83,192,171000,1,0,0:0:0:62:A3S_s.wav
302,192,171250,1,0,0:0:0:62:A4S_s.wav
156,192,171500,1,0,0:0:0:62:A3S_s.wav
448,192,171750,1,0,0:0:0:62:A4S_s.wav
10,192,172000,1,0,0:0:0:62:E3S_s.wav
229,192,172000,1,0,0:0:0:62:B5S_s.wav
375,192,172000,1,0,0:0:0:62:G6S_s.wav
10,192,172250,1,0,0:0:0:62:E4S_s.wav
83,192,172250,1,0,0:0:0:62:G5S.wav
156,192,172250,1,0,0:0:0:62:B5S.wav
302,192,172250,1,0,0:0:0:62:D6S.wav
448,192,172250,1,0,0:0:0:62:E6S.wav
229,192,172500,1,0,0:0:0:62:E3S_s.wav
375,192,172750,1,0,0:0:0:62:E4S_s.wav
10,192,173000,1,0,0:0:0:62:E3S_s.wav
448,192,173250,1,0,0:0:0:62:E4S_s.wav
83,192,173500,1,0,0:0:0:62:E3S_s.wav
302,192,173750,1,0,0:0:0:62:E4S_s.wav
10,192,174000,1,0,0:0:0:62:E3S_s.wav
156,192,174000,1,0,0:0:0:62:D5S.wav
229,192,174000,1,0,0:0:0:62:E5S.wav
375,192,174000,1,0,0:0:0:62:G5S.wav
448,192,174250,1,0,0:0:0:62:E4S_s.wav
83,192,174500,1,0,0:0:0:62:E3S_s.wav
302,192,174750,1,0,0:0:0:62:E4S_s.wav
10,192,175000,1,0,0:0:0:62:D3S_s.wav
229,192,175000,1,0,0:0:0:62:F#5S_Gb5S.wav
375,192,175000,1,0,0:0:0:62:A5S.wav
156,192,175250,1,0,0:0:0:62:D4S_s.wav
448,192,175500,1,0,0:0:0:62:D3S_s.wav
83,192,175750,1,0,0:0:0:62:D4S_s.wav
302,192,175750,1,0,0:0:0:62:B6S.wav
10,192,176000,1,0,0:0:0:62:C4S_s.wav
156,192,176000,1,0,0:0:0:62:D6S.wav
229,192,176000,1,0,0:0:0:62:E6S.wav
375,192,176000,1,0,0:0:0:62:G6S.wav
448,192,176500,1,0,0:0:0:62:C6S_s.wav
83,192,177000,1,0,0:0:0:62:C6S_s.wav
302,192,177500,1,0,0:0:0:62:C6S_s.wav
156,192,178000,1,0,0:0:0:62:C6S_s.wav
10,192,178250,1,0,0:0:0:62:A4S_s.wav
229,192,178250,1,0,0:0:0:62:D6S.wav
375,192,178250,1,0,0:0:0:62:E6S.wav
448,192,178250,1,0,0:0:0:62:G6S.wav
83,192,178500,1,0,0:0:0:62:C6S_s.wav
302,192,179000,1,0,0:0:0:62:C6S_s.wav
156,192,179500,1,0,0:0:0:62:D6S_s.wav
448,192,179750,1,0,0:0:0:62:A6S_s.wav
10,192,180000,1,0,0:0:0:62:D6S_s.wav
83,192,180250,1,0,0:0:0:62:E4S_s.wav
229,192,180250,1,0,0:0:0:62:D6S.wav
375,192,180250,1,0,0:0:0:62:G6S_s.wav
302,192,180500,1,0,0:0:0:62:B5S_s.wav
156,192,180625,1,0,0:0:0:62:E6S.wav
448,192,181000,1,0,0:0:0:62:B5S_s.wav
10,192,181500,1,0,0:0:0:62:B5S_s.wav
375,192,182000,1,0,0:0:0:62:B5S_s.wav
83,192,182250,1,0,0:0:0:62:E5S_s.wav
156,192,182250,1,0,0:0:0:62:D6S.wav
229,192,182250,1,0,0:0:0:62:E6S.wav
302,192,182250,1,0,0:0:0:62:G6S.wav
448,192,182250,1,0,0:0:0:62:B6S_s.wav
10,192,182500,1,0,0:0:0:62:B5S_s.wav
375,192,182500,1,0,0:0:0:62:A6S_s.wav
156,192,182750,1,0,0:0:0:62:A6S_s.wav
448,192,183000,1,0,0:0:0:62:B5S_s.wav
83,192,183250,1,0,0:0:0:62:D5S_s.wav
229,192,183250,1,0,0:0:0:62:F#6S_Gb6S.wav
302,192,183250,1,0,0:0:0:62:A6S_s.wav
10,192,183500,1,0,0:0:0:62:A5S_s.wav
375,192,183500,1,0,0:0:0:62:G6S_s.wav
156,192,183750,1,0,0:0:0:62:B5S_s.wav
448,192,183750,1,0,0:0:0:62:B6S_s.wav
83,192,184000,1,0,0:0:0:62:C6S_s.wav
10,192,184250,1,0,0:0:0:62:C4S_s.wav
229,192,184250,1,0,0:0:0:62:D6S.wav
302,192,184250,1,0,0:0:0:62:G6S_s.wav
156,192,184750,1,0,0:0:0:62:C6S_s.wav
375,192,184750,1,0,0:0:0:62:E6S_s.wav
448,192,185000,1,0,0:0:0:62:E6S.wav
83,192,185250,1,0,0:0:0:62:C6S_s.wav
302,192,185750,1,0,0:0:0:62:C6S_s.wav
10,192,186250,1,0,0:0:0:62:A4S_s.wav
156,192,186250,1,0,0:0:0:62:D6S.wav
229,192,186250,1,0,0:0:0:62:E6S.wav
375,192,186250,1,0,0:0:0:62:G6S.wav
448,192,186500,1,0,0:0:0:62:C6S_s.wav
83,192,187000,1,0,0:0:0:62:C6S_s.wav
302,192,187500,1,0,0:0:0:62:D6S_s.wav
10,192,188000,1,0,0:0:0:62:C6S_s.wav
375,192,188000,1,0,0:0:0:62:E6S_s.wav
229,192,188250,1,0,0:0:0:62:D6S_s.wav
10,192,188500,1,0,0:0:0:62:E4S_s.wav
83,192,188500,1,0,0:0:0:62:D6S.wav
156,192,188500,1,0,0:0:0:62:E6S.wav
302,192,188500,1,0,0:0:0:62:G6S.wav
448,192,188500,1,0,0:0:0:62:B6S.wav
375,192,188750,1,0,0:0:0:62:B5S_s.wav
229,192,189250,1,0,0:0:0:62:B5S_s.wav
156,192,189750,1,0,0:0:0:62:B5S_s.wav
448,192,190250,1,0,0:0:0:62:B5S_s.wav
10,192,190500,1,0,0:0:0:62:E5S_s.wav
83,192,190500,1,0,0:0:0:62:E6S.wav
302,192,190500,1,0,0:0:0:62:G6S.wav
375,192,190750,1,0,0:0:0:62:B5S_s.wav
229,192,191250,1,0,0:0:0:62:B5S_s.wav
156,192,191500,1,0,0:0:0:62:D5S_s.wav
83,192,191750,1,0,0:0:0:62:A5S_s.wav
302,192,191750,1,0,0:0:0:62:D6S_s.wav
448,192,191750,1,0,0:0:0:62:F#6S_Gb6S_s.wav
10,192,192000,1,0,0:0:0:62:B5S_s.wav
375,192,192250,1,0,0:0:0:62:C6S_s.wav
83,192,192500,1,0,0:0:0:62:C4S_s.wav
156,192,192500,1,0,0:0:0:62:G5S_s.wav
229,192,192500,1,0,0:0:0:62:B5S_s.wav
448,192,192500,1,0,0:0:0:62:G6S_s.wav
10,192,192750,1,0,0:0:0:62:C5S_s.wav
83,192,192750,1,0,0:0:0:62:E5S_s.wav
302,192,192750,1,0,0:0:0:62:G5S_s.wav
375,192,192750,1,0,0:0:0:62:E6S.wav
448,192,193000,1,0,0:0:0:62:C4S_s.wav
156,192,193250,1,0,0:0:0:62:C5S_s.wav
229,192,193250,1,0,0:0:0:62:G5S_s.wav
375,192,193250,1,0,0:0:0:62:B5S_s.wav
10,192,193500,1,0,0:0:0:62:C4S_s.wav
83,192,193500,1,0,0:0:0:62:E5S_s.wav
302,192,193500,1,0,0:0:0:62:G5S_s.wav
448,192,193750,1,0,0:0:0:62:C5S_s.wav
156,192,194000,1,0,0:0:0:62:C4S_s.wav
229,192,194000,1,0,0:0:0:62:G5S_s.wav
375,192,194000,1,0,0:0:0:62:B5S_s.wav
10,192,194250,1,0,0:0:0:62:C5S_s.wav
83,192,194250,1,0,0:0:0:62:E5S_s.wav
302,192,194250,1,0,0:0:0:62:G5S_s.wav
448,192,194500,1,0,0:0:0:62:A3S_s.wav
156,192,194750,1,0,0:0:0:62:A4S_s.wav
229,192,194750,1,0,0:0:0:62:G5S_s.wav
375,192,194750,1,0,0:0:0:62:B5S_s.wav
10,192,195000,1,0,0:0:0:62:A3S_s.wav
83,192,195000,1,0,0:0:0:62:E5S_s.wav
302,192,195000,1,0,0:0:0:62:G5S_s.wav
156,192,195250,1,0,0:0:0:62:A4S_s.wav
375,192,195250,1,0,0:0:0:62:A5S_s.wav
448,192,195250,1,0,0:0:0:62:C6S_s.wav
229,192,195500,1,0,0:0:0:62:A3S_s.wav
10,192,195750,1,0,0:0:0:62:A4S_s.wav
83,192,195750,1,0,0:0:0:62:F#5S_Gb5S_s.wav
302,192,195750,1,0,0:0:0:62:A5S_s.wav
156,192,196000,1,0,0:0:0:62:A3S_s.wav
375,192,196000,1,0,0:0:0:62:F#5S_Gb5S_s.wav
448,192,196000,1,0,0:0:0:62:A5S_s.wav
229,192,196250,1,0,0:0:0:62:A4S_s.wav
10,192,196500,1,0,0:0:0:62:E3S_s.wav
83,192,196500,1,0,0:0:0:62:G5S_s.wav
302,192,196500,1,0,0:0:0:62:B5S_s.wav
156,192,196750,1,0,0:0:0:62:E4S_s.wav
375,192,196750,1,0,0:0:0:62:E5S_s.wav
448,192,196750,1,0,0:0:0:62:G5S_s.wav
229,192,197000,1,0,0:0:0:62:E3S_s.wav
10,192,197250,1,0,0:0:0:62:E4S_s.wav
83,192,197250,1,0,0:0:0:62:G5S_s.wav
302,192,197250,1,0,0:0:0:62:B5S_s.wav
156,192,197500,1,0,0:0:0:62:E3S_s.wav
375,192,197500,1,0,0:0:0:62:E5S_s.wav
448,192,197500,1,0,0:0:0:62:G5S_s.wav
229,192,197750,1,0,0:0:0:62:E4S_s.wav
10,192,198000,1,0,0:0:0:62:E3S_s.wav
83,192,198000,1,0,0:0:0:62:G5S_s.wav
302,192,198000,1,0,0:0:0:62:B5S_s.wav
156,192,198250,1,0,0:0:0:62:E4S_s.wav
375,192,198250,1,0,0:0:0:62:E5S_s.wav
448,192,198250,1,0,0:0:0:62:G5S_s.wav
229,192,198500,1,0,0:0:0:62:E3S_s.wav
10,192,198750,1,0,0:0:0:62:E4S_s.wav
83,192,198750,1,0,0:0:0:62:G5S_s.wav
302,192,198750,1,0,0:0:0:62:B5S_s.wav
156,192,199000,1,0,0:0:0:62:E3S_s.wav
375,192,199000,1,0,0:0:0:62:E5S_s.wav
448,192,199000,1,0,0:0:0:62:G5S_s.wav
83,192,199250,1,0,0:0:0:62:E4S_s.wav
229,192,199250,1,0,0:0:0:62:A5S_s.wav
302,192,199250,1,0,0:0:0:62:C6S_s.wav
10,192,199500,1,0,0:0:0:62:D3S_s.wav
156,192,199750,1,0,0:0:0:62:D4S_s.wav
375,192,199750,1,0,0:0:0:62:F#5S_Gb5S_s.wav
448,192,199750,1,0,0:0:0:62:A5S_s.wav
10,192,200000,1,0,0:0:0:62:D3S_s.wav
83,192,200000,1,0,0:0:0:62:F#5S_Gb5S_s.wav
229,192,200000,1,0,0:0:0:62:A5S_s.wav
302,192,200000,1,0,0:0:0:62:E6S_s.wav
156,192,200250,1,0,0:0:0:62:D4S_s.wav
448,192,200250,1,0,0:0:0:62:G6S_s.wav
10,192,200500,1,0,0:0:0:62:C4S.wav
83,192,200500,1,0,0:0:0:62:G5S.wav
229,192,200500,1,0,0:0:0:62:C6S.wav
302,192,200500,1,0,0:0:0:62:E6S.wav
375,192,200500,1,0,0:0:0:62:G6S.wav
448,192,202500,1,0,0:0:0:62:A6S_s.wav
156,192,202750,1,0,0:0:0:62:F#6S_Gb6S.wav
83,192,203000,1,0,0:0:0:62:A3S.wav
229,192,203000,1,0,0:0:0:62:A5S.wav
302,192,203000,1,0,0:0:0:62:C6S.wav
375,192,203000,1,0,0:0:0:62:E6S.wav
10,192,204250,1,0,0:0:0:62:E6S_s.wav
448,192,204500,1,0,0:0:0:62:E6S_s.wav
156,192,204750,1,0,0:0:0:62:E6S_s.wav
83,192,205000,1,0,0:0:0:62:E4S_s.wav
229,192,205000,1,0,0:0:0:62:G5S.wav
302,192,205000,1,0,0:0:0:62:B5S.wav
375,192,205000,1,0,0:0:0:62:D6S.wav
10,192,205500,1,0,0:0:0:62:E4S_s.wav
448,192,206000,1,0,0:0:0:62:E4S_s.wav
156,192,206500,1,0,0:0:0:62:E4S_s.wav
83,192,207000,1,0,0:0:0:62:E4S_s.wav
302,192,207000,1,0,0:0:0:62:E6S_s.wav
229,192,207250,1,0,0:0:0:62:E4S_s.wav
375,192,207250,1,0,0:0:0:62:F#6S_Gb6S_s.wav
10,192,207500,1,0,0:0:0:62:E4S_s.wav
448,192,207500,1,0,0:0:0:62:G6S_s.wav
156,192,207750,1,0,0:0:0:62:E4S_s.wav
302,192,207750,1,0,0:0:0:62:A6S_s.wav
83,192,208000,1,0,0:0:0:62:D4S_s.wav
229,192,208000,1,0,0:0:0:62:F#6S_Gb6S.wav
375,192,208000,1,0,0:0:0:62:B6S.wav
10,192,208250,1,0,0:0:0:62:D4S_s.wav
448,192,208500,1,0,0:0:0:62:D4S_s.wav
156,192,208750,1,0,0:0:0:62:D4S_s.wav
302,192,208750,1,0,0:0:0:62:C7S_s.wav
10,192,209000,1,0,0:0:0:62:C4S_s.wav
83,192,209000,1,0,0:0:0:62:E6S.wav
229,192,209000,1,0,0:0:0:62:G6S.wav
375,192,209000,1,0,0:0:0:62:B6S.wav
448,192,209000,1,0,0:0:0:62:D7S.wav
156,192,209250,1,0,0:0:0:62:C5S_s.wav
302,192,209500,1,0,0:0:0:62:C4S_s.wav
83,192,209750,1,0,0:0:0:62:C5S_s.wav
448,192,210000,1,0,0:0:0:62:C4S_s.wav
10,192,210250,1,0,0:0:0:62:C5S_s.wav
229,192,210500,1,0,0:0:0:62:C4S_s.wav
375,192,210750,1,0,0:0:0:62:C5S_s.wav
10,192,211000,1,0,0:0:0:62:A3S_s.wav
83,192,211000,1,0,0:0:0:62:E6S.wav
156,192,211000,1,0,0:0:0:62:G6S.wav
302,192,211000,1,0,0:0:0:62:B6S.wav
448,192,211000,1,0,0:0:0:62:D7S.wav
229,192,211250,1,0,0:0:0:62:A4S_s.wav
375,192,211500,1,0,0:0:0:62:A3S_s.wav
156,192,211750,1,0,0:0:0:62:A4S_s.wav
448,192,212000,1,0,0:0:0:62:A3S_s.wav
83,192,212250,1,0,0:0:0:62:A4S_s.wav
302,192,212500,1,0,0:0:0:62:A3S_s.wav
10,192,212750,1,0,0:0:0:62:A4S_s.wav
156,192,213000,1,0,0:0:0:62:E3S_s.wav
229,192,213000,1,0,0:0:0:62:G6S_s.wav
375,192,213000,1,0,0:0:0:62:B6S_s.wav
448,192,213000,1,0,0:0:0:62:D7S_s.wav
10,192,213250,1,0,0:0:0:62:E4S_s.wav
83,192,213250,1,0,0:0:0:62:G6S.wav
302,192,213250,1,0,0:0:0:62:B6S.wav
375,192,213250,1,0,0:0:0:62:D7S.wav
156,192,213500,1,0,0:0:0:62:E3S_s.wav
448,192,213750,1,0,0:0:0:62:E4S_s.wav
229,192,214000,1,0,0:0:0:62:E3S_s.wav
10,192,214250,1,0,0:0:0:62:E4S_s.wav
302,192,214250,1,0,0:0:0:62:B6S_s.wav
83,192,214500,1,0,0:0:0:62:E3S_s.wav
375,192,214500,1,0,0:0:0:62:C7S_s.wav
156,192,214750,1,0,0:0:0:62:E4S_s.wav
448,192,214750,1,0,0:0:0:62:D7S_s.wav
10,192,215000,1,0,0:0:0:62:E3S_s.wav
229,192,215000,1,0,0:0:0:62:G6S.wav
83,192,215250,1,0,0:0:0:62:E4S_s.wav
302,192,215250,1,0,0:0:0:62:C7S_s.wav
156,192,215500,1,0,0:0:0:62:E3S_s.wav
375,192,215500,1,0,0:0:0:62:C7S_s.wav
229,192,215750,1,0,0:0:0:62:E4S_s.wav
448,192,215750,1,0,0:0:0:62:B6S_s.wav
10,192,216000,1,0,0:0:0:62:D3S_s.wav
302,192,216000,1,0,0:0:0:62:F#6S_Gb6S.wav
83,192,216250,1,0,0:0:0:62:D4S_s.wav
375,192,216250,1,0,0:0:0:62:A6S_s.wav
156,192,216500,1,0,0:0:0:62:D3S_s.wav
229,192,216500,1,0,0:0:0:62:G6S_s.wav
448,192,216750,1,0,0:0:0:62:D4S_s.wav
10,192,217000,1,0,0:0:0:62:C4S_s.wav
83,192,217000,1,0,0:0:0:62:E6S.wav
229,192,217000,1,0,0:0:0:62:G6S.wav
302,192,217000,1,0,0:0:0:62:B6S.wav
375,192,217000,1,0,0:0:0:62:D7S.wav
156,192,217250,1,0,0:0:0:62:C5S_s.wav
448,192,217500,1,0,0:0:0:62:C4S_s.wav
10,192,217750,1,0,0:0:0:62:C5S_s.wav
375,192,218000,1,0,0:0:0:62:C4S_s.wav
83,192,218250,1,0,0:0:0:62:C5S_s.wav
302,192,218500,1,0,0:0:0:62:C4S_s.wav
229,192,218750,1,0,0:0:0:62:C5S_s.wav
10,192,219000,1,0,0:0:0:62:A3S_s.wav
156,192,219000,1,0,0:0:0:62:E6S.wav
375,192,219000,1,0,0:0:0:62:G6S.wav
448,192,219000,1,0,0:0:0:62:D7S_s.wav
83,192,219250,1,0,0:0:0:62:A4S_s.wav
229,192,219500,1,0,0:0:0:62:A3S_s.wav
302,192,219500,1,0,0:0:0:62:C7S_s.wav
156,192,219750,1,0,0:0:0:62:A4S_s.wav
10,192,220000,1,0,0:0:0:62:A3S_s.wav
375,192,220000,1,0,0:0:0:62:B6S_s.wav
448,192,220250,1,0,0:0:0:62:A4S_s.wav
83,192,220500,1,0,0:0:0:62:A3S_s.wav
229,192,220500,1,0,0:0:0:62:A6S_s.wav
156,192,220750,1,0,0:0:0:62:A4S_s.wav
302,192,220750,1,0,0:0:0:62:C7S_s.wav
10,192,221000,1,0,0:0:0:62:E3S_s.wav
375,192,221000,1,0,0:0:0:62:D6S.wav
448,192,221000,1,0,0:0:0:62:G6S.wav
83,192,221250,1,0,0:0:0:62:E4S_s.wav
229,192,221250,1,0,0:0:0:62:B6S_s.wav
302,192,221375,1,0,0:0:0:62:C7S_s.wav
156,192,221500,1,0,0:0:0:62:E3S_s.wav
448,192,221500,1,0,0:0:0:62:B6S.wav
10,192,221750,1,0,0:0:0:62:E4S_s.wav
375,192,222000,1,0,0:0:0:62:E3S_s.wav
83,192,222250,1,0,0:0:0:62:E4S_s.wav
229,192,222250,1,0,0:0:0:62:B6S_s.wav
156,192,222500,1,0,0:0:0:62:E3S_s.wav
302,192,222500,1,0,0:0:0:62:C7S_s.wav
10,192,222750,1,0,0:0:0:62:E4S_s.wav
448,192,222750,1,0,0:0:0:62:D7S_s.wav
229,192,223000,1,0,0:0:0:62:E3S_s.wav
375,192,223000,1,0,0:0:0:62:G6S.wav
83,192,223250,1,0,0:0:0:62:E4S_s.wav
302,192,223250,1,0,0:0:0:62:C7S_s.wav
156,192,223500,1,0,0:0:0:62:E3S_s.wav
448,192,223500,1,0,0:0:0:62:C7S_s.wav
10,192,223750,1,0,0:0:0:62:E4S_s.wav
229,192,223750,1,0,0:0:0:62:B6S_s.wav
83,192,224000,1,0,0:0:0:62:D3S_s.wav
375,192,224000,1,0,0:0:0:62:F#6S_Gb6S.wav
156,192,224250,1,0,0:0:0:62:D4S_s.wav
302,192,224250,1,0,0:0:0:62:A6S_s.wav
10,192,224500,1,0,0:0:0:62:D3S_s.wav
448,192,224500,1,0,0:0:0:62:G6S_s.wav
83,192,224750,1,0,0:0:0:62:D4S_s.wav
229,192,224750,1,0,0:0:0:62:E6S_s.wav
10,192,225000,1,0,0:0:0:62:C4S_s.wav
156,192,225000,1,0,0:0:0:62:D6S.wav
302,192,225000,1,0,0:0:0:62:E6S.wav
375,192,225000,1,0,0:0:0:62:B6S_s.wav
83,192,225250,1,0,0:0:0:62:C5S_s.wav
448,192,225250,1,0,0:0:0:62:B6S_s.wav
229,192,225500,1,0,0:0:0:62:C4S_s.wav
156,192,225750,1,0,0:0:0:62:C5S_s.wav
302,192,225750,1,0,0:0:0:62:G6S_s.wav
375,192,226000,1,0,0:0:0:62:C4S_s.wav
10,192,226250,1,0,0:0:0:62:C5S_s.wav
448,192,226250,1,0,0:0:0:62:E6S.wav
83,192,226500,1,0,0:0:0:62:C4S_s.wav
229,192,226500,1,0,0:0:0:62:B6S_s.wav
156,192,226750,1,0,0:0:0:62:C5S_s.wav
302,192,226750,1,0,0:0:0:62:B6S_s.wav
10,192,227000,1,0,0:0:0:62:A3S_s.wav
229,192,227000,1,0,0:0:0:62:D6S.wav
375,192,227000,1,0,0:0:0:62:E6S.wav
448,192,227000,1,0,0:0:0:62:B6S_s.wav
83,192,227250,1,0,0:0:0:62:A4S_s.wav
302,192,227250,1,0,0:0:0:62:G6S.wav
156,192,227500,1,0,0:0:0:62:A3S_s.wav
448,192,227750,1,0,0:0:0:62:A4S_s.wav
10,192,228000,1,0,0:0:0:62:A3S_s.wav
375,192,228250,1,0,0:0:0:62:A4S_s.wav
229,192,228500,1,0,0:0:0:62:A3S_s.wav
302,192,228500,1,0,0:0:0:62:B6S_s.wav
83,192,228750,1,0,0:0:0:62:A4S_s.wav
156,192,228750,1,0,0:0:0:62:B6S.wav
10,192,229000,1,0,0:0:0:62:E3S_s.wav
302,192,229000,1,0,0:0:0:62:D6S.wav
375,192,229000,1,0,0:0:0:62:E6S.wav
448,192,229000,1,0,0:0:0:62:G6S.wav
229,192,229250,1,0,0:0:0:62:E4S_s.wav
83,192,229500,1,0,0:0:0:62:E3S_s.wav
156,192,229750,1,0,0:0:0:62:E4S_s.wav
448,192,230000,1,0,0:0:0:62:E3S_s.wav
10,192,230250,1,0,0:0:0:62:E4S_s.wav
375,192,230250,1,0,0:0:0:62:B6S_s.wav
229,192,230500,1,0,0:0:0:62:E3S_s.wav
302,192,230500,1,0,0:0:0:62:C7S_s.wav
83,192,230750,1,0,0:0:0:62:E4S_s.wav
156,192,230750,1,0,0:0:0:62:D7S_s.wav
10,192,231000,1,0,0:0:0:62:E3S_s.wav
448,192,231000,1,0,0:0:0:62:G6S.wav
302,192,231250,1,0,0:0:0:62:E4S_s.wav
375,192,231250,1,0,0:0:0:62:C7S_s.wav
156,192,231500,1,0,0:0:0:62:E3S_s.wav
229,192,231500,1,0,0:0:0:62:C7S_s.wav
83,192,231750,1,0,0:0:0:62:E4S_s.wav
448,192,231750,1,0,0:0:0:62:B6S_s.wav
10,192,232000,1,0,0:0:0:62:D3S_s.wav
375,192,232000,1,0,0:0:0:62:F#6S_Gb6S.wav
156,192,232250,1,0,0:0:0:62:D4S_s.wav
302,192,232250,1,0,0:0:0:62:A6S_s.wav
229,192,232500,1,0,0:0:0:62:D3S_s.wav
448,192,232500,1,0,0:0:0:62:G6S_s.wav
83,192,232750,1,0,0:0:0:62:D4S_s.wav
375,192,232750,1,0,0:0:0:62:E6S_s.wav
10,192,233000,1,0,0:0:0:62:C4S_s.wav
156,192,233000,1,0,0:0:0:62:D6S_s.wav
229,192,233000,1,0,0:0:0:62:E6S_s.wav
302,192,233000,1,0,0:0:0:62:G6S_s.wav
448,192,233000,1,0,0:0:0:62:B6S.wav
83,192,233250,1,0,0:0:0:62:C5S_s.wav
10,192,233500,1,0,0:0:0:62:C4S_s.wav
302,192,233500,1,0,0:0:0:62:D6S.wav
375,192,233500,1,0,0:0:0:62:E6S.wav
156,192,233750,1,0,0:0:0:62:C5S_s.wav
448,192,234000,1,0,0:0:0:62:C4S_s.wav
229,192,234250,1,0,0:0:0:62:C5S_s.wav
83,192,234500,1,0,0:0:0:62:C4S_s.wav
302,192,234750,1,0,0:0:0:62:C5S_s.wav
10,192,235000,1,0,0:0:0:62:A3S_s.wav
156,192,235000,1,0,0:0:0:62:D6S_s.wav
229,192,235000,1,0,0:0:0:62:E6S_s.wav
375,192,235000,1,0,0:0:0:62:G6S_s.wav
448,192,235000,1,0,0:0:0:62:B6S.wav
83,192,235250,1,0,0:0:0:62:A4S_s.wav
302,192,235375,1,0,0:0:0:62:A6S_s.wav
156,192,235500,1,0,0:0:0:62:A3S_s.wav
448,192,235500,1,0,0:0:0:62:G6S.wav
10,192,235750,1,0,0:0:0:62:A4S_s.wav
229,192,236000,1,0,0:0:0:62:A3S_s.wav
375,192,236250,1,0,0:0:0:62:A4S_s.wav
83,192,236500,1,0,0:0:0:62:A3S_s.wav
302,192,236500,1,0,0:0:0:62:F#6S_Gb6S_s.wav
156,192,236750,1,0,0:0:0:62:A4S_s.wav
10,192,237000,1,0,0:0:0:62:E3S_s.wav
229,192,237000,1,0,0:0:0:62:B5S.wav
375,192,237000,1,0,0:0:0:62:D6S.wav
448,192,237000,1,0,0:0:0:62:G6S_s.wav
83,192,237250,1,0,0:0:0:62:E4S_s.wav
302,192,237250,1,0,0:0:0:62:E6S.wav
156,192,237500,1,0,0:0:0:62:E3S_s.wav
375,192,237750,1,0,0:0:0:62:E4S_s.wav
10,192,238000,1,0,0:0:0:62:E3S_s.wav
229,192,238250,1,0,0:0:0:62:E4S_s.wav
448,192,238500,1,0,0:0:0:62:E3S_s.wav
83,192,238750,1,0,0:0:0:62:E4S_s.wav
10,192,239000,1,0,0:0:0:62:E3S_s.wav
156,192,239000,1,0,0:0:0:62:E4S_s.wav
229,192,239000,1,0,0:0:0:62:D5S.wav
302,192,239000,1,0,0:0:0:62:E5S.wav
375,192,239000,1,0,0:0:0:62:G5S.wav
448,192,239250,1,0,0:0:0:62:E4S_s.wav
83,192,239500,1,0,0:0:0:62:E3S_s.wav
302,192,239750,1,0,0:0:0:62:E4S_s.wav
10,192,240000,1,0,0:0:0:62:D3S_s.wav
229,192,240000,1,0,0:0:0:62:F#5S_Gb5S.wav
375,192,240000,1,0,0:0:0:62:A5S.wav
156,192,240250,1,0,0:0:0:62:D4S_s.wav
448,192,240500,1,0,0:0:0:62:D3S_s.wav
83,192,240750,1,0,0:0:0:62:D4S_s.wav
302,192,240750,1,0,0:0:0:62:B6S_s.wav
10,192,241000,1,0,0:0:0:62:C4S_s.wav
156,192,241000,1,0,0:0:0:62:D6S.wav
229,192,241000,1,0,0:0:0:62:E6S.wav
375,192,241000,1,0,0:0:0:62:G6S.wav
448,192,241000,1,0,0:0:0:62:B6S_s.wav
83,192,241250,1,0,0:0:0:62:C5S_s.wav
302,192,241500,1,0,0:0:0:62:C4S_s.wav
10,192,241750,1,0,0:0:0:62:C5S_s.wav
448,192,242000,1,0,0:0:0:62:C4S_s.wav
156,192,242250,1,0,0:0:0:62:C5S_s.wav
229,192,242500,1,0,0:0:0:62:C4S_s.wav
375,192,242750,1,0,0:0:0:62:C5S_s.wav
10,192,243000,1,0,0:0:0:62:A3S_s.wav
83,192,243000,1,0,0:0:0:62:B5S.wav
156,192,243000,1,0,0:0:0:62:D6S.wav
302,192,243000,1,0,0:0:0:62:E6S.wav
448,192,243000,1,0,0:0:0:62:G6S.wav
229,192,243250,1,0,0:0:0:62:A4S_s.wav
375,192,243500,1,0,0:0:0:62:A3S_s.wav
83,192,243750,1,0,0:0:0:62:A4S_s.wav
448,192,244000,1,0,0:0:0:62:A3S_s.wav
10,192,244250,1,0,0:0:0:62:A4S_s.wav
156,192,244500,1,0,0:0:0:62:A3S_s.wav
302,192,244500,1,0,0:0:0:62:A6S_s.wav
229,192,244750,1,0,0:0:0:62:A4S_s.wav
10,192,245000,1,0,0:0:0:62:E3S_s.wav
83,192,245000,1,0,0:0:0:62:B5S.wav
375,192,245000,1,0,0:0:0:62:D6S.wav
448,192,245000,1,0,0:0:0:62:G6S_s.wav
302,192,245250,1,0,0:0:0:62:E4S_s.wav
156,192,245375,1,0,0:0:0:62:E6S.wav
229,192,245500,1,0,0:0:0:62:E3S_s.wav
448,192,245750,1,0,0:0:0:62:E4S_s.wav
83,192,246000,1,0,0:0:0:62:E3S_s.wav
375,192,246250,1,0,0:0:0:62:E4S_s.wav
10,192,246500,1,0,0:0:0:62:E3S_s.wav
302,192,246750,1,0,0:0:0:62:E4S_s.wav
83,192,247000,1,0,0:0:0:62:E3S_s.wav
156,192,247000,1,0,0:0:0:62:D5S.wav
229,192,247000,1,0,0:0:0:62:E5S.wav
448,192,247000,1,0,0:0:0:62:G5S.wav
375,192,247250,1,0,0:0:0:62:E4S_s.wav
10,192,247500,1,0,0:0:0:62:E3S_s.wav
302,192,247750,1,0,0:0:0:62:E4S_s.wav
83,192,248000,1,0,0:0:0:62:D3S_s.wav
156,192,248000,1,0,0:0:0:62:A4S.wav
229,192,248000,1,0,0:0:0:62:D5S.wav
448,192,248000,1,0,0:0:0:62:F#5S_Gb5S.wav
375,192,248250,1,0,0:0:0:62:D4S_s.wav
10,192,248500,1,0,0:0:0:62:D3S_s.wav
302,192,248750,1,0,0:0:0:62:D4S_s.wav
83,192,249000,1,0,0:0:0:62:C4S_s.wav
156,192,249000,1,0,0:0:0:62:D6S.wav
229,192,249000,1,0,0:0:0:62:E6S.wav
375,192,249000,1,0,0:0:0:62:G6S.wav
448,192,249000,1,0,0:0:0:62:B6S.wav
10,192,249250,1,0,0:0:0:62:C5S_s.wav
302,192,249500,1,0,0:0:0:62:C4S_s.wav
156,192,249750,1,0,0:0:0:62:C5S_s.wav
375,192,250000,1,0,0:0:0:62:C4S_s.wav
83,192,250250,1,0,0:0:0:62:C5S_s.wav
229,192,250500,1,0,0:0:0:62:C4S_s.wav
448,192,250750,1,0,0:0:0:62:C5S_s.wav
10,192,251000,1,0,0:0:0:62:A3S_s.wav
83,192,251000,1,0,0:0:0:62:D6S.wav
156,192,251000,1,0,0:0:0:62:E6S.wav
302,192,251000,1,0,0:0:0:62:G6S.wav
375,192,251000,1,0,0:0:0:62:B6S.wav
229,192,251250,1,0,0:0:0:62:A4S_s.wav
448,192,251500,1,0,0:0:0:62:A3S_s.wav
83,192,251750,1,0,0:0:0:62:A4S_s.wav
375,192,252000,1,0,0:0:0:62:A3S_s.wav
156,192,252250,1,0,0:0:0:62:A4S_s.wav
10,192,252500,1,0,0:0:0:62:A3S_s.wav
229,192,252500,1,0,0:0:0:62:B5S_s.wav
302,192,252500,1,0,0:0:0:62:D6S_s.wav
448,192,252500,1,0,0:0:0:62:G6S_s.wav
10,192,252750,1,0,0:0:0:62:A4S_s.wav
83,192,252750,1,0,0:0:0:62:D6S.wav
156,192,252750,1,0,0:0:0:62:E6S.wav
302,192,252750,1,0,0:0:0:62:G6S.wav
375,192,252750,1,0,0:0:0:62:B6S.wav
229,192,253000,1,0,0:0:0:62:E3S_s.wav
448,192,253250,1,0,0:0:0:62:E4S_s.wav
10,192,253500,1,0,0:0:0:62:E3S_s.wav
302,192,253750,1,0,0:0:0:62:E4S_s.wav
83,192,254000,1,0,0:0:0:62:E3S_s.wav
375,192,254250,1,0,0:0:0:62:E4S_s.wav
156,192,254500,1,0,0:0:0:62:E3S_s.wav
229,192,254750,1,0,0:0:0:62:E4S_s.wav
10,192,255000,1,0,0:0:0:62:E3S_s.wav
83,192,255000,1,0,0:0:0:62:D5S.wav
302,192,255000,1,0,0:0:0:62:E5S.wav
448,192,255000,1,0,0:0:0:62:G5S.wav
375,192,255250,1,0,0:0:0:62:E4S_s.wav
156,192,255500,1,0,0:0:0:62:E3S_s.wav
229,192,255750,1,0,0:0:0:62:E4S_s.wav
10,192,256000,1,0,0:0:0:62:D3S_s.wav
302,192,256000,1,0,0:0:0:62:F#5S_Gb5S.wav
448,192,256000,1,0,0:0:0:62:A5S.wav
83,192,256250,1,0,0:0:0:62:D4S_s.wav
375,192,256500,1,0,0:0:0:62:D3S_s.wav
156,192,256750,1,0,0:0:0:62:D4S_s.wav
229,192,256750,1,0,0:0:0:62:B6S_s.wav
10,192,257000,1,0,0:0:0:62:C4S_s.wav
83,192,257000,1,0,0:0:0:62:D6S.wav
302,192,257000,1,0,0:0:0:62:E6S.wav
375,192,257000,1,0,0:0:0:62:G6S.wav
448,192,257000,1,0,0:0:0:62:B6S_s.wav
156,192,257250,1,0,0:0:0:62:C5S_s.wav
229,192,257500,1,0,0:0:0:62:C4S_s.wav
375,192,257750,1,0,0:0:0:62:C5S_s.wav
10,192,258000,1,0,0:0:0:62:C4S_s.wav
448,192,258250,1,0,0:0:0:62:C5S_s.wav
83,192,258500,1,0,0:0:0:62:C4S_s.wav
302,192,258750,1,0,0:0:0:62:C5S_s.wav
10,192,259000,1,0,0:0:0:62:A3S_s.wav
156,192,259000,1,0,0:0:0:62:B5S.wav
229,192,259000,1,0,0:0:0:62:D6S.wav
375,192,259000,1,0,0:0:0:62:E6S.wav
448,192,259000,1,0,0:0:0:62:G6S.wav
83,192,259250,1,0,0:0:0:62:A4S_s.wav
302,192,259500,1,0,0:0:0:62:A3S_s.wav
10,192,259750,1,0,0:0:0:62:A4S_s.wav
448,192,260000,1,0,0:0:0:62:A3S_s.wav
156,192,260250,1,0,0:0:0:62:A4S_s.wav
229,192,260500,1,0,0:0:0:62:A3S_s.wav
375,192,260500,1,0,0:0:0:62:A6S_s.wav
83,192,260750,1,0,0:0:0:62:A4S_s.wav
10,192,261000,1,0,0:0:0:62:E3S_s.wav
156,192,261000,1,0,0:0:0:62:B5S.wav
302,192,261000,1,0,0:0:0:62:D6S.wav
448,192,261000,1,0,0:0:0:62:G6S_s.wav
375,192,261250,1,0,0:0:0:62:E4S_s.wav
229,192,261375,1,0,0:0:0:62:E6S.wav
83,192,261500,1,0,0:0:0:62:E3S_s.wav
448,192,261750,1,0,0:0:0:62:E4S_s.wav
156,192,262000,1,0,0:0:0:62:E3S_s.wav
302,192,262250,1,0,0:0:0:62:E4S_s.wav
10,192,262500,1,0,0:0:0:62:E3S_s.wav
375,192,262750,1,0,0:0:0:62:E4S_s.wav
83,192,263000,1,0,0:0:0:62:E3S_s.wav
156,192,263000,1,0,0:0:0:62:D5S.wav
229,192,263000,1,0,0:0:0:62:E5S.wav
448,192,263000,1,0,0:0:0:62:G5S.wav
302,192,263250,1,0,0:0:0:62:E4S_s.wav
10,192,263500,1,0,0:0:0:62:E3S_s.wav
375,192,263750,1,0,0:0:0:62:E4S_s.wav
83,192,264000,1,0,0:0:0:62:D3S_s.wav
156,192,264000,1,0,0:0:0:62:A4S.wav
229,192,264000,1,0,0:0:0:62:D5S.wav
448,192,264000,1,0,0:0:0:62:F#5S_Gb5S.wav
302,192,264250,1,0,0:0:0:62:D4S_s.wav
10,192,264500,1,0,0:0:0:62:D3S_s.wav
375,192,264750,1,0,0:0:0:62:D4S_s.wav
83,192,265000,1,0,0:0:0:62:C4S_s.wav
156,192,265000,1,0,0:0:0:62:D6S.wav
229,192,265000,1,0,0:0:0:62:E6S.wav
302,192,265000,1,0,0:0:0:62:G6S.wav
448,192,265000,1,0,0:0:0:62:B6S.wav
10,192,265250,1,0,0:0:0:62:C5S_s.wav
375,192,265500,1,0,0:0:0:62:C4S_s.wav
156,192,265750,1,0,0:0:0:62:C5S_s.wav
302,192,266000,1,0,0:0:0:62:C4S_s.wav
83,192,266250,1,0,0:0:0:62:C5S_s.wav
229,192,266500,1,0,0:0:0:62:C4S_s.wav
448,192,266750,1,0,0:0:0:62:C5S_s.wav
10,192,267000,1,0,0:0:0:62:A3S_s.wav
83,192,267000,1,0,0:0:0:62:D6S.wav
156,192,267000,1,0,0:0:0:62:E6S.wav
302,192,267000,1,0,0:0:0:62:G6S.wav
375,192,267000,1,0,0:0:0:62:B6S.wav
229,192,267250,1,0,0:0:0:62:A4S_s.wav
448,192,267500,1,0,0:0:0:62:A3S_s.wav
83,192,267750,1,0,0:0:0:62:A4S_s.wav
302,192,268000,1,0,0:0:0:62:A3S_s.wav
10,192,268250,1,0,0:0:0:62:A4S_s.wav
156,192,268500,1,0,0:0:0:62:A3S_s.wav
229,192,268500,1,0,0:0:0:62:B5S_s.wav
375,192,268500,1,0,0:0:0:62:D6S_s.wav
448,192,268500,1,0,0:0:0:62:G6S_s.wav
10,192,268750,1,0,0:0:0:62:A4S_s.wav
83,192,268750,1,0,0:0:0:62:D6S.wav
156,192,268750,1,0,0:0:0:62:E6S.wav
302,192,268750,1,0,0:0:0:62:G6S.wav
448,192,268750,1,0,0:0:0:62:B6S.wav
375,192,269000,1,0,0:0:0:62:E3S_s.wav
229,192,269250,1,0,0:0:0:62:E4S_s.wav
302,192,269500,1,0,0:0:0:62:E3S_s.wav
83,192,269750,1,0,0:0:0:62:E4S_s.wav
448,192,270000,1,0,0:0:0:62:E3S_s.wav
10,192,270250,1,0,0:0:0:62:E4S_s.wav
156,192,270500,1,0,0:0:0:62:E3S_s.wav
375,192,270750,1,0,0:0:0:62:E4S_s.wav
83,192,271000,1,0,0:0:0:62:E3S_s.wav
229,192,271000,1,0,0:0:0:62:D5S.wav
302,192,271000,1,0,0:0:0:62:E5S.wav
448,192,271000,1,0,0:0:0:62:G5S.wav
10,192,271250,1,0,0:0:0:62:E4S_s.wav
156,192,271500,1,0,0:0:0:62:E3S_s.wav
375,192,271750,1,0,0:0:0:62:E4S_s.wav
83,192,272000,1,0,0:0:0:62:D3S_s.wav
229,192,272000,1,0,0:0:0:62:F#5S_Gb5S.wav
302,192,272000,1,0,0:0:0:62:A5S.wav
448,192,272250,1,0,0:0:0:62:D4S_s.wav
10,192,272500,1,0,0:0:0:62:D3S_s.wav
156,192,272750,1,0,0:0:0:62:D4S_s.wav
83,192,273000,1,0,0:0:0:62:C4S.wav
375,192,273000,1,0,0:0:0:62:B6S_s.wav
229,192,273250,1,0,0:0:0:62:B6S.wav
