osu file format v14

[General]
AudioFilename: audio.mp3
AudioLeadIn: 0
PreviewTime: 41659
Countdown: 0
SampleSet: Soft
StackLeniency: 0.7
Mode: 0
LetterboxInBreaks: 0
WidescreenStoryboard: 1

[Editor]
Bookmarks: 12,7661,22984,42138,59376,76620
DistanceSpacing: 1.3
BeatDivisor: 4
GridSize: 4
TimelineZoom: 1.6

[Metadata]
Title:Natsu no Mirage (TV Size)
TitleUnicode:夏のミラージュ (TV Size)
Artist:Wada Kanako
ArtistUnicode:和田加奈子
Creator:bossandy
Version:Summer Mirage
Source:きまぐれオレンジ☆ロード
Tags:Kimagure Orange★Road Orange*Road Anime Japanese J-pop Jpop pop ending ed1 Summer Mirage 夏の蜃気楼 まつもと泉 Matsumoto Izumi 春日恭介 Kasuga kyosuke 鮎川まどか Ayukawa Madoka 檜山ひかる Hiyama Hikaru Silent Rock Silent_Rock
BeatmapID:3185075
BeatmapSetID:1558774

[Difficulty]
HPDrainRate:6
CircleSize:4
OverallDifficulty:7
ApproachRate:8.6
SliderMultiplier:1.8
SliderTickRate:1

[Events]
//Background and Video events
0,0,"BG.jpg",0,0
Video,0,"video.mp4"
//Break Periods
//Storyboard Layer 0 (Background)
//Storyboard Layer 1 (Fail)
//Storyboard Layer 2 (Pass)
//Storyboard Layer 3 (Foreground)
//Storyboard Layer 4 (Overlay)
//Storyboard Sound Samples

[TimingPoints]
12,478.08764940239,4,2,1,70,1,0
2282,-100,4,2,1,5,0,0
2402,-100,4,2,1,70,0,0
3239,-100,4,2,1,5,0,0
3359,-100,4,2,1,70,0,0
7661,478.850758180367,4,2,1,70,1,0
9935,-100,4,2,1,5,0,0
10055,-100,4,2,1,70,0,0
14245,-100,4,2,1,5,0,0
14365,-100,4,2,1,70,0,0
17597,-100,4,2,1,5,0,0
17717,-100,4,2,1,70,0,0
21427,-100,4,2,1,5,0,0
21547,-100,4,2,1,70,0,0
25258,-100,4,2,1,5,0,0
25378,-100,4,2,1,70,0,0
32441,-100,4,2,1,5,0,0
32561,-100,4,2,1,70,0,0
36272,-100,4,2,1,5,0,0
36392,-100,4,2,1,70,0,0
42138,478.927203065134,4,2,1,90,1,1
42138,-83.3333333333333,4,2,1,90,0,1
59379,478.927203065134,4,2,1,90,1,1
59379,-83.3333333333333,4,2,1,90,0,1
76620,458.015267175573,4,2,1,70,1,0
76620,-100,4,2,1,70,0,0
77421,-100,4,2,1,35,0,0
77536,-100,4,2,1,30,0,0
77994,-100,4,2,1,25,0,0
78452,-100,4,2,1,20,0,0
78910,-100,4,2,1,15,0,0
79368,-100,4,2,1,10,0,0
79826,-100,4,2,1,5,0,0

[Colours]
Combo1 : 80,149,109
Combo2 : 112,126,201
Combo3 : 249,153,162
Combo4 : 222,186,169

[HitObjects]
432,220,12,6,0,L|248:236,1,180,6|8,3:2|0:0,0:0:0:0:
276,136,729,1,2,1:2:0:0:
228,332,968,1,0,3:0:0:0:
228,332,1207,1,8,3:0:0:0:
188,160,1446,2,0,L|204:56,1,90,8|0,0:0|1:0,0:0:0:0:
139,247,1924,6,0,P|104:219|91:123,1,135,2|0,3:2|0:0,0:0:0:0:
88,135,2402,2,0,L|-4:152,1,90,10|0,0:0|1:0,0:0:0:0:
188,160,2880,2,0,P|222:132|235:36,1,135,2|0,3:2|0:0,0:0:0:0:
239,47,3358,2,0,L|331:64,1,90,10|0,0:0|1:0,0:0:0:0:
139,73,3836,5,2,3:2:0:0:
252,235,4075,1,8,1:0:0:0:
252,235,4195,1,8,1:0:0:0:
252,235,4314,1,8,0:0:0:0:
327,63,4553,2,0,L|344:16,1,45,8|8,1:0|1:0,0:0:0:0:
292,152,4792,1,2,3:2:0:0:
292,152,5031,2,0,L|324:190,1,45,10|8,1:0|1:0,0:0:0:0:
236,76,5270,2,0,L|186:84,1,45,10|0,0:0|0:0,0:0:0:0:
327,63,5510,1,0,1:0:0:0:
198,163,5749,6,0,L|109:177,1,90,0|8,3:0|1:0,0:0:0:0:
109,177,6107,1,8,1:0:0:0:
109,177,6227,1,8,0:0:0:0:
233,254,6466,1,8,1:0:0:0:
259,257,6585,1,8,1:0:0:0:
285,261,6705,2,0,L|329:268,3,45,2|8|8|8,3:2|0:0|0:0|0:0,0:0:0:0:
235,335,7183,2,0,L|183:343,3,45,10|10|8|8,1:0|0:0|0:0|0:0,0:0:0:0:
315,382,7661,5,6,3:2:0:0:
285,261,7900,1,2,1:2:0:0:
103,331,8139,2,0,P|148:346|192:340,1,90,10|2,0:0|1:2,0:0:0:0:
285,261,8618,1,2,3:2:0:0:
124,158,8858,2,0,P|168:153|210:167,1,90,10|8,3:0|0:0,0:0:0:0:
285,261,9336,1,2,1:2:0:0:
392,193,9576,6,0,P|402:129|351:70,1,135,2|0,3:2|0:0,0:0:0:0:
362,75,10055,2,0,P|402:105|455:101,1,90,8|0,0:0|1:0,0:0:0:0:
433,22,10534,1,0,3:0:0:0:
491,170,10773,1,2,1:2:0:0:
318,148,11012,2,0,L|213:155,1,90,8|0,0:0|1:0,0:0:0:0:
269,59,11491,5,2,3:2:0:0:
138,147,11731,2,0,L|228:153,1,90,2|8,1:2|0:0,0:0:0:0:
179,242,12210,1,2,1:2:0:0:
138,147,12449,2,0,L|33:154,1,90,2|10,3:2|3:0,0:0:0:0:
89,58,12928,1,10,0:0:0:0:
15,246,13167,6,0,L|31:351,1,90,2|0,1:2|3:0,0:0:0:0:
48,152,13646,1,2,1:2:0:0:
179,242,13886,2,0,P|242:249|301:203,1,135,8|0,0:0|0:0,0:0:0:0:
297,209,14364,2,0,L|336:308,1,90,2|0,3:2|1:0,0:0:0:0:
220,157,14843,2,0,L|253:72,1,90,10|0,0:0|1:0,0:0:0:0:
179,242,15322,5,2,3:2:0:0:
297,209,15562,1,0,1:0:0:0:
193,332,15801,2,0,P|145:330|102:298,1,90,10|0,0:0|1:0,0:0:0:0:
158,158,16280,2,0,P|180:200|174:253,1,90,2|8,3:2|3:0,0:0:0:0:
25,276,16759,2,0,P|50:235|99:214,1,90,10|0,0:0|1:0,0:0:0:0:
256,280,17238,6,0,B|289:288|322:280|322:280|355:271|388:280,1,135,2|0,3:2|0:0,0:0:0:0:
389,280,17716,1,8,0:0:0:0:
360,364,17956,1,2,1:2:0:0:
360,364,18076,1,2,0:0:0:0:
360,364,18195,1,2,3:2:0:0:
288,192,18435,1,0,1:0:0:0:
360,364,18674,2,0,P|408:368|452:344,1,90,10|0,0:0|1:0,0:0:0:0:
256,280,19153,5,2,3:2:0:0:
152,364,19392,2,0,P|104:368|60:344,1,90,2|8,1:2|0:0,0:0:0:0:
256,280,19871,1,2,1:2:0:0:
360,364,20111,2,0,L|384:272,1,90,2|8,3:2|3:0,0:0:0:0:
233,192,20589,2,0,L|255:279,1,90,10|0,0:0|1:0,0:0:0:0:
308,128,21068,6,0,P|228:136|176:76,1,135,2|0,3:2|0:0,0:0:0:0:
188,104,21547,1,8,0:0:0:0:
116,152,21787,1,2,1:2:0:0:
116,152,21906,1,2,0:0:0:0:
116,152,22026,2,0,L|64:140,2,45,2|8|8,3:2|0:0|1:2,0:0:0:0:
264,52,22505,1,10,0:0:0:0:
356,208,22744,1,8,1:2:0:0:
356,208,22864,1,8,0:0:0:0:
356,208,22984,5,6,3:2:0:0:
255,279,23223,2,0,L|135:251,1,90,2|8,1:2|0:0,0:0:0:0:
356,208,23702,1,2,1:2:0:0:
316,384,23941,1,2,3:2:0:0:
316,384,24181,1,10,3:0:0:0:
417,313,24420,2,0,L|537:341,1,90,8|2,0:0|1:2,0:0:0:0:
356,208,24899,6,0,L|386:76,1,135,2|0,3:2|0:0,0:0:0:0:
386,76,25378,2,0,L|296:92,1,90,10|0,0:0|1:0,0:0:0:0:
324,8,25857,1,2,3:2:0:0:
144,140,26096,2,0,L|234:156,1,90,2|8,1:2|0:0,0:0:0:0:
206,72,26575,1,0,1:0:0:0:
258,238,26815,5,2,3:2:0:0:
322,174,27054,2,0,P|367:173|410:199,1,90,2|8,1:2|0:0,0:0:0:0:
258,238,27533,1,2,1:2:0:0:
297,91,27772,1,2,3:2:0:0:
297,91,28012,1,10,3:0:0:0:
344,258,28251,1,10,0:0:0:0:
172,218,28491,6,0,L|148:304,1,90,2|0,1:2|3:0,0:0:0:0:
368,344,28969,2,0,L|344:258,1,90,2|10,1:2|0:0,0:0:0:0:
248,292,29448,1,0,1:0:0:0:
343,257,29688,1,2,3:2:0:0:
172,218,29927,1,2,1:2:0:0:
356,156,30166,2,0,L|332:70,1,90,8|0,0:0|1:0,0:0:0:0:
438,222,30645,5,2,3:2:0:0:
343,257,30885,2,0,L|367:343,1,90,2|8,1:2|0:0,0:0:0:0:
438,222,31364,1,2,1:2:0:0:
261,191,31603,2,0,P|240:236|244:292,1,90,2|8,3:2|3:0,0:0:0:0:
356,156,32082,2,0,P|304:100|240:92,1,135,10|0,0:0|0:0,0:0:0:0:
249,91,32561,6,0,B|197:96|162:73|162:73|128:96|76:91,1,180,2|8,3:2|0:0,0:0:0:0:
228,0,33279,1,2,1:2:0:0:
228,0,33399,1,2,0:0:0:0:
228,0,33518,1,2,3:2:0:0:
164,164,33758,1,0,1:0:0:0:
100,4,33997,2,0,P|52:4|12:24,1,90,10|0,0:0|1:0,0:0:0:0:
76,91,34476,5,2,3:2:0:0:
228,0,34716,2,0,L|272:0,2,45,0|2|10,1:0|0:0|0:0,0:0:0:0:
100,4,35194,1,2,1:2:0:0:
248,90,35434,2,0,P|292:88|340:64,1,90,2|8,3:2|3:0,0:0:0:0:
248,184,35913,2,0,P|315:180|375:152,1,135,10|0,0:0|0:0,0:0:0:0:
375,151,36392,6,0,P|400:187|451:206,1,90,2|0,3:2|1:0,0:0:0:0:
444,28,36870,2,0,L|468:144,1,90,8|0,0:0|1:0,0:0:0:0:
420,296,37349,1,0,3:0:0:0:
257,228,37589,2,0,L|247:182,1,45,8|8,1:2|0:0,0:0:0:0:
226,309,37828,2,0,L|190:338,1,45,0|8,3:0|0:0,0:0:0:0:
312,296,38068,2,0,L|353:309,1,45,8|8,1:2|0:0,0:0:0:0:
257,228,38307,6,0,P|269:167|295:146,1,90,2|0,3:2|1:0,0:0:0:0:
443,216,38786,2,0,P|385:233|352:220,1,90,8|0,0:0|1:0,0:0:0:0:
340,61,39265,2,0,P|384:101|390:134,1,90,0|8,3:0|3:0,0:0:0:0:
390,128,39624,1,0,1:0:0:0:
390,128,39744,1,8,0:0:0:0:
257,228,39983,1,0,1:0:0:0:
122,128,40222,6,0,P|136:86|172:60,1,90,2|0,3:2|1:0,0:0:0:0:
153,224,40701,2,0,P|109:233|69:216,1,90,8|0,0:0|1:0,0:0:0:0:
212,140,41180,1,4,3:0:0:0:
257,140,41300,1,4,3:0:0:0:
302,140,41419,1,12,3:0:0:0:
153,224,41659,1,8,0:0:0:0:
359,224,41898,1,10,3:0:0:0:
232,324,42138,6,0,L|108:312,1,107.999996704102,6|0,3:2|1:0,0:0:0:0:
44,304,42497,1,0,1:0:0:0:
44,304,42616,1,8,0:0:0:0:
153,224,42856,1,2,1:2:0:0:
88,132,43095,1,0,3:0:0:0:
88,132,43335,1,8,3:0:0:0:
252,176,43574,2,0,L|376:164,1,107.999996704102,8|0,0:0|1:0,0:0:0:0:
472,128,44053,6,0,P|472:200|432:248,1,107.999996704102,2|0,3:2|1:0,0:0:0:0:
389,55,44532,2,0,L|281:65,1,107.999996704102,10|0,0:0|1:0,0:0:0:0:
197,72,44891,1,0,1:0:0:0:
197,72,45011,2,0,L|208:179,1,107.999996704102,2|0,3:2|1:0,0:0:0:0:
81,278,45490,2,0,L|92:171,1,107.999996704102,10|0,0:0|1:0,0:0:0:0:
14,354,45969,6,0,P|73:375|134:358,1,107.999996704102,2|0,3:2|1:0,0:0:0:0:
208,179,46448,2,0,L|197:286,1,107.999996704102,8|0,0:0|1:0,0:0:0:0:
92,170,46927,2,0,L|81:63,1,107.999996704102,2|8,3:2|3:0,0:0:0:0:
150,13,47286,1,0,1:0:0:0:
150,13,47406,2,0,B|200:34|200:34|257:24,1,107.999996704102,10|0,0:0|1:0,0:0:0:0:
304,124,47885,6,0,L|410:104,1,107.999996704102,2|0,3:2|1:0,0:0:0:0:
208,179,48364,2,0,L|102:159,1,107.999996704102,10|0,0:0|1:0,0:0:0:0:
304,124,48842,1,2,3:2:0:0:
208,179,49082,1,2,1:2:0:0:
208,179,49202,1,0,1:0:0:0:
208,179,49321,1,8,0:0:0:0:
200,63,49561,1,2,1:2:0:0:
312,240,49800,5,0,3:0:0:0:
410,103,50040,1,2,1:2:0:0:
410,103,50279,1,10,0:0:0:0:
508,240,50519,1,0,1:0:0:0:
396,88,50758,2,0,P|340:80|288:104,1,107.999996704102,2|8,3:2|3:0,0:0:0:0:
212,140,51117,1,0,1:0:0:0:
212,140,51237,2,0,L|224:28,1,107.999996704102,10|2,0:0|1:2,0:0:0:0:
352,168,51716,5,0,3:0:0:0:
203,247,51956,1,2,1:2:0:0:
203,247,52195,1,10,0:0:0:0:
327,362,52434,1,0,1:0:0:0:
184,232,52674,2,0,L|172:339,1,107.999996704102,2|0,3:2|1:0,0:0:0:0:
92,332,53033,1,0,1:0:0:0:
92,332,53153,2,0,L|103:224,1,107.999996704102,10|0,0:0|1:0,0:0:0:0:
171,339,53632,5,0,3:0:0:0:
319,260,53871,1,2,1:2:0:0:
319,260,54111,1,10,0:0:0:0:
194,145,54350,1,0,1:0:0:0:
336,280,54590,2,0,L|456:268,1,107.999996704102,2|8,3:2|3:0,0:0:0:0:
505,219,54949,1,0,1:0:0:0:
505,219,55069,2,0,P|513:191|512:165,1,53.9999983520508,8|0,0:0|0:0,0:0:0:0:
437,121,55308,2,0,P|428:148|429:174,1,53.9999983520508,2|0,1:2|1:0,0:0:0:0:
342,186,55547,6,0,P|341:132|357:80,1,107.999996704102,2|0,3:2|1:0,0:0:0:0:
150,108,56026,2,0,P|202:124|256:123,1,107.999996704102,10|0,0:0|1:0,0:0:0:0:
178,315,56505,2,0,P|194:263|194:210,1,107.999996704102,2|0,3:2|1:0,0:0:0:0:
385,287,56984,2,0,P|333:271|280:272,1,107.999996704102,10|0,0:0|1:0,0:0:0:0:
72,300,57463,6,0,P|124:316|177:315,1,107.999996704102,2|0,3:2|1:0,0:0:0:0:
289,164,57942,2,0,L|279:271,1,107.999996704102,10|0,0:0|1:0,0:0:0:0:
495,192,58421,1,2,3:2:0:0:
443,207,58541,1,8,0:0:0:0:
389,206,58660,1,8,1:2:0:0:
278,56,58900,2,0,L|288:163,1,107.999996704102,10|8,0:0|1:2,0:0:0:0:
225,222,59259,1,8,0:0:0:0:
225,222,59379,6,0,P|165:227|121:207,1,107.999996704102,6|0,3:2|1:0,0:0:0:0:
75,141,59738,1,0,1:0:0:0:
75,141,59858,1,8,0:0:0:0:
91,286,60097,1,2,1:2:0:0:
188,142,60337,1,2,3:2:0:0:
188,142,60576,1,8,3:0:0:0:
321,252,60816,2,0,L|428:241,1,107.999996704102,8|0,0:0|1:0,0:0:0:0:
336,357,61295,6,0,L|228:346,1,107.999996704102,2|0,3:2|1:0,0:0:0:0:
295,152,61774,2,0,L|187:141,1,107.999996704102,10|0,0:0|1:0,0:0:0:0:
104,131,62133,1,0,1:0:0:0:
104,131,62252,2,0,L|93:24,1,107.999996704102,2|0,3:2|1:0,0:0:0:0:
140,210,62731,2,0,L|129:317,1,107.999996704102,10|0,0:0|1:0,0:0:0:0:
245,261,63210,6,0,P|297:254|347:274,1,107.999996704102,2|0,3:2|1:0,0:0:0:0:
444,171,63689,2,0,L|433:64,1,107.999996704102,8|0,0:0|1:0,0:0:0:0:
256,153,64168,2,0,L|245:260,1,107.999996704102,2|8,3:2|3:0,0:0:0:0:
162,252,64527,1,0,1:0:0:0:
162,252,64647,2,0,L|173:145,1,107.999996704102,10|0,0:0|1:0,0:0:0:0:
351,73,65126,6,0,L|362:180,1,107.999996704102,2|0,3:2|1:0,0:0:0:0:
245,261,65605,2,0,L|234:368,1,107.999996704102,10|0,0:0|1:0,0:0:0:0:
162,252,66084,1,2,3:2:0:0:
329,272,66323,1,2,1:2:0:0:
329,272,66443,1,0,1:0:0:0:
329,272,66563,1,8,0:0:0:0:
150,348,66802,1,2,1:2:0:0:
317,368,67042,5,0,3:0:0:0:
333,200,67281,1,2,1:2:0:0:
333,200,67521,1,10,0:0:0:0:
486,269,67760,1,0,1:0:0:0:
313,194,68000,2,0,P|260:215|227:261,1,107.999996704102,2|8,3:2|3:0,0:0:0:0:
149,243,68359,1,0,1:0:0:0:
149,243,68478,2,0,P|141:190|107:148,1,107.999996704102,10|2,0:0|1:2,0:0:0:0:
63,224,68957,5,0,3:0:0:0:
195,119,69197,1,2,1:2:0:0:
195,119,69436,1,10,0:0:0:0:
53,28,69676,1,0,1:0:0:0:
218,130,69915,2,0,L|211:22,1,107.999996704102,2|0,3:2|1:0,0:0:0:0:
287,4,70274,1,0,1:0:0:0:
287,4,70394,2,0,P|343:1|397:24,1,107.999996704102,10|0,0:0|1:0,0:0:0:0:
467,82,70873,5,0,3:0:0:0:
324,170,71113,1,2,1:2:0:0:
324,170,71352,1,10,0:0:0:0:
287,4,71592,1,0,1:0:0:0:
326,195,71831,2,0,L|315:317,1,107.999996704102,2|8,3:2|3:0,0:0:0:0:
268,364,72190,1,0,1:0:0:0:
268,364,72310,2,0,L|206:370,1,53.9999983520508,8|0,0:0|0:0,0:0:0:0:
221,290,72549,2,0,L|167:295,1,53.9999983520508,2|0,1:2|1:0,0:0:0:0:
186,209,72789,6,0,L|78:219,1,107.999996704102,2|0,3:2|1:0,0:0:0:0:
326,175,73268,2,0,L|433:164,1,107.999996704102,10|0,0:0|1:0,0:0:0:0:
239,122,73747,2,0,L|228:14,1,107.999996704102,2|0,3:2|1:0,0:0:0:0:
273,262,74226,2,0,L|283:369,1,107.999996704102,10|0,0:0|1:0,0:0:0:0:
186,209,74705,5,2,3:2:0:0:
326,175,74944,1,0,1:0:0:0:
239,122,75183,1,10,0:0:0:0:
273,262,75423,1,0,1:0:0:0:
233,101,75662,2,0,L|238:36,1,53.9999983520508,2|0,3:2|0:0,0:0:0:0:
310,87,75902,5,8,1:2:0:0:
343,91,76022,1,8,0:0:0:0:
376,91,76141,1,2,3:2:0:0:
409,85,76261,1,8,1:0:0:0:
442,79,76381,1,8,1:0:0:0:
476,81,76501,1,8,1:0:0:0:
509,87,76620,1,2,3:2:0:0:
456,264,77307,1,2,3:2:0:0:
256,192,77421,12,0,79826,0:0:0:0:
