osu file format v14

[General]
AudioFilename: audio.mp3
AudioLeadIn: 0
PreviewTime: 41659
Countdown: 0
SampleSet: Soft
StackLeniency: 0.5
Mode: 0
LetterboxInBreaks: 0
WidescreenStoryboard: 1

[Editor]
Bookmarks: 12,7661,22984,42138,59376,76620
DistanceSpacing: 0.9
BeatDivisor: 4
GridSize: 4
TimelineZoom: 1.6

[Metadata]
Title:Natsu no Mirage (TV Size)
TitleUnicode:夏のミラージュ (TV Size)
Artist:Wada Kanako
ArtistUnicode:和田加奈子
Creator:bossandy
Version:Silent's Hard
Source:きまぐれオレンジ☆ロード
Tags:Kimagure Orange★Road Orange*Road Anime Japanese J-pop Jpop pop ending ed1 Summer Mirage 夏の蜃気楼 まつもと泉 Matsumoto Izumi 春日恭介 Kasuga kyosuke 鮎川まどか Ayukawa Madoka 檜山ひかる Hiyama Hikaru Silent Rock Silent_Rock
BeatmapID:3210656
BeatmapSetID:1558774

[Difficulty]
HPDrainRate:4.5
CircleSize:3.8
OverallDifficulty:5.5
ApproachRate:7.5
SliderMultiplier:1.5
SliderTickRate:1

[Events]
//Background and Video events
0,0,"BG.jpg",0,0
Video,0,"video.mp4"
//Break Periods
//Storyboard Layer 0 (Background)
//Storyboard Layer 1 (Fail)
//Storyboard Layer 2 (Pass)
//Storyboard Layer 3 (Foreground)
//Storyboard Layer 4 (Overlay)
//Storyboard Sound Samples

[TimingPoints]
12,478.08764940239,4,2,1,70,1,0
7661,478.850758180367,4,2,1,70,1,0
34955,-100,4,2,2,70,0,0
35194,-100,4,2,1,70,0,0
36870,-100,4,2,2,70,0,0
37110,-100,4,2,1,70,0,0
42138,478.927203065134,4,2,1,90,1,1
42138,-86.9565217391304,4,2,1,90,0,1
44412,-86.9565217391304,4,2,1,5,0,1
44532,-86.9565217391304,4,2,1,90,0,1
57463,-71.4285714285714,4,2,1,90,0,1
59379,478.927203065134,4,2,1,90,1,1
59379,-86.9565217391304,4,2,1,90,0,1
61654,-86.9565217391304,4,2,1,5,0,1
61774,-86.9565217391304,4,2,1,90,0,1
74705,-71.4285714285714,4,2,1,90,0,1
74824,-71.4285714285714,4,2,1,5,0,1
75183,-71.4285714285714,4,2,1,90,0,1
76620,458.015267175573,4,2,1,70,1,0
76620,-111.111111111111,4,2,1,70,0,0
77078,-111.111111111111,4,2,1,5,0,0
77307,-111.111111111111,4,2,1,70,0,0
77421,-100,4,2,1,35,0,0
77536,-100,4,2,1,30,0,0
77994,-100,4,2,1,25,0,0
78452,-100,4,2,1,20,0,0
78910,-100,4,2,1,15,0,0
79368,-100,4,2,1,10,0,0
79826,-100,4,2,1,5,0,0

[Colours]
Combo1 : 80,149,109
Combo2 : 112,126,201
Combo3 : 249,153,162
Combo4 : 222,186,169

[HitObjects]
50,307,12,6,0,L|198:325,1,150,6|8,3:2|0:0,0:0:0:0:
287,338,729,1,2,1:2:0:0:
252,254,968,2,0,P|268:220|275:183,1,75,0|8,3:0|3:0,0:0:0:0:
240,99,1446,1,8,0:0:0:0:
476,114,1924,6,0,B|456:95|426:98|426:98|330:110,1,150,2|10,3:2|0:0,0:0:0:0:
129,180,2880,2,0,B|148:198|178:195|178:195|274:183,1,150,2|10,3:2|0:0,0:0:0:0:
71,114,3836,6,0,P|49:143|42:179,1,75,2|8,3:2|1:0,0:0:0:0:
45,190,4195,1,8,1:0:0:0:
48,200,4314,1,8,0:0:0:0:
104,270,4553,1,8,1:0:0:0:
101,280,4673,1,8,1:0:0:0:
98,290,4792,2,0,L|10:279,2,75,2|10|10,3:2|1:0|0:0,0:0:0:0:
286,384,5749,6,0,L|373:373,1,75,0|8,3:0|1:0,0:0:0:0:
371,374,6107,1,8,1:0:0:0:
381,373,6227,1,8,0:0:0:0:
435,302,6466,1,8,1:0:0:0:
434,292,6586,1,8,1:0:0:0:
433,282,6705,2,0,L|428:244,3,37.5,2|8|8|8,3:2|0:0|0:0|0:0,0:0:0:0:
423,206,7183,2,0,L|418:168,3,37.5,10|10|8|8,1:0|0:0|0:0|0:0,0:0:0:0:
413,130,7661,5,6,3:2:0:0:
417,134,7900,2,0,P|348:156|288:114,1,150,2|2,1:2|1:2,0:0:0:0:
211,85,8618,1,2,3:2:0:0:
215,89,8858,2,0,P|235:58|240:21,1,75,10|8,3:0|0:0,0:0:0:0:
158,29,9336,1,2,1:2:0:0:
135,108,9576,2,0,P|150:181|162:255,1,150,2|8,3:2|0:0,0:0:0:0:
350,310,10534,2,0,P|342:346|336:383,2,75,0|2|8,3:0|1:2|0:0,0:0:0:0:
304,120,11491,5,2,3:2:0:0:
300,124,11731,2,0,B|318:156|358:151|358:151|438:141,1,150,2|2,1:2|1:2,0:0:0:0:
501,86,12449,2,0,P|485:159|473:233,1,150,2|10,3:2|0:0,0:0:0:0:
459,314,13167,2,0,P|426:294|390:284,1,75,2|0,1:2|3:0,0:0:0:0:
312,310,13646,1,2,1:2:0:0:
233,335,13886,2,0,P|197:325|165:306,1,75,8|0,0:0|1:0,0:0:0:0:
104,250,14364,2,0,L|114:165,2,75,2|0|10,3:2|1:0|0:0,0:0:0:0:
76,40,15322,6,0,P|148:57|213:23,1,150,2|10,3:2|0:0,0:0:0:0:
435,41,16280,2,0,P|364:58|299:24,1,150,2|10,3:2|0:0,0:0:0:0:
256,246,17238,2,0,L|256:96,1,150,2|8,3:2|0:0,0:0:0:0:
213,24,17956,1,2,1:2:0:0:
202,27,18076,1,2,0:0:0:0:
190,30,18195,2,0,P|159:49|136:79,1,75,2|0,3:2|1:0,0:0:0:0:
75,135,18674,2,0,P|106:154|129:184,1,75,10|0,0:0|1:0,0:0:0:0:
164,259,19153,5,2,3:2:0:0:
168,263,19392,2,0,P|108:298|130:364,1,150,2|2,1:2|1:2,0:0:0:0:
210,384,20111,2,0,P|246:378|278:357,1,75,2|8,3:2|3:0,0:0:0:0:
334,297,20589,2,0,P|370:302|402:323,1,75,10|0,0:0|1:0,0:0:0:0:
453,384,21068,6,0,P|457:309|478:237,1,150,2|8,3:2|0:0,0:0:0:0:
424,173,21787,1,2,1:2:0:0:
413,175,21906,1,2,0:0:0:0:
402,177,22026,2,0,L|364:181,2,37.5,2|8|8,3:2|0:0|1:2,0:0:0:0:
422,96,22505,1,10,0:0:0:0:
442,15,22744,2,0,L|479:19,1,37.5,8|8,1:2|0:0,0:0:0:0:
502,48,22984,5,6,3:2:0:0:
506,52,23223,2,0,L|352:33,1,150,2|2,1:2|1:2,0:0:0:0:
293,86,23941,1,2,3:2:0:0:
297,90,24181,2,0,P|273:61|239:45,1,75,10|8,3:0|0:0,0:0:0:0:
165,82,24660,1,2,1:2:0:0:
201,156,24899,2,0,P|185:190|157:214,1,75,2|0,3:2|1:0,0:0:0:0:
193,288,25378,2,0,P|131:247|57:250,1,150,10|2,0:0|3:2,0:0:0:0:
21,176,26096,1,2,1:2:0:0:
79,117,26336,2,0,L|69:43,1,75,8|0,0:0|1:0,0:0:0:0:
150,58,26815,5,2,3:2:0:0:
153,62,27054,2,0,P|224:38|299:29,1,150,2|2,1:2|1:2,0:0:0:0:
360,82,27772,2,0,P|394:96|431:101,2,75,2|10|10,3:2|3:0|0:0,0:0:0:0:
284,110,28491,2,0,L|293:185,1,75,2|0,1:2|3:0,0:0:0:0:
368,217,28969,2,0,L|359:292,1,75,2|10,1:2|0:0,0:0:0:0:
284,324,29448,1,0,1:0:0:0:
230,263,29688,1,2,3:2:0:0:
234,259,29927,2,0,P|196:263|162:278,1,75,2|8,1:2|0:0,0:0:0:0:
99,329,30406,1,0,1:0:0:0:
31,286,30645,5,2,3:2:0:0:
27,289,30885,2,0,P|48:220|12:157,1,150,2|2,1:2|1:2,0:0:0:0:
54,86,31603,2,0,P|90:93|126:85,1,75,2|8,3:2|3:0,0:0:0:0:
168,157,32082,2,0,P|143:184|131:220,1,75,10|0,0:0|1:0,0:0:0:0:
142,302,32561,2,0,P|216:293|291:292,1,150,2|8,3:2|0:0,0:0:0:0:
352,347,33279,1,2,1:2:0:0:
356,351,33518,2,0,P|393:355|430:355,1,75,2|0,3:2|1:0,0:0:0:0:
489,297,33997,2,0,P|493:260|493:223,1,75,10|0,0:0|1:0,0:0:0:0:
434,164,34476,6,0,P|337:171|350:74,1,225,2|2,3:2|1:2,0:0:0:0:
306,4,35434,2,0,P|272:18|235:11,1,75,2|8,3:2|3:0,0:0:0:0:
196,84,35913,2,0,P|225:106|237:141,1,75,10|0,0:0|1:0,0:0:0:0:
219,221,36392,2,0,B|196:256|150:250|150:250|76:241|76:241|20:234|14:289|14:289|32:264|58:257,1,300,2|0,3:2|3:0,0:0:0:0:
85,334,37589,2,0,L|122:338,1,37.5,8|8,1:2|0:0,0:0:0:0:
159,342,37828,2,0,L|196:346,3,37.5,0|8|8|8,3:0|0:0|1:2|0:0,0:0:0:0:
234,350,38307,6,0,P|257:318|293:301,1,75,2|0,3:2|1:0,0:0:0:0:
282,212,38786,2,0,P|321:217|354:239,1,75,8|0,0:0|1:0,0:0:0:0:
425,184,39265,2,0,P|440:220|437:259,2,75,0|8|8,3:0|3:0|0:0,0:0:0:0:
205,133,40222,6,0,P|244:128|277:106,1,75,2|0,3:2|1:0,0:0:0:0:
241,24,40701,2,0,P|202:29|169:51,1,75,8|0,0:0|1:0,0:0:0:0:
115,118,41180,2,0,L|60:111,2,37.5,4|4|12,3:0|3:0|3:0,0:0:0:0:
205,133,41659,1,8,0:0:0:0:
148,203,41898,5,10,3:0:0:0:
152,206,42138,2,0,P|126:285|177:351,1,172.500003290176,6|8,3:2|0:0,0:0:0:0:
268,301,42856,1,2,1:2:0:0:
343,372,43095,1,0,3:0:0:0:
339,376,43335,1,8,3:0:0:0:
264,305,43574,2,0,L|274:219,1,86.2500016450882,8|0,0:0|1:0,0:0:0:0:
292,117,44053,6,0,B|309:143|345:138|345:138|413:130,1,129.375002467632,2|0,3:2|1:0,0:0:0:0:
426,129,44532,2,0,L|415:217,1,86.2500016450882,10|0,0:0|1:0,0:0:0:0:
486,290,45011,2,0,P|443:293|403:311,1,86.2500016450882,2|0,3:2|1:0,0:0:0:0:
320,372,45490,2,0,P|277:368|237:350,1,86.2500016450882,10|0,0:0|1:0,0:0:0:0:
134,345,45969,2,0,B|162:324|157:284|157:284|145:181,1,172.500003290176,2|8,3:2|0:0,0:0:0:0:
128,78,46687,1,0,1:0:0:0:
224,115,46927,6,0,P|267:111|307:93,1,86.2500016450882,2|8,3:2|3:0,0:0:0:0:
383,25,47406,2,0,P|426:29|466:47,1,86.2500016450882,10|0,0:0|1:0,0:0:0:0:
512,138,47885,2,0,L|501:223,1,86.2500016450882,2|0,3:2|1:0,0:0:0:0:
400,201,48364,2,0,L|410:286,1,86.2500016450882,10|0,0:0|1:0,0:0:0:0:
477,365,48842,1,2,3:2:0:0:
481,369,49082,2,0,B|410:347|390:402|312:377,1,172.500003290176,2|2,1:2|1:2,0:0:0:0:
222,325,49800,5,0,3:0:0:0:
126,365,50040,1,2,1:2:0:0:
122,369,50279,2,0,L|134:270,1,86.2500016450882,10|0,0:0|1:0,0:0:0:0:
106,383,50758,2,0,L|118:284,1,86.2500016450882,2|8,3:2|3:0,0:0:0:0:
190,224,51237,6,0,P|161:192|149:151,1,86.2500016450882,10|2,0:0|1:2,0:0:0:0:
57,102,51716,1,0,3:0:0:0:
145,48,51956,1,2,1:2:0:0:
149,52,52195,2,0,L|234:62,1,86.2500016450882,10|0,0:0|1:0,0:0:0:0:
134,36,52674,2,0,L|219:46,1,86.2500016450882,2|0,3:2|1:0,0:0:0:0:
318,19,53153,6,0,P|333:98|413:106,1,172.500003290176,10|0,0:0|3:0,0:0:0:0:
502,53,53871,1,2,1:2:0:0:
498,49,54111,2,0,L|510:150,1,86.2500016450882,10|0,0:0|1:0,0:0:0:0:
482,34,54590,2,0,L|494:135,1,86.2500016450882,2|8,3:2|3:0,0:0:0:0:
424,198,55069,1,8,0:0:0:0:
479,288,55308,5,2,1:2:0:0:
420,194,55547,2,0,P|377:198|337:214,1,86.2500016450882,2|0,3:2|1:0,0:0:0:0:
235,121,56026,2,0,P|239:163|255:203,1,86.2500016450882,10|0,0:0|1:0,0:0:0:0:
162,306,56505,2,0,P|204:301|244:285,1,86.2500016450882,2|0,3:2|1:0,0:0:0:0:
347,379,56984,2,0,P|342:336|326:296,1,86.2500016450882,10|0,0:0|1:0,0:0:0:0:
420,194,57463,6,0,B|421:220|415:245|415:245|434:227|457:215,1,104.999996795654,2|0,3:2|1:0,0:0:0:0:
327,92,57942,2,0,B|325:118|331:143|331:143|312:125|287:112,1,104.999996795654,10|0,0:0|1:0,0:0:0:0:
226,196,58421,2,0,L|173:202,2,52.4999983978272,2|8|8,3:2|0:0|1:2,0:0:0:0:
288,280,58900,1,10,0:0:0:0:
350,364,59139,1,8,1:2:0:0:
360,362,59258,1,8,0:0:0:0:
371,361,59379,6,0,P|394:278|438:204,1,172.500003290176,6|8,3:2|0:0,0:0:0:0:
375,120,60097,1,2,1:2:0:0:
459,58,60337,1,2,3:2:0:0:
463,62,60576,1,8,3:0:0:0:
379,124,60816,2,0,L|285:112,1,86.2500016450882,8|0,0:0|1:0,0:0:0:0:
190,97,61295,6,0,B|222:117|217:161|217:161|210:216,1,129.375002467632,2|0,3:2|1:0,0:0:0:0:
208,229,61774,2,0,L|197:314,1,86.2500016450882,10|0,0:0|1:0,0:0:0:0:
119,383,62252,2,0,P|98:345|63:320,1,86.2500016450882,2|0,3:2|1:0,0:0:0:0:
0,238,62731,2,0,P|20:200|55:175,1,86.2500016450882,10|0,0:0|1:0,0:0:0:0:
63,72,63210,2,0,B|79:101|115:105|115:105|222:118,1,172.500003290176,2|8,3:2|0:0,0:0:0:0:
319,80,63929,1,0,1:0:0:0:
385,160,64168,6,0,P|349:184|329:222,1,86.2500016450882,2|8,3:2|3:0,0:0:0:0:
238,272,64647,2,0,P|273:296|293:334,1,86.2500016450882,10|0,0:0|1:0,0:0:0:0:
385,383,65126,2,0,L|480:371,1,86.2500016450882,2|0,3:2|1:0,0:0:0:0:
499,272,65605,2,0,L|403:283,1,86.2500016450882,10|0,0:0|1:0,0:0:0:0:
329,222,66084,1,2,3:2:0:0:
325,225,66323,2,0,P|285:160|355:130,1,172.500003290176,2|2,1:2|1:2,0:0:0:0:
456,103,67042,5,0,3:0:0:0:
381,31,67281,1,2,1:2:0:0:
377,35,67521,2,0,L|290:24,1,86.2500016450882,10|0,0:0|1:0,0:0:0:0:
395,22,68000,2,0,L|308:11,1,86.2500016450882,2|8,3:2|3:0,0:0:0:0:
224,69,68478,6,0,P|246:105|256:147,1,86.2500016450882,10|2,0:0|1:2,0:0:0:0:
325,225,68957,1,0,3:0:0:0:
247,293,69197,1,2,1:2:0:0:
251,297,69436,2,0,L|165:286,1,86.2500016450882,10|0,0:0|1:0,0:0:0:0:
265,313,69915,2,0,L|179:302,1,86.2500016450882,2|0,3:2|1:0,0:0:0:0:
79,328,70394,6,0,B|103:239|37:251|60:161,1,172.500003290176,10|0,0:0|3:0,0:0:0:0:
43,59,71113,1,2,1:2:0:0:
39,55,71352,2,0,L|124:65,1,86.2500016450882,10|0,0:0|1:0,0:0:0:0:
24,38,71831,2,0,L|109:48,1,86.2500016450882,2|8,3:2|3:0,0:0:0:0:
191,125,72310,1,8,0:0:0:0:
268,44,72549,5,2,1:2:0:0:
187,128,72789,2,0,P|191:171|205:212,1,86.2500016450882,2|0,3:2|1:0,0:0:0:0:
125,315,73268,2,0,P|167:310|208:296,1,86.2500016450882,10|0,0:0|1:0,0:0:0:0:
311,377,73747,2,0,P|306:334|292:293,1,86.2500016450882,2|0,3:2|1:0,0:0:0:0:
373,191,74226,2,0,P|330:195|289:209,1,86.2500016450882,10|0,0:0|1:0,0:0:0:0:
187,128,74705,6,0,L|193:71,1,52.4999983978272,2|0,3:2|0:0,0:0:0:0:
193,76,75183,2,0,P|239:100|291:103,1,104.999996795654,10|0,0:0|1:0,0:0:0:0:
387,45,75662,1,2,3:2:0:0:
444,141,75902,1,8,1:2:0:0:
442,151,76021,1,8,0:0:0:0:
441,162,76141,2,0,L|434:213,3,52.4999983978272,2|8|8|8,3:2|1:0|1:0|1:0,0:0:0:0:
428,246,76620,6,0,P|337:245|335:336,1,202.499993820191,2|2,3:2|3:2,0:0:0:0:
256,192,77421,12,0,79826,0:0:0:0:
