osu file format v14

[General]
AudioFilename: audio.mp3
AudioLeadIn: 0
PreviewTime: 41659
Countdown: 0
SampleSet: Soft
StackLeniency: 0.7
Mode: 0
LetterboxInBreaks: 0
WidescreenStoryboard: 1

[Editor]
Bookmarks: 12,7661,22984,42138,59376,76620
DistanceSpacing: 0.9
BeatDivisor: 4
GridSize: 4
TimelineZoom: 1.6

[Metadata]
Title:Natsu no Mirage (TV Size)
TitleUnicode:夏のミラージュ (TV Size)
Artist:Wada Kanako
ArtistUnicode:和田加奈子
Creator:bossandy
Version:Normal
Source:きまぐれオレンジ☆ロード
Tags:Kimagure Orange★Road Orange*Road Anime Japanese J-pop Jpop pop ending ed1 Summer Mirage 夏の蜃気楼 まつもと泉 Matsumoto Izumi 春日恭介 Kasuga kyosuke 鮎川まどか Ayukawa Madoka 檜山ひかる Hiyama Hikaru Silent Rock Silent_Rock
BeatmapID:3387054
BeatmapSetID:1558774

[Difficulty]
HPDrainRate:3.8
CircleSize:3.6
OverallDifficulty:4
ApproachRate:5.5
SliderMultiplier:1.2
SliderTickRate:1

[Events]
//Background and Video events
0,0,"BG.jpg",0,0
Video,0,"video.mp4"
//Break Periods
//Storyboard Layer 0 (Background)
//Storyboard Layer 1 (Fail)
//Storyboard Layer 2 (Pass)
//Storyboard Layer 3 (Foreground)
//Storyboard Layer 4 (Overlay)
//Storyboard Sound Samples

[TimingPoints]
12,478.08764940239,4,2,1,70,1,0
7661,478.850758180367,4,2,1,70,1,0
36870,-100,4,2,2,70,0,0
37110,-100,4,2,1,70,0,0
42138,478.927203065134,4,2,1,90,1,1
59379,478.927203065134,4,2,1,90,1,1
76620,458.015267175573,4,2,1,70,1,0
77421,-100,4,2,1,35,0,0
77536,-100,4,2,1,30,0,0
77994,-100,4,2,1,25,0,0
78452,-100,4,2,1,20,0,0
78910,-100,4,2,1,15,0,0
79368,-100,4,2,1,10,0,0
79826,-100,4,2,1,5,0,0

[Colours]
Combo1 : 80,149,109
Combo2 : 112,126,201
Combo3 : 249,153,162
Combo4 : 222,186,169

[HitObjects]
336,136,12,6,0,L|351:264,1,120,6|8,3:2|0:0,0:0:0:0:
260,311,968,2,0,L|253:370,2,60,0|8|8,3:0|3:0|0:0,0:0:0:0:
216,284,1685,1,0,1:0:0:0:
216,284,1924,2,0,P|166:315|107:311,1,120,2|10,3:2|0:0,0:0:0:0:
24,244,2880,2,0,P|89:208|148:212,1,120,2|10,3:2|0:0,0:0:0:0:
216,284,3836,5,2,3:2:0:0:
316,248,4314,1,8,0:0:0:0:
396,320,4792,2,0,L|460:332,2,60,2|10|10,3:2|1:0|0:0,0:0:0:0:
296,364,5749,1,0,3:0:0:0:
216,284,6227,1,8,0:0:0:0:
120,336,6705,2,0,L|56:324,1,60,2|8,3:2|0:0,0:0:0:0:
28,280,7183,2,0,L|40:216,1,60,10|8,1:0|0:0,0:0:0:0:
88,200,7661,5,6,3:2:0:0:
88,200,7900,2,0,B|112:156|112:156|100:72,1,120,2|2,1:2|1:2,0:0:0:0:
128,40,8618,2,0,P|160:28|200:32,1,60,2|10,3:2|3:0,0:0:0:0:
232,60,9097,1,8,0:0:0:0:
296,148,9576,2,0,L|280:280,1,120,2|8,3:2|0:0,0:0:0:0:
388,252,10534,2,0,L|395:192,2,60,0|2|8,3:0|1:2|0:0,0:0:0:0:
488,292,11491,5,2,3:2:0:0:
488,292,11731,2,0,L|502:172,1,120,2|2,1:2|1:2,0:0:0:0:
476,124,12449,1,2,3:2:0:0:
476,124,12688,2,0,L|484:64,1,60,10|10,3:0|0:0,0:0:0:0:
444,28,13167,2,0,P|376:64|324:52,1,120,2|2,1:2|1:2,0:0:0:0:
288,32,13886,1,8,0:0:0:0:
188,76,14364,2,0,P|124:44|69:50,1,120,2|10,3:2|0:0,0:0:0:0:
108,151,15322,5,2,3:2:0:0:
32,227,15801,1,10,0:0:0:0:
88,320,16280,2,0,L|76:392,2,60,2|8|10,3:2|3:0|0:0,0:0:0:0:
168,248,17238,2,0,P|224:236|280:264,1,120,2|8,3:2|0:0,0:0:0:0:
304,308,17956,1,2,1:2:0:0:
304,308,18195,1,2,3:2:0:0:
404,352,18674,1,10,0:0:0:0:
496,300,19153,5,2,3:2:0:0:
496,300,19392,2,0,B|508:260|496:228|496:228|504:200|500:180,1,120,2|2,1:2|1:2,0:0:0:0:
468,136,20111,2,0,P|464:104|472:68,2,60,2|8|10,3:2|3:0|0:0,0:0:0:0:
380,200,21068,2,0,B|336:196|336:196|304:200|304:200|252:196,1,120,2|8,3:2|0:0,0:0:0:0:
228,240,21787,1,2,1:2:0:0:
228,240,22026,2,0,L|164:236,1,60,2|8,3:2|1:2,0:0:0:0:
132,276,22505,1,10,0:0:0:0:
208,352,22984,5,6,3:2:0:0:
208,352,23223,2,0,B|332:348,1,120,2|2,1:2|1:2,0:0:0:0:
384,348,23941,2,0,L|380:288,1,60,2|10,3:2|3:0,0:0:0:0:
376,236,24420,1,8,0:0:0:0:
452,156,24899,2,0,P|400:128|320:140,1,120,2|10,3:2|0:0,0:0:0:0:
272,212,25857,1,2,3:2:0:0:
272,212,26096,2,0,P|220:240|140:228,1,120,2|0,1:2|1:0,0:0:0:0:
120,200,26815,5,2,3:2:0:0:
120,200,27054,1,2,1:2:0:0:
88,96,27533,1,2,1:2:0:0:
88,96,27772,2,0,L|92:32,2,60,2|10|10,3:2|3:0|0:0,0:0:0:0:
140,116,28491,2,0,B|176:128|212:120|212:120|268:108,1,120,2|2,1:2|1:2,0:0:0:0:
312,96,29209,1,10,0:0:0:0:
400,156,29688,1,2,3:2:0:0:
400,156,29927,2,0,L|394:276,1,120,2|0,1:2|1:0,0:0:0:0:
392,328,30645,5,2,3:2:0:0:
392,328,30885,1,2,1:2:0:0:
300,268,31364,1,2,1:2:0:0:
300,268,31603,2,0,L|304:204,1,60,2|8,3:2|3:0,0:0:0:0:
308,156,32082,1,10,0:0:0:0:
276,52,32561,2,0,B|246:47|216:52|216:52|187:56|157:52,1,120,2|8,3:2|0:0,0:0:0:0:
104,36,33279,1,2,1:2:0:0:
104,36,33518,1,2,3:2:0:0:
48,132,33997,1,10,0:0:0:0:
148,176,34476,5,2,3:2:0:0:
148,176,34716,2,0,L|136:308,1,120,0|2,1:0|1:2,0:0:0:0:
184,324,35434,2,0,P|240:332|320:300,1,120,2|10,3:2|0:0,0:0:0:0:
400,356,36392,2,0,B|421:312|400:269|400:269|378:226|400:183,1,180,2|0,3:2|1:0,0:0:0:0:
440,148,37349,2,0,P|444:120|440:88,1,60,0|8,3:0|1:2,0:0:0:0:
416,40,37828,2,0,P|393:22|364:10,1,60,0|8,3:0|1:2,0:0:0:0:
312,16,38307,5,2,3:2:0:0:
256,108,38786,1,8,0:0:0:0:
200,16,39265,2,0,L|140:16,2,60,0|8|8,3:0|3:0|0:0,0:0:0:0:
256,108,40222,1,2,3:2:0:0:
204,204,40701,1,8,0:0:0:0:
256,300,41180,2,0,L|328:300,1,60,4|12,3:0|3:0,0:0:0:0:
364,320,41659,2,0,L|424:320,1,60,8|10,0:0|3:0,0:0:0:0:
476,340,42138,6,0,P|508:284|496:220,1,120,6|8,3:2|0:0,0:0:0:0:
480,184,42856,1,2,1:2:0:0:
480,184,43095,1,0,3:0:0:0:
376,208,43574,2,0,P|344:208|316:200,1,60,8|0,0:0|1:0,0:0:0:0:
276,168,44053,1,2,3:2:0:0:
192,236,44532,2,0,L|204:304,2,60,10|0|2,0:0|1:0|3:2,0:0:0:0:
116,160,45490,2,0,L|126:100,1,60,10|0,0:0|1:0,0:0:0:0:
136,48,45969,6,0,P|192:16|256:28,1,120,2|8,3:2|0:0,0:0:0:0:
276,68,46687,1,0,1:0:0:0:
276,68,46927,2,0,L|340:60,2,60,2|8|10,3:2|3:0|0:0,0:0:0:0:
244,112,47645,1,0,1:0:0:0:
244,112,47885,1,2,3:2:0:0:
264,220,48364,2,0,L|256:292,1,60,10|0,0:0|1:0,0:0:0:0:
214,312,48842,1,2,3:2:0:0:
214,312,49082,2,0,P|158:312|102:280,1,120,2|2,1:2|1:2,0:0:0:0:
68,240,49800,6,0,L|8:244,2,60,0|2|10,3:0|1:2|0:0,0:0:0:0:
156,176,50758,1,2,3:2:0:0:
240,108,51237,2,0,L|300:112,1,60,10|2,0:0|1:2,0:0:0:0:
340,76,51716,2,0,L|332:8,2,60,0|2|10,3:0|1:2|0:0,0:0:0:0:
400,168,52674,1,2,3:2:0:0:
456,260,53153,2,0,L|448:319,1,60,10|0,0:0|1:0,0:0:0:0:
404,352,53632,6,0,L|336:344,1,60,0|2,3:0|1:2,0:0:0:0:
292,336,54111,1,10,0:0:0:0:
184,324,54590,2,0,L|176:384,2,60,2|8|8,3:2|3:0|0:0,0:0:0:0:
164,272,55308,1,2,1:2:0:0:
164,272,55547,6,0,B|144:216|144:216|136:188|144:156,1,120,2|10,3:2|0:0,0:0:0:0:
248,184,56505,2,0,P|304:196|368:168,1,120,2|10,3:2|0:0,0:0:0:0:
404,140,57224,1,0,1:0:0:0:
404,140,57463,2,0,B|396:260,1,120,2|10,3:2|0:0,0:0:0:0:
432,300,58182,1,0,1:0:0:0:
432,300,58421,2,0,L|504:300,2,60,2|8|10,3:2|1:2|0:0,0:0:0:0:
348,368,59379,6,0,P|292:372|236:332,1,120,6|8,3:2|0:0,0:0:0:0:
228,284,60097,1,2,1:2:0:0:
228,284,60336,1,2,3:2:0:0:
316,224,60815,2,0,P|316:192|308:164,1,60,8|0,0:0|1:0,0:0:0:0:
268,128,61294,1,2,3:2:0:0:
344,52,61773,2,0,L|412:64,2,60,10|0|2,0:0|1:0|3:2,0:0:0:0:
248,4,62731,2,0,L|180:16,1,60,10|0,0:0|1:0,0:0:0:0:
136,20,63210,6,0,P|64:20|16:64,1,120,2|8,3:2|0:0,0:0:0:0:
68,148,64168,2,0,L|60:208,2,60,2|8|10,3:2|3:0|0:0,0:0:0:0:
104,108,64886,1,0,1:0:0:0:
104,108,65126,1,2,3:2:0:0:
180,188,65605,2,0,P|216:184|240:168,1,60,10|0,0:0|1:0,0:0:0:0:
268,128,66083,1,2,3:2:0:0:
268,128,66323,2,0,B|316:136|316:136|336:132|336:132|392:144,1,120,2|2,1:2|1:2,0:0:0:0:
436,156,67041,6,0,B|468:160|468:160|504:156,2,60,0|2|10,3:0|1:2|0:0,0:0:0:0:
364,236,67999,1,2,3:2:0:0:
284,308,68478,2,0,B|252:312|252:312|224:308,1,60,10|2,0:0|1:2,0:0:0:0:
172,304,68957,2,0,L|180:372,2,60,0|2|10,3:0|1:2|0:0,0:0:0:0:
108,220,69915,1,2,3:2:0:0:
40,136,70394,2,0,L|48:77,1,60,10|0,0:0|1:0,0:0:0:0:
80,32,70873,6,0,P|108:40|148:40,1,60,0|2,3:0|1:2,0:0:0:0:
192,32,71352,1,10,0:0:0:0:
256,116,71831,2,0,L|248:176,2,60,2|8|8,3:2|3:0|0:0,0:0:0:0:
304,88,72549,1,2,1:2:0:0:
304,88,72788,6,0,P|364:80|424:128,1,120,2|10,3:2|0:0,0:0:0:0:
340,192,73746,2,0,L|324:310,1,120,2|10,3:2|0:0,0:0:0:0:
280,344,74465,1,0,1:0:0:0:
280,344,74704,2,0,P|220:352|160:304,1,120,2|10,3:2|0:0,0:0:0:0:
148,272,75423,1,0,1:0:0:0:
148,272,75662,2,0,L|160:196,1,60,2|8,3:2|1:2,0:0:0:0:
124,172,76141,2,0,L|136:96,1,60,2|8,3:2|1:0,0:0:0:0:
112,60,76620,5,2,3:2:0:0:
256,136,77307,1,2,3:2:0:0:
256,192,77421,12,0,79826,0:0:0:0:
