osu file format v14

[General]
AudioFilename: audio.mp3
AudioLeadIn: 0
PreviewTime: -1
Countdown: 0
SampleSet: Normal
StackLeniency: 0.7
Mode: 0
LetterboxInBreaks: 0
CountdownOffset: 2
WidescreenStoryboard: 1

[Editor]
DistanceSpacing: 1
BeatDivisor: 4
GridSize: 8
TimelineZoom: 2.2

[Metadata]
Title:Eyecatch! Too Much!
TitleUnicode:Eyecatch! Too Much!
Artist:WWW.Working!
ArtistUnicode:WWW.Working!
Creator:thegogeta999
Version:Extra
Source:WWW.Working!
Tags:WWW.Working!, Web Working!, Working!, Japanese, J-Pop
BeatmapID:1127277
BeatmapSetID:529741

[Difficulty]
HPDrainRate:6
CircleSize:4
OverallDifficulty:9
ApproachRate:9
SliderMultiplier:2
SliderTickRate:1

[Events]
//Background and Video events
0,0,"vwqve94.png",0,0
//Break Periods
//Storyboard Layer 0 (Background)
//Storyboard Layer 1 (Fail)
//Storyboard Layer 2 (Pass)
//Storyboard Layer 3 (Foreground)
//Storyboard Sound Samples

[TimingPoints]
125,499.972240802676,4,1,0,100,1,0
6124,-66.6666666666667,4,1,0,100,0,0
8124,-100,4,1,0,100,0,0

[HitObjects]
128,128,125,5,0,0:0:0:0:
400,48,1124,1,0,0:0:0:0:
352,312,2124,1,0,0:0:0:0:
352,312,2374,1,0,0:0:0:0:
352,184,2624,1,0,0:0:0:0:
240,232,2874,1,0,0:0:0:0:
64,32,3124,2,0,L|64:160,1,100
96,208,3624,2,0,P|144:240|200:224,1,100
216,240,4124,6,0,L|312:240,1,50
272,240,4374,1,0,0:0:0:0:
272,240,4499,1,0,0:0:0:0:
312,296,4749,2,0,L|176:296,1,100
184,208,5124,1,0,0:0:0:0:
416,152,5374,2,0,P|456:96|424:32,2,100
128,160,6124,6,0,L|304:112,1,150.000005722046
384,128,6499,1,0,0:0:0:0:
344,160,6624,1,0,0:0:0:0:
296,200,6749,1,0,0:0:0:0:
256,232,6874,1,0,0:0:0:0:
216,264,6999,1,0,0:0:0:0:
184,296,7124,2,0,B|144:224|144:224|240:168,1,150.000005722046
384,136,7624,2,0,B|296:168|296:168|232:80,1,150.000005722046
392,136,8124,6,0,L|408:64,2,50
304,120,8499,2,0,L|320:48,2,50
144,88,8874,2,0,L|168:16,1,50
152,224,9124,2,0,L|224:256,3,59.9999981689454
408,96,9874,1,0,0:0:0:0:
96,128,10124,6,0,L|168:32,1,100
360,48,10624,2,0,L|440:152,1,100
256,192,11124,1,0,0:0:0:0:
80,336,11374,1,0,0:0:0:0:
152,64,11624,2,0,L|216:64,1,59.9999981689454
424,208,11874,2,0,L|352:208,1,59.9999981689454
88,128,12124,5,0,0:0:0:0:
160,200,12374,1,0,0:0:0:0:
320,200,12624,1,0,0:0:0:0:
384,120,12874,1,0,0:0:0:0:
240,320,13124,1,0,0:0:0:0:
80,64,13374,2,0,L|16:160,2,100
144,112,14124,5,0,0:0:0:0:
208,88,14249,1,0,0:0:0:0:
240,152,14374,1,0,0:0:0:0:
304,128,14499,1,0,0:0:0:0:
320,200,14624,2,0,L|376:240,1,50
288,328,14874,2,0,L|232:280,1,50
96,296,15124,2,0,L|96:168,1,119.999996337891
96,144,15499,1,0,0:0:0:0:
208,80,15624,2,0,L|280:80,1,59.9999981689454
392,208,15874,1,0,0:0:0:0:
144,224,16124,6,0,L|216:208,2,59.9999981689454
136,140,16499,2,0,L|136:68,1,59.9999981689454
312,168,16749,2,0,L|368:136,1,59.9999981689454
136,80,16999,2,0,L|72:112,1,59.9999981689454
152,288,17249,1,0,0:0:0:0:
384,80,17499,1,0,0:0:0:0:
56,168,17874,5,0,0:0:0:0:
232,320,18124,2,0,L|304:360,1,59.9999981689454
440,232,18373,2,0,L|440:144,1,50
184,48,18623,2,0,P|125:54|96:96,2,100
56,160,19373,2,0,L|104:224,1,59.9999981689454
136,272,19623,1,0,0:0:0:0:
248,24,19873,1,0,0:0:0:0:
344,88,20123,6,0,L|448:88,2,100
256,88,20748,1,0,0:0:0:0:
160,144,20873,1,0,0:0:0:0:
72,200,20998,1,0,0:0:0:0:
128,304,21123,2,0,L|160:344,2,50
256,192,21498,1,0,0:0:0:0:
376,80,21623,2,0,L|416:120,2,50
416,120,22123,5,0,0:0:0:0:
352,208,22248,1,0,0:0:0:0:
288,120,22373,1,0,0:0:0:0:
224,208,22498,1,0,0:0:0:0:
152,120,22623,2,0,L|72:120,2,50
296,120,23123,2,0,P|352:144|368:184,2,100
256,192,24123,12,0,25873,0:0:0:0:
104,72,26123,6,0,L|152:32,2,59.9999981689454
352,48,26623,1,0,0:0:0:0:
368,120,26748,1,0,0:0:0:0:
384,192,26873,1,0,0:0:0:0:
112,288,27123,2,0,L|112:192,1,50
128,64,27498,1,0,0:0:0:0:
128,64,27623,2,0,P|216:40|256:40,1,100
496,160,28123,5,0,0:0:0:0:
360,64,28248,2,0,L|296:128,1,50
256,176,28498,1,0,0:0:0:0:
328,232,28623,1,0,0:0:0:0:
448,168,28748,2,0,L|448:80,2,50
336,208,29123,1,0,0:0:0:0:
64,184,29373,1,0,0:0:0:0:
64,184,29498,1,0,0:0:0:0:
64,184,29623,2,0,B|61:132|61:132|120:112,1,100
256,96,29998,1,0,0:0:0:0:
384,128,30123,2,0,P|408:168|384:216,1,100
288,304,30623,2,0,L|224:304,2,50
256,192,31123,12,0,32123,0:0:0:0:
416,288,32373,6,0,P|496:264|496:224,1,100
464,128,32873,1,0,0:0:0:0:
464,128,32998,1,0,0:0:0:0:
80,144,33248,1,0,0:0:0:0:
88,72,33373,1,0,0:0:0:0:
416,48,33623,1,0,0:0:0:0:
416,48,33748,1,0,0:0:0:0:
408,48,33873,1,0,0:0:0:0:
256,176,34123,6,0,L|256:320,1,100
168,248,34623,1,0,0:0:0:0:
384,200,34873,1,0,0:0:0:0:
416,168,34998,1,0,0:0:0:0:
176,88,35248,2,0,L|128:136,1,50
272,280,35623,1,0,0:0:0:0:
272,280,35873,1,0,0:0:0:0:
80,104,36123,6,0,L|176:72,1,100
174,72,36497,1,0,0:0:0:0:
174,72,36622,1,0,0:0:0:0:
384,64,36872,1,0,0:0:0:0:
392,224,36997,1,0,0:0:0:0:
136,304,37247,2,0,L|184:256,1,50
416,72,37622,1,0,0:0:0:0:
184,72,37872,1,0,0:0:0:0:
256,192,38122,12,0,40122,0:0:0:0:
456,336,40372,5,0,0:0:0:0:
344,240,40622,1,0,0:0:0:0:
112,40,40872,1,0,0:0:0:0:
80,72,40997,1,0,0:0:0:0:
232,152,41247,1,0,0:0:0:0:
200,176,41372,1,0,0:0:0:0:
352,328,41622,2,0,L|448:232,1,100
368,168,42122,5,0,0:0:0:0:
368,168,42372,1,0,0:0:0:0:
72,168,42622,1,0,0:0:0:0:
384,40,42872,2,0,L|448:40,1,50
192,40,43247,2,0,L|128:40,1,50
304,48,43622,1,0,0:0:0:0:
416,160,43872,1,0,0:0:0:0:
144,48,44122,1,0,0:0:0:0:
248,296,44372,1,0,0:0:0:0:
80,184,44622,6,0,L|71:111,2,50
80,184,44997,1,0,0:0:0:0:
80,184,45122,2,0,L|184:176,1,100
256,192,45622,12,0,46122,0:0:0:0:
264,288,46622,6,0,L|200:288,1,50
80,112,46872,1,0,0:0:0:0:
152,128,46997,1,0,0:0:0:0:
224,144,47122,2,0,B|280:128|280:128|320:184,1,100
424,320,47497,1,0,0:0:0:0:
56,208,48622,6,0,L|96:136,1,50
136,88,48872,1,0,0:0:0:0:
232,48,48997,1,0,0:0:0:0:
328,56,49122,2,0,P|384:64|384:128,1,100
400,248,49497,2,0,L|400:312,1,50
320,248,49747,1,0,0:0:0:0:
256,192,49872,1,0,0:0:0:0:
192,248,49997,1,0,0:0:0:0:
128,320,50122,6,0,L|224:320,1,50
395,192,50372,2,0,L|320:192,1,50
272,192,50622,1,0,0:0:0:0:
256,336,50872,1,0,0:0:0:0:
120,192,51122,1,0,0:0:0:0:
384,32,51372,1,0,0:0:0:0:
256,144,51622,2,0,L|256:32,1,100
104,48,52122,1,0,0:0:0:0:
200,312,52372,1,0,0:0:0:0:
456,208,52622,1,0,0:0:0:0:
368,56,52872,1,0,0:0:0:0:
368,304,53122,1,0,0:0:0:0:
264,248,53247,1,0,0:0:0:0:
152,168,53372,1,0,0:0:0:0:
264,104,53497,1,0,0:0:0:0:
368,56,53622,1,0,0:0:0:0:
