osu file format v14

[General]
AudioFilename: audio.mp3
AudioLeadIn: 0
PreviewTime: 67967
Countdown: 1
SampleSet: Normal
StackLeniency: 0.8
Mode: 0
LetterboxInBreaks: 0
WidescreenStoryboard: 0

[Editor]
Bookmarks: 28030,29030,39030,47155
DistanceSpacing: 1.3
BeatDivisor: 8
GridSize: 4
TimelineZoom: 2.6

[Metadata]
Title:Eyecatch! Too Much!
TitleUnicode:Eyecatch! Too Much!
Artist:WWW.Working!
ArtistUnicode:WWW.Working!
Creator:R3K3M
Version:Ultra
Source:
Tags:
BeatmapID:1163279
BeatmapSetID:549314

[Difficulty]
HPDrainRate:6
CircleSize:4
OverallDifficulty:8.5
ApproachRate:9.5
SliderMultiplier:1.8
SliderTickRate:1

[Events]
//Background and Video events
0,0,"396955.jpg",0,0
//Break Periods
//Storyboard Layer 0 (Background)
//Storyboard Layer 1 (Fail)
//Storyboard Layer 2 (Pass)
//Storyboard Layer 3 (Foreground)
//Storyboard Layer 4 (Overlay)
//Storyboard Sound Samples

[TimingPoints]
2030,500,4,1,0,100,1,0
2030,-100,4,1,1,100,0,0
8030,-66.6666666666667,4,1,1,100,0,0
29655,-83.3333333333333,4,1,1,100,0,0
34030,-66.6666666666667,4,1,1,100,0,0
60030,-66.6666666666667,4,1,1,100,0,1
78030,-66.6666666666667,4,1,1,100,0,0

[HitObjects]
116,116,2030,5,0,0:0:0:0:
116,116,3030,5,0,0:0:0:0:
268,93,4030,2,0,L|224:210,1,90
200,275,4405,1,0,0:0:0:0:
288,311,4530,2,0,L|332:194,1,90
375,26,5030,5,0,0:0:0:0:
181,99,5280,1,0,0:0:0:0:
364,195,5530,1,0,0:0:0:0:
169,266,5780,1,0,0:0:0:0:
365,331,6030,6,0,L|364:263,1,45
361,102,6405,1,0,0:0:0:0:
212,169,6655,1,0,0:0:0:0:
364,258,6905,1,0,0:0:0:0:
364,258,7030,1,0,0:0:0:0:
361,102,7280,1,0,0:0:0:0:
449,72,7530,1,0,0:0:0:0:
361,102,7780,1,0,0:0:0:0:
123,63,8030,6,0,L|108:128,1,67.5000025749208
152,278,8280,2,0,L|166:212,1,67.5000025749208
190,60,8530,6,0,L|198:126,1,67.5000025749208
298,250,8780,2,0,L|289:183,1,67.5000025749208
257,46,9030,6,0,L|287:106,1,67.5000025749208
409,198,9280,2,0,L|378:137,1,67.5000025749208
308,0,9530,6,0,L|357:45,1,67.5000025749208
481,139,9780,1,0,0:0:0:0:
47,252,10030,6,0,P|88:323|142:341,1,135.000005149842
132,252,10405,1,0,0:0:0:0:
184,181,10530,1,0,0:0:0:0:
268,158,10655,1,0,0:0:0:0:
355,160,10780,2,0,L|355:238,1,67.5000025749208
363,344,11030,6,0,P|428:334|454:258,1,135.000005149842
355,227,11405,1,0,0:0:0:0:
225,229,11530,2,0,L|158:242,1,67.5000025749208
45,180,11780,2,0,L|111:166,1,67.5000025749208
384,152,12030,6,0,B|403:93|403:93|455:34,1,135.000005149842
348,23,12405,1,0,0:0:0:0:
276,58,12530,1,0,0:0:0:0:
256,136,12655,1,0,0:0:0:0:
283,212,12780,1,0,0:0:0:0:
357,246,12905,1,0,0:0:0:0:
437,240,13030,6,0,P|440:305|393:351,1,135.000005149842
314,346,13405,1,0,0:0:0:0:
243,308,13530,2,0,L|245:240,1,67.5000025749208
252,159,13780,1,0,0:0:0:0:
113,306,14030,6,0,L|251:158,1,202.500007724762
120,271,14530,6,0,L|189:80,1,202.500007724762
104,232,15030,6,0,L|94:29,1,202.500007724762
283,123,15530,1,0,0:0:0:0:
277,92,15614,1,0,0:0:0:0:
263,64,15697,1,0,0:0:0:0:
243,40,15780,1,0,0:0:0:0:
217,22,15864,1,0,0:0:0:0:
188,10,15947,1,0,0:0:0:0:
131,9,16030,6,0,L|63:34,1,67.5000025749208
26,132,16280,2,0,L|89:108,1,67.5000025749208
243,40,16530,2,0,L|306:16,1,67.5000025749208
310,316,16780,2,0,L|247:292,1,67.5000025749208
71,204,17030,5,0,0:0:0:0:
159,253,17155,1,0,0:0:0:0:
256,224,17280,1,0,0:0:0:0:
285,127,17405,1,0,0:0:0:0:
187,155,17530,1,0,0:0:0:0:
256,224,17655,1,0,0:0:0:0:
390,149,17780,2,0,L|327:173,1,67.5000025749208
79,268,18030,6,0,L|55:204,1,67.5000025749208
138,80,18280,2,0,L|120:145,1,67.5000025749208
40,340,18530,2,0,P|106:340|155:297,1,135.000005149842
28,137,18905,1,0,0:0:0:0:
13,230,19030,2,0,L|111:331,1,135.000005149842
183,374,19405,5,0,0:0:0:0:
271,322,19530,1,0,0:0:0:0:
294,222,19655,1,0,0:0:0:0:
253,124,19780,1,0,0:0:0:0:
173,240,20030,6,0,L|123:194,1,67.5000025749208
63,139,20280,1,0,0:0:0:0:
63,139,20530,1,0,0:0:0:0:
315,91,20780,2,0,L|369:140,1,67.5000025749208
427,190,21030,1,0,0:0:0:0:
427,190,21280,1,0,0:0:0:0:
238,124,21530,5,0,0:0:0:0:
225,163,21613,1,0,0:0:0:0:
212,201,21696,1,0,0:0:0:0:
199,240,21779,1,0,0:0:0:0:
186,278,21863,1,0,0:0:0:0:
174,317,21946,1,0,0:0:0:0:
160,355,22030,6,0,P|72:329|54:255,1,135.000005149842
68,153,22405,1,0,0:0:0:0:
194,88,22530,2,0,P|270:120|298:188,1,135.000005149842
287,298,22905,1,0,0:0:0:0:
98,373,23030,2,0,P|34:352|-2:297,1,135.000005149842
27,123,23405,1,0,0:0:0:0:
217,48,23530,2,0,P|280:68|316:123,1,135.000005149842
334,303,23905,1,0,0:0:0:0:
415,312,24030,6,0,L|446:216,1,67.5000025749208,0|0,0:0|0:0,0:0:0:0:
217,48,24280,2,0,L|195:113,1,67.5000025749208
350,236,24530,2,0,L|381:140,1,67.5000025749208,0|0,0:0|0:0,0:0:0:0:
148,0,24780,2,0,L|126:65,1,67.5000025749208
195,343,25030,2,0,L|142:213,3,135.000005149842
195,343,26030,6,0,L|195:274,1,67.5000025749208
201,164,26405,1,0,0:0:0:0:
201,53,26655,1,0,0:0:0:0:
302,112,26905,1,0,0:0:0:0:
302,112,27030,2,0,L|301:180,1,67.5000025749208
380,292,27405,5,0,0:0:0:0:
435,205,27655,1,0,0:0:0:0:
328,188,27905,1,0,0:0:0:0:
414,103,28030,6,0,L|431:62,5,45.0000017166138
344,146,28530,6,0,L|327:189,5,45.0000017166138
277,79,29031,2,0,B|262:69|231:60|231:60|232:73|254:143,2,135.000005149842
401,144,29655,1,0,0:0:0:0:
122,164,30030,5,0,0:0:0:0:
153,244,30280,1,0,0:0:0:0:
209,178,30530,1,0,0:0:0:0:
153,244,30780,1,0,0:0:0:0:
209,178,31030,1,0,0:0:0:0:
420,263,31280,1,0,0:0:0:0:
398,225,31405,1,0,0:0:0:0:
376,189,31530,1,0,0:0:0:0:
465,189,31780,1,0,0:0:0:0:
271,266,32030,6,0,L|208:177,1,107.999996704102
318,50,32530,1,0,0:0:0:0:
296,88,32655,1,0,0:0:0:0:
276,125,32780,1,0,0:0:0:0:
229,52,33030,1,0,0:0:0:0:
318,50,33280,1,0,0:0:0:0:
276,125,33530,1,0,0:0:0:0:
231,199,33780,1,0,0:0:0:0:
127,49,34030,6,0,L|79:135,1,67.5000025749208
182,111,34280,2,0,L|134:197,1,67.5000025749208
99,263,34530,2,0,L|67:204,1,67.5000025749208
171,236,34780,2,0,L|203:294,1,67.5000025749208
287,338,35030,1,0,0:0:0:0:
375,301,35155,2,0,L|407:242,1,67.5000025749208
416,119,35405,5,0,0:0:0:0:
368,37,35530,2,0,P|321:131|358:193,1,135.000005149842
371,244,35905,1,0,0:0:0:0:
127,342,36030,6,0,L|159:283,1,67.5000025749208
240,144,36280,2,0,L|207:85,1,67.5000025749208
28,155,36531,2,0,L|61:214,1,67.5000025749208
338,303,36781,2,0,L|370:244,1,67.5000025749208
71,64,37155,1,0,0:0:0:0:
28,155,37280,1,0,0:0:0:0:
82,241,37405,1,0,0:0:0:0:
162,205,37530,6,0,B|186:89|186:89|220:62,1,135.000005149842
449,45,38030,1,0,0:0:0:0:
71,64,38280,1,0,0:0:0:0:
397,139,38530,2,0,L|359:203,1,67.5000025749208
123,158,38905,6,0,L|164:230,1,67.5000025749208
218,339,39155,1,0,0:0:0:0:
123,158,39280,1,0,0:0:0:0:
218,339,39405,1,0,0:0:0:0:
307,37,39530,2,0,P|243:55|212:113,1,135.000005149842
333,238,40030,6,0,B|339:245|308:213|308:213|293:118,1,135.000005149842
446,217,40405,1,0,0:0:0:0:
491,97,40530,2,0,L|441:46,1,67.5000025749208
308,16,40780,1,0,0:0:0:0:
267,136,40905,2,0,B|260:142|291:110|291:110|307:12,1,135.000005149842
102,151,41280,5,0,0:0:0:0:
125,52,41405,1,0,0:0:0:0:
217,11,41530,1,0,0:0:0:0:
316,31,41655,1,0,0:0:0:0:
371,115,41780,2,0,L|352:220,1,67.5000025749208
285,318,42030,6,0,L|304:213,1,67.5000025749208
211,58,42280,2,0,L|192:163,1,67.5000025749208
371,115,42530,2,0,L|304:127,1,67.5000025749208
147,224,42780,2,0,L|213:236,1,67.5000025749208
359,256,43030,2,0,P|421:225|420:140,1,135.000005149842
392,71,43405,1,0,0:0:0:0:
295,39,43530,1,0,0:0:0:0:
127,342,43780,6,0,L|159:283,1,67.5000025749208
225,134,44030,2,0,L|258:193,1,67.5000025749208
100,195,44281,2,0,L|67:136,1,67.5000025749208
194,3,44531,2,0,L|162:62,1,67.5000025749208
270,129,44780,2,0,L|238:188,2,67.5000025749208
327,62,45155,1,0,0:0:0:0:
412,42,45280,1,0,0:0:0:0:
93,342,45530,5,0,0:0:0:0:
93,342,45592,1,0,0:0:0:0:
93,342,45655,1,0,0:0:0:0:
172,184,45780,1,0,0:0:0:0:
472,339,46030,5,0,0:0:0:0:
87,341,46280,1,0,0:0:0:0:
70,72,46530,1,0,0:0:0:0:
139,124,46655,1,0,0:0:0:0:
156,209,46780,2,0,L|206:289,1,67.5000025749208
341,238,47030,5,0,0:0:0:0:
490,144,47155,2,0,L|454:86,1,67.5000025749208
257,55,47405,5,0,0:0:0:0:
63,335,47655,5,0,0:0:0:0:
350,258,48030,5,0,0:0:0:0:
70,51,48280,1,0,0:0:0:0:
92,215,48530,2,0,B|164:302|164:302|188:269|188:269,1,135.000005149842
419,51,49030,5,0,0:0:0:0:
415,84,49092,1,0,0:0:0:0:
397,113,49155,1,0,0:0:0:0:
372,135,49217,1,0,0:0:0:0:
340,147,49280,1,0,0:0:0:0:
256,119,49405,2,0,L|208:79,4,33.7500012874604
179,51,49780,1,0,0:0:0:0:
97,306,50030,5,0,0:0:0:0:
97,306,50280,1,0,0:0:0:0:
372,264,50530,5,0,0:0:0:0:
369,237,50613,1,0,0:0:0:0:
366,210,50696,1,0,0:0:0:0:
363,183,50780,1,0,0:0:0:0:
361,156,50863,1,0,0:0:0:0:
358,129,50946,1,0,0:0:0:0:
355,102,51030,1,0,0:0:0:0:
463,124,51155,6,0,L|426:206,1,67.5000025749208
391,262,51405,1,0,0:0:0:0:
310,226,51530,2,2,L|248:198,2,67.5000025749208,0|0|0,0:0|0:0|0:0,0:0:0:0:
391,262,51905,1,0,0:0:0:0:
418,50,52030,6,0,L|373:123,1,67.5000025749208
257,287,52280,1,0,0:0:0:0:
257,287,52530,1,0,0:0:0:0:
220,81,52780,6,0,L|260:156,1,67.5000025749208
343,333,53030,1,0,0:0:0:0:
343,333,53280,1,0,0:0:0:0:
119,173,53530,6,0,L|201:197,1,67.5000025749208
395,251,53780,1,0,0:0:0:0:
395,251,54030,1,0,0:0:0:0:
473,98,54280,6,0,L|390:73,1,67.5000025749208
197,20,54530,1,0,0:0:0:0:
197,20,54780,1,0,0:0:0:0:
43,193,55030,6,0,L|102:225,1,67.5000025749208
293,333,55280,1,0,0:0:0:0:
454,151,55530,1,0,0:0:0:0:
215,198,55780,1,0,0:0:0:0:
401,251,56030,2,0,L|296:153,1,135.000005149842
155,25,56530,5,0,0:0:0:0:
76,159,56655,1,0,0:0:0:0:
474,40,56905,1,0,0:0:0:0:
394,163,57155,6,0,L|340:217,1,67.5000025749208
189,251,57405,2,0,L|243:197,1,67.5000025749208
375,87,57655,2,0,P|455:114|476:187,1,135.000005149842
487,270,58030,1,0,0:0:0:0:
56,43,58280,6,0,L|93:131,1,67.5000025749208
136,228,58530,1,0,0:0:0:0:
136,228,58655,1,0,0:0:0:0:
141,23,58905,1,0,0:0:0:0:
414,53,59280,5,0,0:0:0:0:
414,63,59530,1,0,0:0:0:0:
414,73,59780,1,0,0:0:0:0:
414,83,60030,6,0,P|401:144|332:200,1,135.000005149842
291,85,60405,1,0,0:0:0:0:
172,57,60530,2,0,L|125:126,1,67.5000025749208
23,165,60780,2,0,L|66:241,1,67.5000025749208
50,345,61030,2,0,P|111:334|161:276,1,135.000005149842
308,196,61405,5,0,0:0:0:0:
158,281,61530,1,0,0:0:0:0:
378,343,61655,1,0,0:0:0:0:
344,139,61780,2,0,L|299:208,1,67.5000025749208
0,312,62030,6,0,B|29:269|29:269|20:220|20:220|44:167,1,135.000005149842
108,44,62405,2,0,L|157:105,1,67.5000025749208
291,212,62655,1,0,0:0:0:0:
33,189,62780,1,0,0:0:0:0:
186,67,62905,1,0,0:0:0:0:
154,231,63030,2,0,L|111:178,1,67.5000025749208
185,66,63280,2,0,L|207:130,1,67.5000025749208
325,67,63530,2,0,L|304:131,1,67.5000025749208
358,231,63780,2,0,L|400:178,1,67.5000025749208
427,73,64030,5,0,0:0:0:0:
400,178,64155,1,0,0:0:0:0:
334,65,64280,5,0,0:0:0:0:
321,172,64405,1,0,0:0:0:0:
247,70,64530,5,0,0:0:0:0:
256,177,64655,1,0,0:0:0:0:
175,85,64780,5,0,0:0:0:0:
190,184,64905,1,0,0:0:0:0:
91,112,65030,5,0,0:0:0:0:
269,195,65155,1,0,0:0:0:0:
173,23,65280,1,0,0:0:0:0:
149,218,65405,1,0,0:0:0:0:
247,70,65530,2,0,L|343:138,1,67.5000025749208
203,257,65780,2,0,L|147:217,1,67.5000025749208
61,62,66030,5,0,0:0:0:0:
117,221,66155,1,0,0:0:0:0:
61,62,66280,1,0,0:0:0:0:
233,141,66530,5,0,0:0:0:0:
189,326,66655,1,0,0:0:0:0:
233,141,66780,1,0,0:0:0:0:
259,299,67030,5,0,0:0:0:0:
396,113,67155,1,0,0:0:0:0:
259,299,67280,1,0,0:0:0:0:
396,113,67405,1,0,0:0:0:0:
248,8,67530,5,0,0:0:0:0:
247,41,67593,1,0,0:0:0:0:
246,75,67655,1,0,0:0:0:0:
245,109,67718,1,0,0:0:0:0:
245,143,67780,1,0,0:0:0:0:
245,178,67843,1,0,0:0:0:0:
244,212,67905,1,0,0:0:0:0:
259,299,68030,6,0,B|303:346|303:346|374:347,1,135.000005149842
361,208,68405,1,0,0:0:0:0:
457,112,68530,2,0,L|513:168,1,67.5000025749208
512,260,68780,1,0,0:0:0:0:
324,340,68905,1,0,0:0:0:0:
416,223,69030,1,0,0:0:0:0:
434,370,69155,1,0,0:0:0:0:
259,299,69280,6,0,L|210:252,1,67.5000025749208
163,28,69530,1,0,0:0:0:0:
353,84,69655,1,0,0:0:0:0:
167,197,69780,2,0,B|221:156,1,67.5000025749208
258,55,70030,5,0,0:0:0:0:
259,299,70155,1,0,0:0:0:0:
113,157,70280,2,0,B|167:197,1,67.5000025749208
331,258,70530,1,0,0:0:0:0:
282,112,70655,1,0,0:0:0:0:
315,354,70780,2,0,L|374:322,1,67.5000025749208
495,121,71030,6,0,L|435:152,1,67.5000025749208,0|0,0:3|0:3,0:3:0:0:
277,194,71280,1,0,0:0:0:0:
486,297,71405,1,0,0:0:0:0:
381,85,71530,2,0,L|325:121,1,67.5000025749208
190,189,71780,5,0,0:0:0:0:
324,121,71905,1,0,0:0:0:0:
313,269,72030,1,0,0:0:0:0:
276,193,72280,5,0,0:0:0:0:
276,193,72530,1,0,0:0:0:0:
458,257,72780,2,0,L|398:288,2,67.5000025749208,0|0|0,0:3|0:3|0:3,0:3:0:0:
140,188,73280,1,0,0:0:0:0:
163,44,73530,5,0,0:0:0:0:
195,51,73592,1,0,0:0:0:0:
228,59,73655,1,0,0:0:0:0:
261,67,73717,1,0,0:0:0:0:
294,75,73780,1,0,0:0:0:0:
326,84,73842,1,0,0:0:0:0:
358,93,73905,1,0,0:0:0:0:
449,118,74030,6,0,L|426:189,1,67.5000025749208
225,283,74280,2,0,L|248:212,1,67.5000025749208
285,75,74530,1,0,0:0:0:0:
426,118,74655,1,0,0:0:0:0:
371,256,74780,1,0,0:0:0:0:
228,213,74905,1,0,0:0:0:0:
220,98,75030,6,0,L|155:118,1,67.5000025749208
82,248,75280,2,0,L|146:227,1,67.5000025749208
10,150,75530,1,0,0:0:0:0:
190,260,75655,1,0,0:0:0:0:
155,118,75780,1,0,0:0:0:0:
46,293,75905,1,0,0:0:0:0:
183,124,76030,5,0,0:0:0:0:
268,297,76155,1,0,0:0:0:0:
366,141,76280,5,0,0:0:0:0:
156,286,76405,1,0,0:0:0:0:
271,108,76530,5,0,0:0:0:0:
337,341,76655,1,0,0:0:0:0:
316,105,76780,5,0,0:0:0:0:
159,315,76905,1,0,0:0:0:0:
171,98,77030,2,0,P|106:169|109:222,1,135.000005149842
100,245,77342,1,0,0:0:0:0:
104,285,77405,2,0,L|180:321,1,67.5000025749208
265,354,77780,1,0,0:0:0:0:
298,183,78030,6,0,L|386:147,1,67.5000025749208
416,4,78280,2,0,L|328:40,1,67.5000025749208
255,56,78530,1,0,0:0:0:0:
150,141,78655,1,0,0:0:0:0:
298,183,78780,2,0,L|360:208,1,67.5000025749208
436,344,79030,2,0,L|373:318,1,67.5000025749208
238,243,79280,6,0,P|222:155|250:103,1,135.000005149842
319,53,79655,1,0,0:0:0:0:
418,37,79780,1,0,0:0:0:0:
498,98,79905,1,0,0:0:0:0:
512,198,80030,6,0,L|429:173,1,67.5000025749208
252,195,80280,2,0,L|261:262,1,67.5000025749208
394,265,80529,2,0,L|350:213,1,67.5000025749208
178,128,80780,2,0,L|150:190,1,67.5000025749208
225,38,81030,5,0,0:0:0:0:
318,76,81155,1,0,0:0:0:0:
278,169,81280,2,0,L|250:231,1,67.5000025749208
343,266,81530,1,0,0:0:0:0:
436,304,81655,1,0,0:0:0:0:
477,211,81780,2,0,L|506:150,1,67.5000025749208
343,38,82030,6,0,P|311:113|260:157,1,135.000005149842
235,47,82530,1,0,0:0:0:0:
151,114,82780,2,0,L|208:178,2,67.5000025749208
153,249,83280,1,0,0:0:0:0:
238,95,83530,5,0,0:0:0:0:
240,97,83592,1,0,0:0:0:0:
242,99,83655,1,0,0:0:0:0:
244,101,83717,1,0,0:0:0:0:
246,103,83780,1,0,0:0:0:0:
307,165,83905,1,0,0:0:0:0:
371,224,84030,6,0,L|320:268,1,67.5000025749208
209,357,84280,1,0,0:0:0:0:
432,171,84530,1,0,0:0:0:0:
371,224,84780,1,0,0:0:0:0:
371,224,85030,2,0,L|314:160,1,67.5000025749208
249,78,85280,1,0,0:0:0:0:
424,284,85530,1,0,0:0:0:0:
314,193,85780,1,0,0:0:0:0:
105,126,86030,6,0,L|118:199,1,67.5000025749208
201,167,86280,2,0,L|214:240,1,67.5000025749208
298,211,86530,2,0,L|309:277,1,67.5000025749208
406,325,86780,2,0,L|395:259,1,67.5000025749208
405,103,87030,6,0,L|393:169,1,67.5000025749208
309,144,87280,2,0,L|297:210,1,67.5000025749208
212,188,87530,2,0,L|200:254,1,67.5000025749208
103,302,87780,2,0,L|115:236,1,67.5000025749208
132,85,88030,5,0,0:0:0:0:
132,85,88155,1,0,0:0:0:0:
399,220,88405,5,0,0:0:0:0:
399,220,88530,1,0,0:0:0:0:
148,350,88780,5,0,0:0:0:0:
148,350,88905,1,0,0:0:0:0:
270,230,89155,5,0,0:0:0:0:
270,230,89280,1,0,0:0:0:0:
217,137,89530,5,0,0:0:0:0:
270,230,89780,1,0,0:0:0:0:
331,318,90030,1,0,0:0:0:0:
