osu file format v14

[General]
AudioFilename: audio.mp3
AudioLeadIn: 0
PreviewTime: 29105
Countdown: 1
SampleSet: Normal
StackLeniency: 0.8
Mode: 0
LetterboxInBreaks: 0
WidescreenStoryboard: 1

[Editor]
DistanceSpacing: 1
BeatDivisor: 2
GridSize: 8
TimelineZoom: 1

[Metadata]
Title:Kurt Angle Theme
TitleUnicode:Kurt Angle Theme
Artist:WWE
ArtistUnicode:WWE
Creator:Great_Nyker
Version:Hard ot luchshego v mire
Source:WWE
Tags:Papich 7k barrier solyanovo EvilArthas Dota 2 solyara rabotyaga skill russian papa VIKA VI KA
BeatmapID:1166621
BeatmapSetID:550594

[Difficulty]
HPDrainRate:2
CircleSize:4
OverallDifficulty:2
ApproachRate:6.5
SliderMultiplier:1.5
SliderTickRate:1

[Events]
//Background and Video events
0,0,"321321.jpg",0,0
//Break Periods
//Storyboard Layer 0 (Background)
//Storyboard Layer 1 (Fail)
//Storyboard Layer 2 (Pass)
//Storyboard Layer 3 (Foreground)
//Storyboard Sound Samples

[TimingPoints]
576,293.542074363992,4,2,1,51,1,0
576,-133.333333333333,4,2,1,51,0,0
10282,-100,4,1,0,100,0,0
29049,-100,4,1,1,75,0,1
47340,-100,4,2,1,75,0,0

[HitObjects]
176,176,869,5,10,0:0:0:0:
248,88,1163,1,0,0:0:0:0:
288,80,1309,1,0,0:0:0:0:
328,104,1456,1,0,0:0:0:0:
400,176,1750,1,0,0:0:0:0:
432,200,1896,1,0,0:0:0:0:
416,240,2043,1,0,0:0:0:0:
328,304,2337,6,8,P|312:312|240:312,2,56.2500021457673
408,240,2924,1,0,0:0:0:0:
352,168,3217,1,0,0:0:0:0:
256,152,3511,2,8,P|264:120|248:88,2,56.2500021457673
256,240,4098,2,0,P|168:256|104:232,1,112.500004291535
80,176,4685,1,0,0:0:0:0:
136,88,4979,1,8,0:0:0:0:
160,80,5125,1,8,0:0:0:0:
192,80,5272,1,8,0:0:0:0:
272,144,5566,5,8,0:0:0:0:
376,96,5859,2,0,P|424:112|432:120,2,56.2500021457673
392,232,6446,2,0,P|416:272|408:296,2,56.2500021457673
272,160,7033,1,0,0:0:0:0:
216,272,7327,1,8,0:0:0:0:
216,272,7474,1,8,0:0:0:0:
216,272,7621,1,8,0:0:0:0:
192,160,7914,1,0,0:0:0:0:
96,192,8208,2,0,P|64:264|88:304,1,112.500004291535
168,328,8795,5,8,0:0:0:0:
176,328,8941,1,8,0:0:0:0:
184,328,9088,1,8,0:0:0:0:
304,288,9382,1,0,0:0:0:0:
368,216,9675,2,0,P|400:152|376:120,1,112.500004291535
272,112,10262,2,0,B|296:176|168:216|176:216,1,112.500004291535
214,197,10849,1,0,0:0:0:0:
80,192,11143,1,0,0:0:0:0:
72,216,11290,1,0,0:0:0:0:
64,240,11437,1,0,0:0:0:0:
144,328,11730,5,0,0:0:0:0:
264,304,12024,2,8,P|312:328|312:352,2,75
240,216,12611,1,0,0:0:0:0:
280,136,12904,1,0,0:0:0:0:
280,56,13198,1,0,0:0:0:0:
192,64,13491,2,0,B|144:72|136:64|176:16,2,75
208,160,14078,1,0,0:0:0:0:
139,233,14372,1,8,0:0:0:0:
139,233,14519,1,8,0:0:0:0:
139,233,14666,1,8,0:0:0:0:
80,88,14959,6,0,P|160:64|224:136,1,150
144,144,15546,2,0,P|232:184|296:128,1,150
224,80,16133,2,0,B|352:16|368:168|368:168,1,150
360,224,16720,1,8,0:0:0:0:
360,224,16867,1,8,0:0:0:0:
360,224,17014,1,8,0:0:0:0:
272,296,17307,1,0,0:0:0:0:
224,184,17601,1,0,0:0:0:0:
248,72,17894,6,0,P|120:72|88:120,1,150
112,176,18482,1,8,0:0:0:0:
288,224,18775,1,8,0:0:0:0:
136,280,19069,1,8,0:0:0:0:
288,328,19362,1,8,0:0:0:0:
400,344,19656,2,0,P|384:296|336:200,1,150
328,192,20096,1,8,0:0:0:0:
312,168,20243,1,8,0:0:0:0:
296,144,20390,1,0,0:0:0:0:
280,120,20536,2,0,P|208:136|136:208,1,150
104,272,21123,6,8,P|72:304|120:344,2,75
216,232,21711,1,0,0:0:0:0:
312,304,22004,1,0,0:0:0:0:
408,224,22298,1,8,0:0:0:0:
408,224,22444,1,8,0:0:0:0:
408,224,22591,1,8,0:0:0:0:
288,248,22885,1,0,0:0:0:0:
208,176,23178,1,0,0:0:0:0:
288,120,23472,2,0,P|360:96|416:176,2,150
344,208,24352,5,0,0:0:0:0:
184,232,24646,1,0,0:0:0:0:
360,328,24939,1,0,0:0:0:0:
176,344,25233,1,8,0:0:0:0:
176,344,25380,1,8,0:0:0:0:
176,344,25527,1,8,0:0:0:0:
216,248,25820,1,0,0:0:0:0:
200,160,26114,2,0,P|176:120|200:48,2,75
272,232,26701,1,0,0:0:0:0:
352,304,26994,1,0,0:0:0:0:
432,240,27288,1,0,0:0:0:0:
368,136,27581,5,8,0:0:0:0:
368,136,27728,1,8,0:0:0:0:
368,136,27875,1,8,0:0:0:0:
304,248,28168,1,0,0:0:0:0:
256,120,28462,5,0,0:0:0:0:
272,136,28609,1,0,0:0:0:0:
272,136,28756,1,0,0:0:0:0:
272,136,28902,1,0,0:0:0:0:
272,136,29049,2,0,P|152:184|160:248,1,150,2|0,0:0|0:0,0:0:0:0:
216,320,29636,1,8,0:0:0:0:
336,264,29930,1,0,0:0:0:0:
232,160,30223,1,0,0:0:0:0:
144,96,30517,5,0,0:0:0:0:
144,72,30664,1,0,0:0:0:0:
145,58,30810,2,0,B|257:-3|336:80|296:72,1,150,8|0,0:0|0:0,0:0:0:0:
400,112,31397,2,0,B|490:202|423:237|373:291|367:285,1,150,4|0,0:0|0:0,0:0:0:0:
296,248,31985,1,8,0:0:0:0:
176,184,32278,1,0,0:0:0:0:
64,192,32572,2,0,P|104:304|152:312,1,150
248,296,33159,1,8,0:0:0:0:
352,224,33452,5,0,0:0:0:0:
278,131,33746,2,0,P|216:160|208:152,2,75,4|0|0,0:0|0:0|0:0,0:0:0:0:
344,272,34333,1,8,0:0:0:0:
200,304,34626,2,0,P|144:288|136:200,1,150
192,128,35213,1,0,0:0:0:0:
200,136,35360,1,0,0:0:0:0:
200,136,35507,1,8,0:0:0:0:
336,144,35801,1,0,0:0:0:0:
248,240,36094,2,0,P|136:304|112:280,1,150
96,208,36681,5,8,0:0:0:0:
200,128,36975,1,0,0:0:0:0:
296,56,37268,2,0,B|423:39|466:109|448:152,1,150
440,200,37855,1,8,0:0:0:0:
432,216,38002,1,0,0:0:0:0:
425,226,38149,1,0,0:0:0:0:
417,242,38295,1,0,0:0:0:0:
409,258,38442,1,4,0:0:0:0:
280,272,38736,2,0,P|224:296|169:277,2,75,0|0|8,0:0|0:0|0:0,0:0:0:0:
328,184,39323,5,0,0:0:0:0:
256,88,39616,1,0,0:0:0:0:
162,133,39910,2,0,B|77:222|102:314|107:332,1,150,0|8,0:0|0:0,0:0:0:0:
144,328,40497,2,0,P|250:285|323:237,1,150
312,168,41085,5,0,0:0:0:0:
312,168,41232,1,0,0:0:0:0:
312,168,41379,1,8,0:0:0:0:
176,128,41672,1,0,0:0:0:0:
112,232,41966,1,0,0:0:0:0:
224,280,42259,2,0,P|352:328|360:320,1,150,0|8,0:0|0:0,0:0:0:0:
320,208,42846,1,0,0:0:0:0:
216,128,43140,2,8,B|264:48|200:72|216:56,2,75,12|8|8,0:0|0:0|0:0,0:0:0:0:
288,208,43727,5,8,0:0:0:0:
288,320,44020,1,0,0:0:0:0:
184,328,44314,1,0,0:0:0:0:
176,216,44608,2,0,B|60:188|296:248|64:88,2,150,0|8|0,0:0|0:0|0:0,0:0:0:0:
288,248,45488,1,0,0:0:0:0:
328,136,45781,2,0,B|264:72|256:88|264:104|272:112|272:128|272:136|248:136|232:120|240:104|232:80|224:64|200:64|184:88|176:112|184:128|192:104,1,150
112,192,46369,1,0,0:0:0:0:
224,312,46662,2,0,B|248:240|256:240|264:248|272:256|296:272|320:264|312:240|288:224|256:224|256:208|272:200|272:200,1,150
240,72,47249,1,10,0:0:0:0:
