osu file format v14

[General]
AudioFilename: EastboundDown.mp3
AudioLeadIn: 0
PreviewTime: 148344
Countdown: 0
SampleSet: Soft
StackLeniency: 0.2
Mode: 0
LetterboxInBreaks: 1
WidescreenStoryboard: 1

[Editor]
Bookmarks: 17227,33991,45285,56756,59580,70874,76521,81991,93285,104580,110227,115874,127168,138462,148344,161227,172521,183815,195109,206403
DistanceSpacing: 0.5
BeatDivisor: 4
GridSize: 4
TimelineZoom: 3.399998

[Metadata]
Title:Eastbound & Down
TitleUnicode:Eastbound & Down
Artist:WSTR
ArtistUnicode:WSTR
Creator:HanzeR
Version:Irre <3 HanzeR
Source:
Tags:irreversible
BeatmapID:1271476
BeatmapSetID:598677

[Difficulty]
HPDrainRate:5
CircleSize:4
OverallDifficulty:8
ApproachRate:9.5
SliderMultiplier:2
SliderTickRate:2

[Events]
//Background and Video events
0,0,"redgreenwallpaper.jpg",0,0
//Break Periods
2,56956,59055
2,138662,147819
//Storyboard Layer 0 (Background)
//Storyboard Layer 1 (Fail)
//Storyboard Layer 2 (Pass)
//Storyboard Layer 3 (Foreground)
//Storyboard Sound Samples

[TimingPoints]
286,352.941176470588,4,2,0,60,1,0
5933,-100,4,3,0,60,0,0
10285,-100,4,3,0,40,0,0
10812,-100,4,3,0,60,0,0
11338,-100,4,3,0,70,0,0
17128,-100,4,3,0,60,0,0
19609,-100,4,3,0,60,0,0
19697,-100,4,3,0,60,0,0
19741,-100,4,3,0,60,0,0
19759,-100,4,3,0,40,0,0
19874,-100,4,3,0,40,0,0
19918,-100,4,3,0,40,0,0
20050,-100,4,3,0,40,0,0
20285,-100,4,3,0,60,0,0
22742,-100,4,3,0,40,0,0
22874,-188.679245283019,4,3,0,40,0,0
22917,-188.679245283019,4,3,0,60,0,0
23970,-188.679245283019,4,3,0,40,0,0
24496,-188.679245283019,4,3,0,60,0,0
25373,-188.679245283019,4,3,0,40,0,0
26075,-188.679245283019,4,3,0,30,0,0
26250,-188.679245283019,4,3,0,60,0,0
27153,-188.679245283019,4,3,0,60,0,0
27374,-188.679245283019,4,3,0,60,0,0
27418,-188.679245283019,4,3,0,60,0,0
27638,-188.679245283019,4,3,0,60,0,0
27683,-188.679245283019,4,3,0,60,0,0
27815,-188.679245283019,4,3,0,60,0,0
27859,-188.679245283019,4,3,0,60,0,0
28080,-188.679245283019,4,3,0,60,0,0
28124,-188.679245283019,4,3,0,60,0,0
28344,-188.679245283019,4,3,0,60,0,0
28356,-188.679245283019,4,3,0,70,0,0
28388,-188.679245283019,4,3,0,70,0,0
28521,-188.679245283019,4,3,0,70,0,0
32756,-100,4,3,0,70,0,0
33065,-100,4,3,0,70,0,0
33109,-100,4,3,0,70,0,0
33418,-100,4,3,0,70,0,0
33462,-100,4,3,0,70,0,0
33638,-66.6666666666667,4,3,0,70,0,0
33815,-50,4,3,0,70,0,0
33991,-50,4,3,0,70,0,1
34344,-66.6666666666667,4,3,0,70,0,1
35403,-66.6666666666667,4,3,0,70,0,1
35756,-100,4,3,0,70,0,1
36815,-80,4,3,0,70,0,1
37168,-100,4,3,0,70,0,1
38933,-66.6666666666667,4,3,0,70,0,1
39638,-50,4,3,0,70,0,1
39991,-66.6666666666667,4,3,0,70,0,1
41050,-66.6666666666667,4,3,0,70,0,1
41403,-100,4,3,0,70,0,1
42462,-400,4,3,0,70,0,1
42815,-100,4,3,0,70,0,1
45462,-133.333333333333,4,3,0,70,0,0
45697,-66.6666666666667,4,3,0,70,0,0
45815,-66.6666666666667,4,3,0,70,0,1
46168,-100,4,3,0,70,0,1
47227,-80,4,3,0,70,0,1
47580,-66.6666666666667,4,3,0,70,0,1
48285,-100,4,3,0,70,0,1
48638,-66.6666666666667,4,3,0,70,0,1
48991,-100,4,3,0,70,0,1
51109,-80,4,3,0,70,0,1
54638,-133.333333333333,4,3,0,70,0,1
56756,-133.333333333333,4,3,0,70,0,0
69462,-800,4,3,0,70,0,0
69638,-400,4,3,0,70,0,0
69815,-200,4,3,0,70,0,0
69991,-133.333333333333,4,3,0,70,0,0
70168,-66.6666666666667,4,3,0,70,0,0
70344,-50,4,3,0,70,0,0
70521,-40,4,3,0,70,0,0
70697,-30,4,3,0,70,0,0
71756,-66.6666666666667,4,3,0,70,0,0
72285,-100,4,3,0,70,0,0
72991,-100,4,3,0,70,0,0
73697,-40,4,3,0,70,0,0
74580,-100,4,3,0,70,0,0
75815,-100,4,3,0,70,0,0
76521,-60.2409638554217,4,3,0,70,0,0
78815,-40,4,3,0,70,0,0
79344,-100,4,3,0,70,0,0
79697,-40,4,3,0,70,0,0
80227,-100,4,3,0,70,0,0
81109,-66.6666666666667,4,3,0,70,0,0
81991,-50,4,2,0,70,0,1
82344,-66.6666666666667,4,2,0,70,0,1
82697,-100,4,2,0,70,0,1
83403,-66.6666666666667,4,2,0,70,0,1
83756,-100,4,2,0,70,0,1
84815,-80,4,2,0,70,0,1
87638,-50,4,2,0,70,0,1
87991,-66.6666666666667,4,2,0,70,0,1
89050,-66.6666666666667,4,2,0,70,0,1
89403,-100,4,2,0,70,0,1
90462,-400,4,2,0,70,0,1
91344,-100,4,2,0,70,0,1
92183,-100,4,2,0,70,0,1
92227,-100,4,2,0,70,0,1
92535,-100,4,2,0,70,0,1
92580,-100,4,2,0,70,0,1
92888,-100,4,2,0,70,0,1
92933,-100,4,3,0,70,0,0
93285,-66.6666666666667,4,3,0,70,0,1
93462,-133.333333333333,4,3,0,70,0,1
93815,-66.6666666666667,4,3,0,70,0,1
94168,-100,4,3,0,70,0,1
95227,-80,4,3,0,70,0,1
96109,-66.6666666666667,4,3,0,70,0,1
96462,-80,4,3,0,70,0,1
96991,-200,4,3,0,70,0,1
98050,-100,4,3,0,70,0,1
99109,-200,4,3,0,70,0,1
99638,-50,4,3,0,70,0,1
99815,-200,4,3,0,70,0,1
100344,-50,4,3,0,70,0,1
100521,-200,4,3,0,70,0,1
101050,-50,4,3,0,70,0,1
101227,-100,4,3,0,70,0,1
101756,-50,4,3,0,70,0,1
102285,-100,4,3,0,70,0,1
103168,-200,4,3,0,70,0,1
104580,-100,4,3,0,70,0,0
105991,-80,4,3,0,70,0,0
107403,-66.6666666666667,4,3,0,70,0,0
110227,-100,4,3,0,70,0,0
115874,-66.6666666666667,4,3,0,70,0,1
116050,-66.6666666666667,4,3,0,70,0,0
116227,-100,4,3,0,70,0,0
118697,-66.6666666666667,4,3,0,70,0,0
119050,-100,4,3,0,70,0,0
119933,-50,4,3,0,70,0,0
120462,-66.6666666666667,4,3,0,70,0,0
120991,-100,4,3,0,70,0,0
121521,-66.6666666666667,4,3,0,70,0,0
122050,-100,4,3,0,70,0,0
122933,-66.6666666666667,4,3,0,70,0,0
123285,-100,4,3,0,70,0,0
124344,-66.6666666666667,4,3,0,70,0,0
124697,-100,4,3,0,70,0,0
125050,-200,4,3,0,70,0,0
126109,-66.6666666666667,4,3,0,70,0,0
126638,-50,4,3,0,70,0,0
126815,-100,4,3,0,70,0,0
126991,-133.333333333333,4,3,0,70,0,0
127168,-66.6666666666667,4,3,0,70,0,1
127344,-66.6666666666667,4,3,0,70,0,0
137138,-66.6666666666667,4,3,0,70,0,0
137403,-66.6666666666667,4,3,0,70,0,0
148344,-200,4,3,0,70,0,0
148521,-66.6666666666667,4,3,0,70,0,0
149050,-200,4,3,0,70,0,0
149756,-50,4,3,0,70,0,1
150285,-100,4,3,0,70,0,1
151168,-66.6666666666667,4,3,0,70,0,1
151609,-100,4,3,0,70,0,1
152580,-66.6666666666667,4,3,0,70,0,1
153109,-100,4,3,0,70,0,1
154168,-200,4,3,0,70,0,1
154874,-100,4,2,0,70,0,1
155227,-133.333333333333,4,3,0,70,0,1
155403,-50,4,3,0,70,0,1
155933,-100,4,3,0,70,0,1
156815,-66.6666666666667,4,3,0,70,0,1
157344,-100,4,3,0,70,0,1
158227,-50,4,3,0,70,0,1
158756,-100,4,3,0,70,0,1
159638,-200,4,3,0,70,0,1
159991,-66.6666666666667,4,3,0,70,0,1
160874,-66.6666666666667,4,3,0,70,0,0
161227,-66.6666666666667,4,3,0,70,0,1
161315,-66.6666666666667,4,3,0,70,0,0
165462,-133.333333333333,4,3,0,70,0,0
165815,-66.6666666666667,4,3,0,70,0,0
165991,-100,4,3,0,70,0,0
166212,-100,4,3,0,70,0,0
166344,-100,4,3,0,70,0,0
166388,-100,4,3,0,70,0,0
166521,-100,4,3,0,70,0,0
166565,-100,4,3,0,70,0,0
166697,-100,4,3,0,70,0,0
166874,-66.6666666666667,4,3,0,70,0,0
170403,-125,4,3,0,70,0,0
170933,-62.5,4,3,0,70,0,0
172168,-66.6666666666667,4,3,0,70,0,0
172521,-66.6666666666667,4,3,0,70,0,1
172785,-66.6666666666667,4,3,0,70,0,0
174638,-200,4,3,0,70,0,0
175344,-66.6666666666667,4,3,0,70,0,0
178168,-50,4,3,0,70,0,0
178521,-100,4,3,0,70,0,0
180197,-50,4,3,0,70,0,0
180638,-100,4,3,0,70,0,0
183815,-66.6666666666667,4,3,0,70,0,0
183859,-66.6666666666667,4,3,0,70,0,1
183991,-66.6666666666667,4,3,0,70,0,1
184035,-66.6666666666667,4,3,0,70,0,1
184168,-66.6666666666667,4,3,0,70,0,1
184212,-66.6666666666667,4,3,0,70,0,1
184344,-66.6666666666667,4,3,0,70,0,1
184388,-66.6666666666667,4,3,0,70,0,1
184521,-66.6666666666667,4,3,0,70,0,1
184565,-66.6666666666667,4,3,0,70,0,1
184697,-66.6666666666667,4,3,0,70,0,1
184741,-66.6666666666667,4,3,0,70,0,1
184874,-66.6666666666667,4,3,0,70,0,1
184918,-66.6666666666667,4,3,0,70,0,1
185050,-66.6666666666667,4,3,0,70,0,1
185094,-66.6666666666667,4,3,0,70,0,1
185227,-66.6666666666667,4,3,0,70,0,1
185271,-66.6666666666667,4,3,0,70,0,1
185403,-66.6666666666667,4,3,0,70,0,1
185447,-66.6666666666667,4,3,0,70,0,1
185580,-66.6666666666667,4,3,0,70,0,1
185624,-66.6666666666667,4,3,0,70,0,1
185756,-66.6666666666667,4,3,0,70,0,1
185800,-66.6666666666667,4,3,0,70,0,1
185933,-66.6666666666667,4,3,0,70,0,1
185977,-66.6666666666667,4,3,0,70,0,1
186109,-66.6666666666667,4,3,0,70,0,1
186153,-66.6666666666667,4,3,0,70,0,1
186285,-66.6666666666667,4,3,0,70,0,1
186330,-66.6666666666667,4,3,0,70,0,1
186462,-66.6666666666667,4,3,0,70,0,1
186506,-66.6666666666667,4,3,0,70,0,1
186638,-66.6666666666667,4,3,0,70,0,1
188800,-66.6666666666667,4,3,0,70,0,1
188933,-50,4,3,0,70,0,1
188977,-50,4,3,0,70,0,1
189109,-40,4,3,0,70,0,1
189153,-40,4,3,0,70,0,1
189285,-40,4,3,0,70,0,1
189330,-40,4,3,0,70,0,1
189462,-66.6666666666667,4,3,0,70,0,1
192991,-90.9090909090909,4,3,0,70,0,1
195109,-100,4,2,0,70,0,0
195815,-100,4,2,0,70,0,0
197227,-133.333333333333,4,2,0,70,0,0
197933,-200,4,2,0,70,0,0
198462,-300,4,2,0,70,0,0
204109,-400,4,2,0,70,0,0
204462,-600,4,2,0,70,0,0
204815,-800,4,2,0,70,0,0
205168,-8000,4,2,0,70,0,0

[Colours]
Combo1 : 128,128,255
Combo2 : 255,255,128
Combo3 : 179,102,255
Combo4 : 128,255,128

[HitObjects]
132,284,286,5,0,0:0:0:0:
96,108,462,1,0,0:0:0:0:
152,276,638,1,2,0:0:0:0:
172,268,815,1,0,0:0:0:0:
176,80,991,1,2,0:0:0:0:
192,260,1168,1,0,0:0:0:0:
256,52,1344,1,0,0:0:0:0:
212,252,1521,1,0,0:0:0:0:
380,284,1697,5,0,0:0:0:0:
416,108,1873,1,0,0:0:0:0:
360,276,2049,1,0,0:0:0:0:
340,268,2226,1,2,0:0:0:0:
336,80,2402,1,2,0:0:0:0:
320,260,2579,1,0,0:0:0:0:
256,52,2755,1,2,0:0:0:0:
300,252,2932,1,0,0:0:0:0:
116,196,3109,5,0,0:0:0:0:
28,188,3286,1,0,0:0:0:0:
188,132,3462,1,2,0:0:0:0:
200,112,3638,1,0,0:0:0:0:
60,268,3815,1,2,0:0:0:0:
200,216,3991,1,0,0:0:0:0:
88,116,4168,1,0,0:0:0:0:
116,196,4344,1,0,0:0:0:0:
396,196,4521,5,0,0:0:0:0:
484,188,4698,1,0,0:0:0:0:
324,132,4874,1,0,0:0:0:0:
312,112,5050,1,2,0:0:0:0:
452,268,5227,1,2,0:0:0:0:
312,216,5403,1,0,0:0:0:0:
424,116,5580,1,0,0:0:0:0:
396,196,5756,1,0,0:0:0:0:
356,380,5933,6,0,L|372:276,1,100,4|0,0:0|0:0,0:0:0:0:
408,32,6285,1,2,0:0:0:0:
328,64,6462,1,0,0:0:0:0:
480,184,6638,1,8,0:0:0:0:
504,172,6815,1,4,0:0:0:0:
304,80,6991,2,0,L|200:88,1,100,2|0,0:0|0:0,0:0:0:0:
24,232,7344,5,4,0:0:0:0:
184,92,7521,1,0,0:0:0:0:
84,32,7697,1,2,0:0:0:0:
144,168,7874,1,0,0:0:0:0:
92,48,8050,1,8,0:0:0:0:
84,32,8227,1,4,0:0:0:0:
136,192,8403,2,0,L|116:308,1,100,2|8,0:0|0:0,0:0:0:0:
16,68,8756,6,0,P|-8:108|64:148,1,150,4|0,0:0|0:0,0:0:0:0:
120,212,9109,2,0,L|236:232,1,100,2|0,0:0|0:0,0:0:0:0:
328,352,9462,1,8,0:0:0:0:
244,236,9638,1,4,0:0:0:0:
448,348,9815,2,0,L|332:328,1,100,2|0,0:0|0:0,0:0:0:0:
260,144,10168,6,0,B|224:84|280:28|280:28|292:60,1,150,4|0,0:0|0:0,0:0:0:0:
424,170,10521,2,0,P|384:197|336:192,1,100,2|0,0:0|0:0,0:0:0:0:
280,28,10874,1,8,0:0:0:0:
512,164,11050,1,4,0:0:0:0:
368,112,11227,1,2,0:0:0:0:
480,32,11403,1,8,0:0:0:0:
472,248,11580,6,0,B|488:272|488:272|472:368,1,100,4|0,2:0|0:0,0:0:0:0:
184,120,11933,2,0,B|168:96|168:96|184:0,1,100,0|0,1:0|0:0,0:0:0:0:
380,280,12285,2,0,B|381:298|381:298|296:280,1,100,8|0,0:0|0:0,0:0:0:0:
220,264,12550,1,2,2:0:0:0:
204,248,12638,1,6,2:3:0:0:
280,200,12815,5,0,0:0:0:0:
240,344,12991,1,4,0:0:0:0:
128,212,13168,1,0,0:0:0:0:
280,356,13344,2,0,L|172:331,1,100,0|0,1:0|0:0,0:0:0:0:
32,204,13697,2,0,B|16:160|52:124|52:124|64:152,1,100,8|4,0:0|0:0,0:0:0:0:
108,240,13962,1,2,2:0:0:0:
92,264,14050,1,4,0:0:0:0:
32,48,14227,1,0,0:0:0:0:
280,136,14403,6,0,P|332:132|344:48,1,150,4|0,0:0|0:0,0:0:0:0:
196,112,14756,2,0,L|216:228,1,100,2|0,0:0|0:0,0:0:0:0:
480,344,15109,2,0,B|468:280|468:280|432:248,1,100,8|4,0:0|0:0,0:0:0:0:
380,200,15374,1,2,2:0:0:0:
372,224,15462,1,4,0:0:0:0:
332,352,15638,1,0,0:0:0:0:
460,180,15815,5,4,0:0:0:0:
344,328,15991,1,0,0:0:0:0:
380,200,16168,1,0,1:0:0:0:
328,360,16344,1,0,0:0:0:0:
292,212,16521,2,0,L|176:232,1,100,8|4,0:0|0:0,0:0:0:0:
112,248,16785,1,2,0:0:0:0:
96,268,16874,1,4,0:0:0:0:
216,344,17050,1,4,0:0:0:0:
96,168,17227,6,0,B|76:156|72:140|72:140|28:152|12:208|12:208|28:196,1,150,4|0,0:0|0:0,0:0:0:0:
181,148,17580,2,0,P|232:132|261:76,1,100,0|2,0:0|0:0,0:0:0:0:
180,68,17933,5,0,0:0:0:0:
344,192,18109,1,0,0:0:0:0:
380,192,18197,1,0,0:0:0:0:
416,176,18285,1,0,3:0:0:0:
180,68,18462,1,2,0:0:0:0:
112,244,18638,6,0,P|56:256|-4:260,2,100,0|0|0,0:0|0:0|3:0,0:0:0:0:
204,352,19168,6,0,B|189:321|210:264|250:258|250:258|235:278|234:303,1,150,0|0,0:0|0:0,0:0:0:0:
305,310,19521,2,0,P|332:328|361:330,1,50,0|0,0:0|0:0,0:0:0:0:
432,256,19697,6,0,L|428:224,1,25,0|0,3:0|0:0,0:0:0:0:
448,240,19874,2,0,L|444:208,1,25,2|0,0:0|0:0,0:0:0:0:
432,80,20050,5,2,0:0:0:0:
444,52,20227,1,0,0:0:0:0:
332,87,20403,2,0,L|444:79,1,100,0|2,3:0|0:0,0:0:0:0:
256,192,20756,5,0,0:0:0:0:
268,220,20933,1,0,0:0:0:0:
156,185,21109,2,0,L|268:193,1,100,0|0,3:0|0:0,0:0:0:0:
36,300,21462,5,0,0:0:0:0:
228,360,21638,1,0,0:0:0:0:
400,268,21815,5,0,3:0:0:0:
408,160,21991,2,0,B|432:132|432:132|420:244,1,150,0|0,0:0|0:0,0:0:0:0:
399,268,22344,2,0,P|353:287|305:280,1,100,0|0,0:0|3:0,0:0:0:0:
460,40,22697,1,0,0:0:0:0:
232,188,22874,6,0,B|192:224|139:195|139:195|135:249|88:281|24:258|1:193|48:133|94:142|128:173,1,371.000000566101,2|0,0:0|0:0,0:0:0:0:
184,128,24285,6,0,B|208:105|259:106|286:132|286:132|324:68|400:72|400:72|372:116|392:156|392:156|376:184|383:217|383:217|392:200|408:192,1,424.000000646973,0|2,0:0|0:0,0:0:0:0:
448,256,26050,5,0,0:0:0:0:
370,341,26403,5,0,0:0:0:0:
256,352,26756,5,0,3:0:0:0:
64,256,27109,6,0,L|88:248,1,13.2500000202179,0|0,0:0|0:0,0:0:0:0:
407,326,27374,2,0,L|388:309,1,13.2500000202179,0|0,0:0|0:0,0:0:0:0:
296,0,27638,2,0,L|291:18,1,13.2500000202179,2|0,0:0|0:0,0:0:0:0:
114,66,27815,6,0,L|104:57,1,13.2500000202179,0|0,0:0|0:0,0:0:0:0:
435,132,28079,2,0,L|447:128,1,13.2500000202179,0|0,0:0|0:0,0:0:0:0:
218,377,28344,2,0,L|215:390,1,13.2500000202179,0|0,0:0|0:0,0:0:0:0:
128,304,28521,5,4,0:0:0:0:
368,320,28874,1,0,0:0:0:0:
384,80,29227,1,2,0:0:0:0:
144,64,29580,1,8,0:0:0:0:
261,257,29933,5,2,0:0:0:0:
321,205,30109,1,0,0:0:0:0:
290,131,30285,1,2,0:0:0:0:
211,138,30461,1,0,0:0:0:0:
193,216,30638,5,2,0:0:0:0:
321,205,30815,1,0,0:0:0:0:
211,138,30991,1,4,0:3:0:0:
261,257,31168,1,0,0:0:0:0:
290,131,31344,1,2,0:0:0:0:
290,131,32050,5,2,0:0:0:0:
260,256,32227,1,0,0:0:0:0:
132,186,32403,5,8,0:0:0:0:
161,310,32580,1,0,0:0:0:0:
52,192,32756,6,0,P|104:112|176:120,1,175,0|0,0:0|0:0,0:0:0:0:
50,189,33109,2,0,P|90:116|174:118,1,175,0|0,0:0|0:0,0:0:0:0:
132,184,33462,6,0,P|140:224|136:252,1,50,0|0,1:0|0:0,0:0:0:0:
132,184,33638,6,0,P|141:220|143:257,1,75.0000028610231,0|0,1:0|0:0,0:0:0:0:
132,184,33815,6,0,P|148:267|140:326,1,100,0|0,1:0|0:0,0:0:0:0:
108,348,33991,6,0,B|64:308|64:308|112:256|192:320|192:320|252:300|308:348,1,300,4|0,2:0|0:0,0:0:0:0:
460,352,34344,6,0,B|431:357|431:357|389:337|389:337|369:295|369:295|375:267,1,150.000005722046,8|2,0:0|0:0,0:0:0:0:
404,84,34697,1,2,0:0:0:0:
396,64,34785,1,2,0:0:0:0:
428,32,34874,5,4,0:0:0:0:
480,112,35050,1,4,0:0:0:0:
384,248,35227,1,2,0:0:0:0:
288,112,35403,6,0,B|330:94|373:147|373:147|348:151|348:151|361:168|361:168|319:176|302:222,1,225.000008583069,4|0,2:0|0:0,0:0:0:0:
468,287,35756,6,0,P|425:250|357:258,1,100,4|2,0:0|0:0,0:0:0:0:
192,356,36109,1,2,0:0:0:0:
211,347,36197,1,2,0:0:0:0:
243,379,36286,5,8,0:0:0:0:
300,296,36462,1,4,0:0:0:0:
84,288,36638,1,2,0:0:0:0:
164,132,36815,6,0,B|124:168|136:208|136:208|116:212|116:212|164:232|168:284,1,187.5,4|0,2:0|0:0,0:0:0:0:
104,321,37168,6,0,P|67:328|94:290,1,100,0|0,0:0|0:0,0:0:0:0:
236,184,37521,5,2,0:0:0:0:
244,104,37609,1,2,0:0:0:0:
180,56,37697,1,8,0:0:0:0:
212,64,37874,5,4,0:0:0:0:
292,76,38050,1,2,0:0:0:0:
356,28,38227,2,0,P|408:32|444:72,1,100,2|0,2:0|0:0,0:0:0:0:
512,316,38580,2,0,P|460:312|424:272,1,100,2|0,2:0|0:0,0:0:0:0:
404,142,38933,6,0,P|350:166|372:112,1,150.000005722046,0|0,1:0|0:0,0:0:0:0:
464,208,39285,2,0,P|517:183|496:238,1,150.000005722046,0|0,1:0|0:0,0:0:0:0:
268,340,39638,6,0,B|236:316|216:272|252:212|316:236|316:236|328:276|328:276|368:260|416:296,1,300,4|0,2:0|0:0,0:0:0:0:
268,340,39991,6,0,P|200:356|144:296,1,150.000005722046,4|8,0:0|0:0,0:0:0:0:
52,128,40344,1,2,0:0:0:0:
68,68,40433,1,2,0:0:0:0:
128,60,40521,1,8,0:0:0:0:
84,176,40697,5,4,0:0:0:0:
48,28,40874,1,2,0:0:0:0:
220,112,41050,6,0,B|262:120|292:86|292:86|348:101|348:101|364:52|420:48,1,225.000008583069,4|0,2:0|0:0,0:0:0:0:
512,164,41403,6,0,P|464:160|424:116,1,100,4|8,0:0|0:0,0:0:0:0:
410,49,41756,5,2,0:0:0:0:
416,124,41844,1,2,0:0:0:0:
420,200,41933,1,4,0:0:0:0:
436,376,42109,5,8,0:0:0:0:
332,184,42285,1,2,0:0:0:0:
488,308,42462,6,2,P|465:305|454:296,1,37.5,2|0,1:0|1:0,0:0:0:0:
300,264,42815,6,0,P|344:272|376:328,1,100,4|8,0:0|0:0,0:0:0:0:
236,316,43168,1,2,0:0:0:0:
164,328,43256,1,2,0:0:0:0:
108,280,43344,1,8,0:0:0:0:
204,144,43521,1,12,0:0:0:0:
236,316,43697,1,2,0:0:0:0:
60,108,43874,6,0,L|128:124,1,50,4|0,2:0|0:0,0:0:0:0:
220,236,44050,2,0,L|152:220,1,50,2|0,2:0|0:0,0:0:0:0:
172,64,44227,5,4,0:0:0:0:
248,68,44315,1,0,0:0:0:0:
288,132,44403,1,2,2:0:0:0:
332,156,44491,5,0,0:0:0:0:
380,144,44580,1,2,2:0:0:0:
400,104,44668,1,0,0:0:0:0:
332,56,44756,5,2,2:0:0:0:
300,240,44933,1,4,0:0:0:0:
488,156,45109,1,2,0:0:0:0:
256,8,45285,5,4,2:0:0:0:
392,200,45462,2,0,P|404:252|384:296,1,75.0000028610231,0|0,0:0|0:0,0:0:0:0:
392,200,45815,6,0,B|412:236|400:272|400:272|352:252|311:278|311:278|282:264|248:272,1,225.000008583069,0|0,0:0|0:0,0:0:0:0:
271,348,46168,2,0,P|239:320|267:264,1,100,0|0,0:0|0:0,0:0:0:0:
360,340,46433,1,0,0:0:0:0:
357,360,46521,1,0,0:0:0:0:
112,272,46697,1,0,0:0:0:0:
104,184,46874,6,0,L|92:300,1,100,0|0,0:0|0:0,0:0:0:0:
124,147,47138,1,0,0:0:0:0:
124,147,47227,2,0,L|108:298,1,125,0|0,0:0|0:0,0:0:0:0:
312,360,47580,6,0,B|340:327|332:284|332:284|400:328|468:292,1,225.000008583069,0|0,0:0|0:0,0:0:0:0:
252,304,47933,6,0,P|235:277|255:189,1,75.0000028610231,0|0,0:0|0:0,0:0:0:0:
384,140,48109,2,0,P|401:167|381:255,1,75.0000028610231,0|0,0:0|0:0,0:0:0:0:
252,304,48285,2,0,L|148:300,1,100,0|0,0:0|0:0,0:0:0:0:
46,143,48638,6,0,B|72:156|72:156|48:329|48:329|68:340,1,225.000008583069,0|0,0:0|0:0,0:0:0:0:
47,144,48991,2,0,L|158:140,1,100,0|0,0:0|0:0,0:0:0:0:
168,280,49256,1,0,0:0:0:0:
152,300,49344,2,0,L|252:304,1,100,0|0,0:0|0:0,0:0:0:0:
428,192,49697,5,0,0:0:0:0:
424,104,49874,1,0,0:0:0:0:
320,176,50050,5,0,0:0:0:0:
325,55,50227,1,0,0:0:0:0:
204,200,50403,5,0,0:0:0:0:
197,47,50580,1,0,0:0:0:0:
84,216,50756,5,0,0:0:0:0:
93,14,50933,1,0,0:0:0:0:
18,303,51109,6,0,P|86:355|54:223,1,312.5,0|0,0:0|0:0,0:0:0:0:
86,285,51638,2,0,P|170:317|190:305,1,62.5,0|0,0:0|0:0,0:0:0:0:
272,328,51815,6,0,P|351:295|220:256,1,312.5,0|0,0:0|0:0,0:0:0:0:
290,260,52344,2,0,P|359:203|359:179,1,62.5,0|0,0:0|0:0,0:0:0:0:
424,120,52521,6,0,P|435:35|336:128,1,312.5,0|0,0:0|0:0,0:0:0:0:
374,70,53050,2,0,P|359:-18|339:-30,1,62.5,0|0,0:0|0:0,0:0:0:0:
197,100,53227,6,0,L|69:104,2,125,0|0|0,0:0|0:0|0:0,0:0:0:0:
264,328,53756,6,0,B|288:300|288:300|438:292,1,187.5,0|0,0:0|0:0,0:0:0:0:
512,297,54109,2,0,P|496:341|448:361,1,62.5,0|0,0:0|0:0,0:0:0:0:
449,168,54285,6,0,L|437:300,1,125,0|0,0:0|0:0,0:0:0:0:
72,103,54638,6,0,L|63:216,1,112.500004291535,0|0,0:0|0:0,0:0:0:0:
164,300,54991,1,0,0:0:0:0:
164,300,55080,1,0,0:0:0:0:
164,300,55168,6,0,P|200:260|260:260,1,112.500004291535,0|0,0:0|0:0,0:0:0:0:
315,384,55521,2,0,P|262:372|232:320,1,112.500004291535,0|0,0:0|0:0,0:0:0:0:
344,176,55874,5,0,0:0:0:0:
304,312,56050,1,0,0:0:0:0:
198,123,56227,5,0,3:0:0:0:
335,90,56403,1,0,3:0:0:0:
225,276,56580,5,0,3:0:0:0:
128,173,56756,1,0,3:0:0:0:
96,288,59580,5,0,0:0:0:0:
96,288,59756,1,8,0:0:0:0:
87,213,59933,2,0,L|99:313,1,75.0000028610231,0|2,0:0|0:0,0:0:0:0:
76,124,60285,5,0,0:0:0:0:
95,287,60462,1,8,0:0:0:0:
156,156,60638,2,0,P|164:108|144:68,1,75.0000028610231,0|2,0:0|0:0,0:0:0:0:
16,304,60991,5,0,0:0:0:0:
32,344,61080,1,0,0:0:0:0:
104,368,61168,1,8,0:0:0:0:
168,320,61344,5,0,0:0:0:0:
248,324,61521,1,2,0:0:0:0:
296,256,61697,1,0,0:0:0:0:
168,320,61874,5,8,0:0:0:0:
328,332,62050,1,0,0:0:0:0:
212,252,62227,1,4,0:0:0:0:
412,316,62403,6,0,P|448:304|472:268,1,75.0000028610231,0|8,0:0|0:0,0:0:0:0:
460,76,62756,1,0,0:0:0:0:
400,232,62933,1,2,0:0:0:0:
472,188,63109,2,0,P|448:158|406:148,1,75.0000028610231,0|8,0:0|0:0,0:0:0:0:
336,176,63462,5,4,0:0:0:0:
480,56,63638,1,2,0:0:0:0:
280,120,63815,5,4,0:3:0:0:
232,148,63903,1,0,0:0:0:0:
220,100,63991,1,8,0:0:0:0:
276,40,64168,5,8,0:0:0:0:
136,144,64344,1,4,0:3:0:0:
139,69,64521,2,0,L|135:157,1,75.0000028610231,2|8,0:0|0:0,0:0:0:0:
120,360,64874,1,8,0:0:0:0:
56,184,65050,1,4,0:0:0:0:
80,288,65227,6,0,P|56:280|84:280,1,75.0000028610231,0|8,0:0|0:0,0:0:0:0:
80,288,65580,1,0,0:0:0:0:
160,288,65756,1,2,0:0:0:0:
204,356,65933,5,0,0:0:0:0:
80,288,66109,1,8,0:0:0:0:
244,280,66285,1,0,0:0:0:0:
80,288,66462,1,2,0:0:0:0:
288,352,66638,5,0,0:0:0:0:
324,324,66727,1,0,0:0:0:0:
320,248,66815,1,8,0:0:0:0:
192,212,66991,5,0,0:0:0:0:
404,280,67168,1,2,0:0:0:0:
308,48,67344,1,0,0:0:0:0:
404,280,67521,1,8,0:0:0:0:
320,72,67697,1,0,0:0:0:0:
468,224,67874,1,4,0:0:0:0:
440,148,68050,5,0,0:0:0:0:
356,152,68227,1,8,0:0:0:0:
320,72,68403,1,2,0:0:0:0:
440,148,68580,1,0,0:0:0:0:
320,72,68756,6,0,L|220:60,1,75.0000028610231,8|0,0:0|0:0,0:0:0:0:
0,140,69109,2,0,B|24:128|24:128|92:136,1,75.0000028610231,2|0,0:0|0:0,0:0:0:0:
204,276,69374,1,0,0:0:0:0:
136,336,69462,6,0,L|128:333,1,6.25,8|0,0:0|0:0,0:0:0:0:
136,336,69638,6,0,L|120:330,1,12.5,8|0,0:0|0:0,0:0:0:0:
136,336,69815,6,0,L|90:319,1,25,2|0,0:0|0:0,0:0:0:0:
136,336,69991,6,0,L|72:312,1,37.5000014305115,0|0,0:0|0:0,0:0:0:0:
136,336,70168,6,0,L|45:303,1,75.0000028610231,8|0,0:0|0:0,0:0:0:0:
136,336,70344,6,0,B|53:305|53:305|75:292,1,100,0|0,0:0|0:0,0:0:0:0:
136,336,70521,6,0,B|38:300|38:300|99:297,1,125,4|0,0:0|0:0,0:0:0:0:
136,336,70697,6,0,B|18:293|18:293|91:289,1,166.666666666667,0|0,0:0|0:0,0:0:0:0:
59,290,70874,6,0,B|56:216|56:216|68:188|68:188|63:125,1,166.666666666667,8|0,0:0|0:0,0:0:0:0:
56,44,71050,1,0,0:0:0:0:
56,44,71403,5,0,0:0:0:0:
140,78,71580,2,0,B|214:75|214:75|242:87|242:87|303:82,1,166.666666666667,8|0,0:0|0:0,0:0:0:0:
388,32,71756,1,0,0:0:0:0:
388,32,72108,5,0,0:0:0:0:
461,159,72285,5,8,0:0:0:0:
466,142,72374,1,0,0:0:0:0:
471,125,72462,1,0,0:0:0:0:
388,32,72638,5,2,0:0:0:0:
312,96,72815,1,2,0:0:0:0:
312,192,72991,1,8,0:3:0:0:
398,348,73168,6,0,L|448:352,1,50,4|0,0:3|0:0,0:0:0:0:
468,336,73344,2,0,L|416:332,1,50,4|0,0:0|0:0,0:0:0:0:
284,307,73521,2,0,L|234:303,1,50,0|0,0:0|0:0,0:0:0:0:
44,328,73697,6,0,B|24:296|24:296|36:200,1,125,8|0,0:0|0:0,0:0:0:0:
60,312,73874,2,0,B|40:280|40:280|52:184,1,125,0|0,0:0|0:0,0:0:0:0:
124,164,74050,6,0,P|78:118|8:128,1,125,2|0,0:0|0:0,0:0:0:0:
21,120,74227,2,0,P|81:119|123:163,1,125,0|0,0:0|0:0,0:0:0:0:
52,192,74403,5,8,0:0:0:0:
144,330,74580,2,0,P|193:331|235:304,1,100,0|2,0:0|0:0,0:0:0:0:
280,72,74933,1,0,0:0:0:0:
448,204,75109,5,8,0:0:0:0:
464,196,75197,1,0,0:0:0:0:
484,112,75285,5,2,0:0:0:0:
400,56,75462,5,8,0:0:0:0:
280,72,75638,5,0,0:0:0:0:
201,196,75815,6,0,P|125:224|89:204,1,100,8|0,0:0|0:0,0:0:0:0:
44,168,76080,1,0,0:0:0:0:
44,168,76168,2,0,P|120:140|156:160,1,100,4|0,0:0|0:0,0:0:0:0:
429,41,76521,5,8,0:0:0:0:
224,196,76697,1,0,0:0:0:0:
436,356,76874,2,0,L|420:272,1,83.0000012031555,2|0,0:0|0:0,0:0:0:0:
472,284,77050,2,0,P|440:232|392:224,1,83.0000012031555,0|0,0:0|0:0,0:0:0:0:
232,296,77227,6,0,P|254:352|300:368,1,83.0000012031555,8|0,0:0|0:0,0:0:0:0:
392,296,77403,2,0,P|332:281|293:310,1,83.0000012031555,0|0,0:0|0:0,0:0:0:0:
303,207,77580,2,0,L|318:315,1,83.0000012031555,2|0,0:0|0:0,0:0:0:0:
348,364,77756,5,0,0:0:0:0:
296,128,77933,1,8,0:0:0:0:
348,60,78021,1,0,0:0:0:0:
428,76,78109,1,0,0:0:0:0:
224,180,78285,5,2,0:0:0:0:
140,198,78462,1,0,0:0:0:0:
89,134,78638,1,8,0:0:0:0:
106,65,78815,6,0,B|142:109|134:157|134:157|94:137,1,125,0|0,0:0|0:0,0:0:0:0:
116,226,78991,2,0,B|80:182|88:134|88:134|128:154,1,125,4|0,0:0|0:0,0:0:0:0:
202,186,79168,6,0,L|82:130,1,125,0|0,0:0|0:0,0:0:0:0:
88,133,79344,6,0,L|152:164,1,50,8|0,0:0|0:0,0:0:0:0:
232,288,79521,2,0,L|168:257,1,50,0|0,0:0|0:0,0:0:0:0:
309,66,79697,6,0,B|303:122|263:150|263:150|249:108,1,125,2|0,0:0|0:0,0:0:0:0:
202,186,79873,2,0,B|207:129|247:101|247:101|261:143,1,125,0|0,0:0|0:0,0:0:0:0:
291,219,80050,6,0,L|245:94,1,125,8|0,0:0|0:0,0:0:0:0:
248,101,80227,6,0,L|271:168,1,50,0|0,0:0|0:0,0:0:0:0:
240,312,80403,2,0,L|216:244,1,50,2|0,0:0|0:0,0:0:0:0:
172,48,80580,5,0,0:0:0:0:
392,44,80756,5,8,0:0:0:0:
464,80,80844,1,0,0:0:0:0:
456,160,80933,1,0,0:0:0:0:
98,56,81109,6,0,P|85:43|80:26,1,37.5000014305115,4|0,3:0|0:0,0:0:0:0:
217,198,81285,2,0,P|235:201|250:213,1,37.5000014305115,0|0,1:0|0:0,0:0:0:0:
37,153,81462,2,0,P|20:161|2:160,1,37.5000014305115,4|0,3:0|0:0,0:0:0:0:
211,84,81638,2,0,P|218:68|234:57,1,37.5000014305115,4|0,3:0|0:0,0:0:0:0:
110,240,81815,2,0,P|113:259|106:277,1,37.5000014305115,4|0,3:0|0:0,0:0:0:0:
198,281,81991,6,0,B|216:296|240:298|240:298|190:325|140:302|140:302|94:333|36:315|36:315|38:345|66:353,1,300,4|0,1:2|0:0,0:0:0:0:
80,228,82344,2,0,B|56:184|64:116|64:116|80:144|104:168,1,150.000005722046,8|2,3:0|3:0,0:0:0:0:
228,156,82697,5,2,0:0:0:0:
232,136,82785,1,2,0:0:0:0:
140,88,82874,5,4,3:0:0:0:
232,136,83050,1,4,3:0:0:0:
80,228,83227,1,0,1:0:0:0:
336,312,83403,6,0,B|323:335|299:346|299:346|353:358|390:326|390:326|432:336|465:312,1,225.000008583069,4|0,2:0|0:0,0:0:0:0:
416,248,83756,2,0,B|432:216|476:199|476:199|467:219,1,100,4|0,3:0|1:0,0:0:0:0:
264,276,84109,5,2,0:0:0:0:
240,268,84197,1,2,0:0:0:0:
168,308,84285,5,4,3:0:0:0:
140,129,84462,1,4,3:0:0:0:
168,308,84638,1,0,1:0:0:0:
140,129,84815,6,0,B|103:182|36:157|36:157|78:159|108:133,1,187.5,4|0,0:0|0:0,0:0:0:0:
48,71,85168,1,0,0:0:0:0:
47,46,85256,1,0,0:0:0:0:
54,22,85344,1,0,0:0:0:0:
256,192,85521,1,4,3:0:0:0:
464,71,85697,6,0,L|332:59,1,125,2|0,3:0|0:0,0:0:0:0:
353,257,86050,1,4,3:0:0:0:
461,230,86227,6,0,P|415:267|350:255,1,125,2|2,3:0|0:0,0:0:0:0:
325,286,86491,1,2,0:0:0:0:
325,286,86580,2,0,P|377:316|435:297,1,125,0|0,0:0|1:0,0:0:0:0:
325,388,86933,2,0,P|270:367|248:304,1,125,0|0,3:3|0:3,0:0:0:0:
74,294,87285,1,2,0:0:0:0:
87,235,87373,1,2,0:0:0:0:
139,204,87461,1,0,1:0:0:0:
248,308,87638,6,0,B|288:288|328:300|328:300|364:279|408:292|408:292|371:252|383:204|383:204|392:232|411:248,1,300,4|0,1:2|0:0,0:0:0:0:
458,180,87991,2,0,P|486:116|426:104,1,150.000005722046,4|2,3:0|3:0,0:0:0:0:
256,72,88344,1,2,0:0:0:0:
232,80,88433,1,2,0:0:0:0:
152,44,88521,5,4,3:0:0:0:
256,72,88697,1,4,3:0:0:0:
54,180,88874,5,0,1:0:0:0:
120,328,89050,6,0,B|128:300|144:284|144:284|128:240|132:184|132:184|128:235|66:264,1,225.000008583069,4|0,0:0|0:0,0:0:0:0:
200,344,89403,2,0,P|256:352|300:296,1,100,4|2,3:0|3:0,0:0:0:0:
440,348,89756,1,2,0:0:0:0:
428,332,89844,1,2,0:0:0:0:
464,252,89933,5,4,3:0:0:0:
288,327,90109,1,4,3:0:0:0:
464,252,90285,1,0,1:0:0:0:
314,141,90462,6,2,P|302:107|305:91,1,50,2|2,3:0|0:0,0:0:0:0:
304,93,90903,1,2,0:0:0:0:
304,93,90991,1,4,3:0:0:0:
464,252,91168,1,4,3:0:0:0:
286,324,91344,6,0,B|266:308|266:308|166:316,2,100,2|0|0,3:0|0:0|1:0,0:0:0:0:
127,364,91874,6,0,P|148:281|193:319,1,175,4|0,3:0|0:0,0:0:0:0:
193,316,92227,6,0,P|136:280|64:344,1,175,8|0,3:0|0:0,0:0:0:0:
64,341,92580,6,0,P|94:288|199:278,1,175,0|0,1:0|0:0,0:0:0:0:
199,278,92933,5,12,3:0:0:0:
56,128,93109,6,0,L|60:92,1,25,2|0,3:0|0:0,0:0:0:0:
276,28,93285,2,0,L|278:52,1,25,2|0,3:0|0:0,0:0:0:0:
352,316,93462,6,0,P|320:320|276:300,1,75.0000028610231,4|0,1:0|0:0,0:0:0:0:
377,218,93815,6,2,B|416:259|416:259|400:331|308:327|280:303,1,225.000008583069,8|0,3:0|0:0,0:0:0:0:
344,136,94168,6,0,L|333:242,1,100,8|4,0:0|0:0,0:0:0:0:
280,303,94433,1,0,0:0:0:0:
264,284,94521,1,2,0:0:0:0:
404,64,94697,1,0,0:0:0:0:
112,184,94874,2,0,P|80:176|52:112,1,100,4|0,0:0|0:0,0:0:0:0:
136,172,95138,1,0,0:0:0:0:
50,119,95227,6,0,P|128:80|152:160,1,187.5,8|0,0:0|0:0,0:0:0:0:
0,200,95580,1,2,0:0:0:0:
212,24,95756,1,8,0:0:0:0:
152,312,95933,1,4,0:0:0:0:
404,64,96109,6,0,B|420:26|420:26|504:46|486:155|392:163,1,225.000008583069,4|0,1:0|0:0,0:0:0:0:
292,264,96462,2,0,P|340:224|416:260,1,125,4|2,0:0|0:0,0:0:0:0:
324,368,96727,1,2,2:0:0:0:
312,348,96815,2,0,L|236:336,1,62.5,0|0,0:0|0:0,0:0:0:0:
44,228,96991,6,0,L|108:238,1,50,4|8,0:0|0:0,0:0:0:0:
392,320,97344,1,0,0:0:0:0:
116,316,97521,1,0,0:0:0:0:
188,32,97697,5,4,0:0:0:0:
200,56,97785,1,2,2:0:0:0:
156,124,97874,5,4,0:0:0:0:
144,148,97962,1,8,0:0:0:0:
216,196,98050,6,0,L|232:260,1,50,2|2,0:0|2:0,0:0:0:0:
80,84,98227,2,0,L|92:35,1,50,4|8,0:0|0:0,0:0:0:0:
264,112,98403,6,6,L|261:125,12,12.5,6|6|6|6|6|6|6|6|6|6|6|6|6,2:0|2:0|2:0|2:0|2:0|2:0|2:0|2:0|2:0|2:0|2:0|2:0|2:0,0:0:0:0:
156,124,98756,1,4,1:0:0:0:
344,16,98933,1,2,0:0:0:0:
404,156,99109,6,0,L|392:284,1,125,8|0,0:0|0:0,0:0:0:0:
361,336,99638,2,0,B|369:264|369:264|409:292,1,100,4|0,0:0|0:0,0:0:0:0:
211,236,99815,6,0,L|339:248,1,125,8|0,0:0|0:0,0:0:0:0:
391,279,100344,2,0,B|319:271|319:271|347:231,1,100,4|0,0:0|0:0,0:0:0:0:
500,312,100521,6,0,L|372:300,1,125,8|0,0:0|0:0,0:0:0:0:
320,269,101050,2,0,B|392:277|392:277|364:317,1,100,4|0,0:0|0:0,0:0:0:0:
124,308,101227,6,0,L|96:308,1,25,2|0,2:0|0:0,0:0:0:0:
87,210,101403,2,0,L|62:196,1,25,2|0,2:0|0:0,0:0:0:0:
105,107,101580,2,0,L|90:82,1,25,2|0,2:0|0:0,0:0:0:0:
316,44,101756,6,0,B|280:92|320:148|320:148|312:196|256:208|204:156|204:156|232:148|248:120,1,300,4|0,2:0|0:0,0:0:0:0:
188,76,102109,1,0,0:0:0:0:
391,87,102285,6,0,P|413:97|426:142,1,50,2|2,3:0|2:0,0:0:0:0:
434,268,102462,2,0,P|412:258|399:213,1,50,4|0,3:0|0:0,0:0:0:0:
352,16,102638,2,0,L|368:120,1,100,8|0,0:0|0:0,0:0:0:0:
420,348,102991,1,2,2:0:0:0:
367,114,103168,6,0,L|356:36,1,75,8|0,0:0|0:0,0:0:0:0:
452,184,103521,2,0,L|441:258,1,75,4|0,0:0|0:0,0:0:0:0:
420,348,103874,5,0,0:0:0:0:
252,192,104050,1,4,0:0:0:0:
328,232,104227,1,8,0:0:0:0:
148,352,104403,1,2,2:0:0:0:
96,56,104580,6,0,B|64:44|32:48|32:48|84:64|116:108|116:108|124:88|97:55,1,200,0|0,0:0|0:0,0:0:0:0:
346,228,105991,6,0,B|377:202|391:167|391:167|344:211|281:217|281:217|296:237|346:229,1,250,8|2,0:0|0:0,0:0:0:0:
104,296,107403,6,0,B|58:279|13:284|13:284|87:307|132:369|132:369|143:341|105:294,1,300.000011444092,8|2,0:0|0:0,0:0:0:0:
104,296,108815,6,0,B|58:279|13:284|13:284|87:307|132:369|132:369|143:341|105:294,1,300.000011444092,8|8,0:0|0:0,0:0:0:0:
208,108,109344,1,0,0:0:0:0:
237,271,109521,6,0,P|185:327|105:299,1,150.000005722046,8|0,0:0|0:0,0:0:0:0:
119,313,109785,1,0,0:0:0:0:
118,313,109874,2,0,P|165:258|236:270,1,150.000005722046,4|0,0:0|0:0,0:0:0:0:
448,340,110227,6,0,B|424:300|424:300|440:160,1,150,8|0,0:0|0:0,0:0:0:0:
440,168,110580,1,2,0:0:0:0:
280,65,110756,2,0,P|228:69|208:113,1,100,0|8,0:0|0:0,0:0:0:0:
220,304,111109,2,0,L|103:311,1,100,0|2,0:0|0:0,0:0:0:0:
120,309,111462,5,0,0:0:0:0:
169,311,111550,1,0,0:0:0:0:
219,314,111638,1,8,0:0:0:0:
269,317,111726,1,0,0:0:0:0:
320,320,111815,5,0,0:0:0:0:
440,168,111991,1,2,0:0:0:0:
288,48,112168,1,0,0:0:0:0:
168,200,112344,1,8,0:0:0:0:
440,168,112521,6,0,B|428:156|428:156|320:164,1,100,0|4,0:0|0:0,0:0:0:0:
168,200,112874,2,0,B|174:206|174:206|228:202,1,50,0|0,0:0|0:0,0:0:0:0:
252,200,113050,1,0,0:0:0:0:
72,168,113227,6,0,P|48:124|64:56,1,100,2|0,0:0|0:0,0:0:0:0:
52,75,113580,6,0,P|39:123|55:169,1,100,8|0,0:0|0:0,0:0:0:0:
55,169,113933,6,0,P|31:126|36:77,1,100,2|0,0:0|0:0,0:0:0:0:
112,108,114285,5,8,0:0:0:0:
180,77,114373,1,0,0:0:0:0:
254,70,114461,1,0,0:0:0:0:
326,88,114549,1,0,0:0:0:0:
389,129,114638,6,0,L|384:188,1,50,2|0,0:0|0:0,0:0:0:0:
408,120,114815,2,0,L|402:178,1,50,0|0,0:0|0:0,0:0:0:0:
260,320,114991,6,0,L|255:270,1,50,8|0,0:0|0:0,0:0:0:0:
278,329,115168,2,0,L|273:279,1,50,0|0,0:0|0:0,0:0:0:0:
180,77,115344,6,0,L|174:135,1,50,4|0,0:0|0:0,0:0:0:0:
198,67,115521,2,0,L|192:125,1,50,0|0,0:0|0:0,0:0:0:0:
50,267,115697,6,0,L|45:217,1,50,8|0,0:0|0:0,0:0:0:0:
64,344,115874,6,0,B|44:216|44:216|96:232|140:196,1,225.000008583069,0|0,0:0|0:0,0:0:0:0:
160,124,116227,5,0,0:0:0:0:
116,56,116315,1,0,0:0:0:0:
116,56,116403,2,0,P|80:96|88:156,1,100,8|0,0:0|0:0,0:0:0:0:
208,252,116756,2,0,L|257:243,1,50,2|0,0:0|0:0,0:0:0:0:
416,80,116933,5,0,0:0:0:0:
400,56,117021,1,0,0:0:0:0:
320,44,117109,1,8,0:0:0:0:
257,243,117285,1,0,0:0:0:0:
436,112,117462,6,0,L|337:128,1,100,8|4,0:3|0:3,0:0:0:0:
120,264,117815,1,8,0:0:0:0:
404,352,117991,1,0,0:0:0:0:
257,243,118168,1,4,0:0:0:0:
236,248,118256,1,0,0:0:0:0:
208,252,118344,1,0,0:0:0:0:
120,264,118521,1,8,0:0:0:0:
336,288,118697,6,0,B|360:216|312:168|312:168|432:136,1,225.000008583069,4|0,0:0|0:0,0:0:0:0:
256,96,119050,2,0,L|159:70,1,100,8|0,0:0|0:0,0:0:0:0:
16,44,119315,1,0,0:0:0:0:
40,52,119403,2,0,L|72:100,1,50,2|0,0:0|0:0,0:0:0:0:
20,280,119580,2,0,L|47:238,1,50,0|0,0:0|0:0,0:0:0:0:
192,144,119756,1,8,0:0:0:0:
204,168,119844,1,0,0:0:0:0:
212,184,119933,2,0,L|72:168,1,100,0|0,0:0|0:0,0:0:0:0:
248,260,120109,6,0,B|292:244|300:192|300:192|324:324|440:328,1,300,2|0,0:0|0:0,0:0:0:0:
464,168,120462,5,8,0:0:0:0:
438,165,120550,1,0,0:0:0:0:
488,169,120638,2,0,P|396:161|437:244,1,225.000008583069,0|0,0:0|0:0,0:0:0:0:
472,64,120991,6,0,P|420:56|376:80,1,100,0|8,0:0|0:0,0:0:0:0:
268,344,121344,1,0,0:0:0:0:
136,24,121521,6,0,B|80:28|56:72|56:72|76:84|76:84|60:100|60:100|104:128|100:196,1,225.000008583069,4|0,0:0|0:0,0:0:0:0:
40,296,121874,1,8,0:0:0:0:
24,276,121962,1,0,0:0:0:0:
28,196,122050,6,0,P|80:208|96:280,1,100,0|2,0:0|0:0,0:0:0:0:
252,232,122403,1,0,0:0:0:0:
0,368,122580,1,8,0:0:0:0:
212,156,122756,1,0,0:0:0:0:
296,312,122933,6,0,B|352:376|444:344|444:344|412:332|396:292,1,225.000008583069,2|0,0:0|0:0,0:0:0:0:
447,219,123285,1,8,0:0:0:0:
456,196,123374,1,0,0:0:0:0:
512,284,123462,6,0,P|476:272|448:212,1,100,0|2,0:0|0:0,0:0:0:0:
508,24,123815,1,0,0:0:0:0:
340,232,123991,1,8,0:0:0:0:
480,108,124168,1,0,0:0:0:0:
304,84,124344,6,0,B|260:60|272:24|272:24|328:44|328:44|372:20|432:60,1,225.000008583069,4|0,0:0|0:0,0:0:0:0:
368,140,124697,2,0,P|328:168|264:160,1,100,8|0,0:0|0:0,0:0:0:0:
92,61,125050,6,0,P|55:58|25:37,1,75,2|0,0:0|0:0,0:0:0:0:
152,164,125403,2,0,P|168:197|165:234,1,75,8|0,0:0|0:0,0:0:0:0:
210,61,125756,2,0,P|235:26|276:12,1,75,2|0,0:0|0:0,0:0:0:0:
24,232,126109,6,0,B|20:204|60:184|60:184|80:208|80:208|64:280|128:324,1,225.000008583069,8|0,0:0|0:0,0:0:0:0:
200,256,126462,5,2,0:0:0:0:
214,231,126550,1,0,0:0:0:0:
228,207,126638,6,0,P|188:196|164:244,1,100,0|0,0:0|0:0,0:0:0:0:
280,280,126815,6,0,P|275:296|312:308,1,50,8|0,0:0|0:0,0:0:0:0:
368,252,126991,6,0,P|384:240|356:220,1,37.5000014305115,0|0,0:0|0:0,0:0:0:0:
396,324,127168,6,0,B|380:237|380:237|383:228|383:228|377:221|377:221|375:230|375:230|382:245|382:245|359:115,1,225.000008583069,4|0,2:0|0:0,0:0:0:0:
409,92,127521,6,0,P|373:76|329:88,1,75.0000028610231,8|0,0:0|0:0,0:0:0:0:
365,45,127697,2,0,P|326:42|289:69,1,75.0000028610231,0|0,0:0|0:0,0:0:0:0:
308,17,127874,2,0,P|271:27|245:65,1,75.0000028610231,2|0,0:0|0:0,0:0:0:0:
248,54,128050,5,0,0:0:0:0:
296,59,128227,5,8,0:0:0:0:
339,82,128403,5,4,0:0:0:0:
116,324,128580,6,0,B|132:237|132:237|129:228|129:228|135:221|135:221|137:230|137:230|130:245|130:245|153:115,1,225.000008583069,2|0,0:0|0:0,0:0:0:0:
103,92,128933,6,0,P|139:76|183:88,1,75.0000028610231,8|8,0:0|0:0,0:0:0:0:
147,45,129109,2,0,P|186:42|223:69,1,75.0000028610231,8|0,0:0|0:0,0:0:0:0:
204,17,129286,2,0,P|241:27|267:65,1,75.0000028610231,4|4,0:3|0:3,0:0:0:0:
264,54,129462,5,2,0:0:0:0:
216,59,129639,5,8,0:0:0:0:
173,82,129815,5,8,0:0:0:0:
360,272,129991,6,0,B|328:284|290:268|290:268|257:291|257:291|225:269|225:269|188:288|145:271,1,225.000008583069,4|0,0:0|0:0,0:0:0:0:
180,200,130344,2,0,P|204:168|204:200,1,75.0000028610231,8|0,0:0|0:0,0:0:0:0:
332,200,130521,2,0,P|308:168|308:200,1,75.0000028610231,0|0,0:0|0:0,0:0:0:0:
256,100,130697,2,0,B|255:75|255:75|257:72|257:72|255:70|255:70|254:73|254:73|255:77|255:77|255:40,1,75.0000028610231,2|0,0:0|0:0,0:0:0:0:
256,100,130874,5,0,0:0:0:0:
211,178,131050,5,8,0:0:0:0:
300,178,131227,5,0,0:0:0:0:
255,345,131403,5,2,0:0:0:0:
156,352,131756,6,0,L|240:356,1,75.0000028610231,8|0,0:0|0:0,0:0:0:0:
352,332,131933,2,0,L|268:336,1,75.0000028610231,0|0,0:0|0:0,0:0:0:0:
56,340,132109,2,0,L|140:336,1,75.0000028610231,2|0,0:0|0:0,0:0:0:0:
452,356,132285,2,0,L|368:352,1,75.0000028610231,0|0,0:0|0:0,0:0:0:0:
464,344,132462,2,0,L|380:340,1,75.0000028610231,8|0,0:0|0:0,0:0:0:0:
477,331,132638,2,0,L|393:327,1,75.0000028610231,0|0,0:0|0:0,0:0:0:0:
324,224,132815,6,0,B|308:192|324:156|324:156|320:148|320:148|328:140|328:140|320:140|320:140|328:148|328:148|324:132|324:132|368:180|432:164,1,225.000008583069,4|0,0:0|0:0,0:0:0:0:
457,102,133168,6,0,P|416:23|401:23,1,75.0000028610231,8|0,0:0|0:0,0:0:0:0:
426,86,133344,2,0,P|360:25|347:30,1,75.0000028610231,0|0,0:0|0:0,0:0:0:0:
394,84,133521,2,0,P|312:49|301:59,1,75.0000028610231,2|0,0:0|0:0,0:0:0:0:
339,41,133697,5,0,0:0:0:0:
390,27,133874,5,8,0:0:0:0:
443,34,134050,5,0,0:0:0:0:
324,160,134227,6,0,B|308:192|324:228|324:228|320:236|320:236|328:244|328:244|320:244|320:244|328:236|328:236|324:252|324:252|368:204|432:220,1,225.000008583069,2|0,0:0|0:0,0:0:0:0:
457,282,134580,6,0,P|416:360|401:360,1,75.0000028610231,8|0,0:0|0:0,0:0:0:0:
426,298,134756,2,0,P|360:358|347:353,1,75.0000028610231,8|0,0:0|0:0,0:0:0:0:
394,300,134933,2,0,P|312:334|301:324,1,75.0000028610231,2|0,0:0|0:0,0:0:0:0:
339,343,135109,5,0,0:0:0:0:
390,357,135286,5,8,0:0:0:0:
443,350,135462,5,0,0:0:0:0:
160,104,135638,6,0,P|100:192|160:284,1,225.000008583069,4|0,0:0|0:0,0:0:0:0:
212,190,135991,6,0,P|180:186|196:210,1,75.0000028610231,8|0,0:0|0:0,0:0:0:0:
276,231,136168,2,0,P|288:260|301:234,1,75.0000028610231,0|0,0:0|0:0,0:0:0:0:
279,154,136344,2,0,P|299:129|270:131,1,75.0000028610231,2|0,0:0|0:0,0:0:0:0:
271,129,136521,5,0,0:0:0:0:
301,234,136697,5,8,0:0:0:0:
194,209,136874,5,0,0:0:0:0:
412,172,137050,6,0,L|512:176,3,75.0000028610231,2|0|0|0,0:0|0:0|0:0|0:0,0:0:0:0:
346,126,137403,2,0,L|246:130,1,75.0000028610231,8|0,0:0|0:0,0:0:0:0:
332,140,137580,2,0,L|232:144,1,75.0000028610231,0|0,0:0|0:0,0:0:0:0:
320,156,137756,2,0,L|220:160,1,75.0000028610231,2|2,0:0|0:0,0:0:0:0:
96,92,137933,6,0,L|92:176,1,75.0000028610231,2|0,0:0|0:0,0:0:0:0:
116,288,138110,2,0,L|112:204,1,75.0000028610231,8|0,0:3|0:0,0:0:0:0:
108,8,138286,2,0,L|112:92,1,75.0000028610231,4|0,0:3|0:0,0:0:0:0:
108,376,138462,1,4,0:0:0:0:
144,123,148344,5,2,0:0:0:0:
139,108,148433,1,0,0:0:0:0:
61,44,148521,6,0,B|45:32|45:32|68:110,1,75.0000028610231,0|0,0:0|0:0,0:0:0:0:
116,304,148697,6,0,B|101:254|101:254|178:218|237:292|186:366,1,225.000008583069,8|0,0:0|0:0,0:0:0:0:
116,304,149050,6,0,L|90:211,1,75,8|0,0:3|0:0,0:0:0:0:
61,85,149403,1,8,0:0:0:0:
384,100,149580,1,0,0:0:0:0:
200,316,149756,6,0,B|157:358|157:358|101:369|117:303|117:303|50:318|61:262|61:262|103:219,1,300,4|0,0:0|0:0,0:0:0:0:
228,44,150109,1,8,0:0:0:0:
236,68,150197,1,0,0:0:0:0:
248,148,150285,6,0,P|196:140|164:100,1,100,4|0,0:0|0:0,0:0:0:0:
372,20,150638,1,8,0:0:0:0:
420,288,150815,1,0,0:0:0:0:
404,312,150903,1,0,0:0:0:0:
388,336,150991,1,2,0:0:0:0:
360,192,151168,6,0,B|419:182|453:233|453:233|373:357,1,225.000008583069,0|0,0:0|0:0,0:0:0:0:
296,320,151521,1,0,0:0:0:0:
284,288,151609,1,0,0:0:0:0:
356,236,151697,2,0,L|372:96,1,100,2|0,0:0|0:0,0:0:0:0:
480,24,152050,5,8,0:0:0:0:
236,184,152227,1,0,0:0:0:0:
24,52,152403,1,2,0:0:0:0:
232,100,152580,6,0,B|176:104|156:148|156:148|96:144|96:144|76:180|24:180,1,225.000008583069,0|0,0:0|0:0,0:0:0:0:
28,96,152933,1,0,0:0:0:0:
40,76,153021,1,0,0:0:0:0:
96,144,153109,6,0,P|52:180|8:180,1,100,4|0,0:0|0:0,0:0:0:0:
120,60,153462,1,8,0:0:0:0:
168,272,153638,1,0,0:0:0:0:
12,344,153815,1,2,0:0:0:0:
208,200,153991,1,0,0:0:0:0:
144,356,154168,6,0,P|108:340|84:300,1,75,8|0,0:0|0:0,0:0:0:0:
328,272,154521,2,0,P|367:272|406:246,1,75,2|0,0:0|0:0,0:0:0:0:
39,162,154874,6,6,L|27:166,12,12.5,6|6|6|6|6|6|6|6|6|6|6|6|6,2:0|2:0|2:0|2:0|2:0|2:0|2:0|2:0|2:0|2:0|2:0|2:0|2:0,0:0:0:0:
92,77,155227,2,0,P|108:89|120:129,1,37.5000014305115,2|0,0:0|0:0,0:0:0:0:
208,200,155403,6,0,B|208:252|160:276|160:276|149:235|110:226|110:226|156:168|112:96,1,300,0|0,0:0|0:0,0:0:0:0:
24,24,155756,1,0,0:0:0:0:
208,116,155933,2,0,P|264:112|304:64,1,100,4|0,0:0|0:0,0:0:0:0:
236,8,156197,5,0,0:0:0:0:
228,36,156285,1,8,0:0:0:0:
295,83,156374,5,0,0:0:0:0:
303,111,156462,1,0,0:0:0:0:
340,268,156638,5,2,0:0:0:0:
464,204,156815,6,0,B|422:195|407:153|407:153|417:179|404:205|404:205|440:244|424:300,1,225.000008583069,0|0,0:0|0:0,0:0:0:0:
288,348,157168,1,0,0:0:0:0:
280,324,157256,1,0,0:0:0:0:
340,268,157344,6,0,P|292:272|252:224,1,100,2|0,0:0|0:0,0:0:0:0:
484,128,157697,1,8,0:0:0:0:
372,352,157874,1,0,0:0:0:0:
100,236,158050,1,0,0:0:0:0:
104,60,158227,6,0,B|144:68|152:108|152:108|200:92|200:92|220:156|172:184|172:184|200:216|188:264,1,300,0|0,0:0|0:0,0:0:0:0:
104,304,158580,1,4,0:0:0:0:
88,284,158668,1,0,0:0:0:0:
44,192,158756,6,0,P|84:208|96:276,1,100,0|8,0:0|0:0,0:0:0:0:
28,344,159109,1,0,0:0:0:0:
40,112,159285,1,2,0:0:0:0:
168,360,159462,1,0,0:0:0:0:
280,184,159638,6,0,P|320:200|336:232,1,75,8|0,0:0|0:0,0:0:0:0:
192,188,159991,6,0,L|176:128,1,37.5000014305115,2|0,0:0|0:0,0:0:0:0:
328,24,160168,2,0,L|318:60,1,37.5000014305115,4|0,0:3|0:0,0:0:0:0:
260,268,160344,1,8,0:0:0:0:
184,49,160521,6,0,L|220:58,1,37.5000014305115,4|0,0:3|0:0,0:0:0:0:
299,27,160697,2,0,L|317:59,1,37.5000014305115,2|0,0:0|0:0,0:0:0:0:
512,136,160874,6,0,L|475:126,1,37.5000014305115,8|0,0:0|0:0,0:0:0:0:
397,158,161050,2,0,L|378:125,1,37.5000014305115,8|0,0:0|0:0,0:0:0:0:
464,208,161227,6,0,P|437:235|399:240,1,75.0000028610231,4|0,0:0|0:0,0:0:0:0:
328,272,161403,2,0,P|355:245|393:240,1,75.0000028610231,0|0,0:0|0:0,0:0:0:0:
387,308,161580,6,0,P|360:335|322:340,1,75.0000028610231,8|0,0:0|0:0,0:0:0:0:
251,372,161756,2,0,P|278:345|316:340,1,75.0000028610231,0|0,0:0|0:0,0:0:0:0:
50,265,161933,6,0,B|58:157|58:157|90:197,1,150.000005722046,2|0,0:0|0:0,0:0:0:0:
124,256,162197,1,0,0:0:0:0:
120,288,162285,2,0,P|68:338|0:320,1,150.000005722046,8|0,0:0|0:0,0:0:0:0:
50,265,162550,1,0,0:0:0:0:
120,288,162638,6,0,L|230:278,1,75.0000028610231,2|0,0:0|0:0,0:0:0:0:
315,116,162815,2,0,L|390:110,1,75.0000028610231,0|0,0:0|0:0,0:0:0:0:
236,136,162991,6,0,L|346:146,1,75.0000028610231,8|0,0:0|0:0,0:0:0:0:
429,319,163168,2,0,L|503:325,1,75.0000028610231,0|0,0:0|0:0,0:0:0:0:
368,368,163344,5,2,0:0:0:0:
390,110,163521,1,0,0:0:0:0:
132,132,163697,5,8,0:0:0:0:
390,110,163874,1,0,0:0:0:0:
152,380,164050,6,0,B|120:352|120:352|128:232,1,150.000005722046,4|0,0:0|0:0,0:0:0:0:
112,228,164315,1,0,0:0:0:0:
132,132,164403,2,0,P|40:112|16:140,1,75.0000028610231,8|0,0:0|0:0,0:0:0:0:
210,61,164580,2,0,P|159:-17|123:-14,1,75.0000028610231,0|0,0:0|0:0,0:0:0:0:
316,67,164756,6,0,B|423:59|423:59|451:91,1,150.000005722046,2|0,0:0|0:0,0:0:0:0:
392,192,165021,1,0,0:0:0:0:
375,194,165109,1,8,0:0:0:0:
132,132,165285,5,0,0:0:0:0:
244,362,165462,6,0,P|276:313|264:250,1,112.500004291535,2|0,0:0|0:0,0:0:0:0:
129,285,165815,6,0,B|149:297|149:297|213:293,1,75.0000028610231,8|0,0:0|0:0,0:0:0:0:
132,132,165991,6,0,L|65:134,1,50,8|0,0:0|0:0,0:0:0:0:
138,96,166168,6,0,L|110:96,1,25,2|0,0:0|0:0,0:0:0:0:
397,138,166344,6,0,L|411:113,1,25,0|0,0:0|0:0,0:0:0:0:
232,341,166521,6,0,L|246:365,1,25,8|0,0:0|0:0,0:0:0:0:
409,117,166697,1,0,0:0:0:0:
416,192,166874,6,0,L|408:96,1,75.0000028610231,4|0,0:0|0:0,0:0:0:0:
432,92,167050,2,0,L|438:166,1,75.0000028610231,0|0,0:0|0:0,0:0:0:0:
501,72,167227,6,0,P|409:24|373:52,1,150.000005722046,8|0,0:0|0:0,0:0:0:0:
364,72,167491,1,0,0:0:0:0:
432,92,167580,6,0,P|340:140|304:112,1,150.000005722046,2|0,0:0|0:0,0:0:0:0:
156,16,167933,2,0,B|204:108|204:108|176:144,1,150.000005722046,8|0,0:0|0:0,0:0:0:0:
88,140,168197,1,0,0:0:0:0:
63,160,168285,6,0,P|45:192|42:229,1,75.0000028610231,2|0,0:0|0:0,0:0:0:0:
169,269,168550,6,0,P|151:237|120:216,1,75.0000028610231,0|8,0:0|0:0,0:0:0:0:
20,312,168815,6,0,P|57:312|90:295,1,75.0000028610231,0|0,0:0|0:0,0:0:0:0:
84,252,168991,5,2,0:0:0:0:
393,310,169168,1,2,0:0:0:0:
290,13,169344,6,0,B|272:24|272:24|260:96,1,75.0000028610231,8|0,0:3|0:0,0:0:0:0:
316,136,169521,2,0,B|334:125|334:125|346:53,1,75.0000028610231,4|0,0:3|0:0,0:0:0:0:
290,13,169697,5,4,0:0:0:0:
222,371,169874,5,0,0:0:0:0:
20,312,170050,2,0,L|120:308,1,75.0000028610231,8|0,0:0|0:0,0:0:0:0:
116,284,170227,2,0,L|216:288,1,75.0000028610231,0|0,0:0|0:0,0:0:0:0:
222,371,170403,6,0,L|360:364,1,120,2|0,0:0|0:0,0:0:0:0:
420,268,170756,1,8,0:0:0:0:
420,268,170933,6,0,L|520:272,1,80,0|0,0:0|0:0,0:0:0:0:
241,186,171109,5,2,0:0:0:0:
260,106,171197,1,0,0:0:0:0:
278,25,171286,1,0,0:0:0:0:
343,73,171374,1,0,0:0:0:0:
411,122,171462,1,8,0:0:0:0:
311,49,171638,5,2,0:0:0:0:
343,73,171726,1,2,0:0:0:0:
377,98,171814,1,8,0:0:0:0:
392,312,171991,5,0,0:0:0:0:
364,336,172080,5,0,0:0:0:0:
312,352,172168,5,8,0:0:0:0:
236,340,172256,5,0,0:0:0:0:
176,276,172344,5,0,0:0:0:0:
84,264,172433,5,0,0:0:0:0:
0,336,172521,6,0,P|32:332|68:296,1,75.0000028610231,4|0,0:0|0:0,0:0:0:0:
212,168,172697,2,0,P|180:172|144:208,1,75.0000028610231,0|0,0:0|0:0,0:0:0:0:
136,368,172874,2,0,B|156:296|156:296|112:136,1,225.000008583069,0|0,0:0|0:0,0:0:0:0:
36,32,173227,2,0,B|28:64|28:64|40:108,1,75.0000028610231,0|0,0:0|0:0,0:0:0:0:
100,175,173403,5,2,0:0:0:0:
108,163,173491,1,0,0:0:0:0:
116,151,173580,5,0,0:0:0:0:
120,68,173756,1,8,0:0:0:0:
412,208,173933,1,0,0:0:0:0:
184,8,174109,1,2,0:0:0:0:
412,208,174285,1,0,0:0:0:0:
116,151,174462,1,8,0:0:0:0:
245,155,174638,6,0,L|320:155,1,75,0|0,0:0|0:0,0:0:0:0:
449,272,174991,2,0,L|409:202,1,75,0|0,0:0|0:0,0:0:0:0:
421,27,175344,6,0,B|385:89|385:89|386:150|386:150|340:230,1,225.000008583069,0|0,0:0|0:0,0:0:0:0:
240,288,175697,2,0,P|220:252|248:192,1,75.0000028610231,0|0,0:0|0:0,0:0:0:0:
444,296,175874,2,0,P|417:327|351:321,1,75.0000028610231,8|0,0:0|0:0,0:0:0:0:
224,219,176050,5,0,0:0:0:0:
304,240,176138,1,0,0:0:0:0:
308,320,176227,1,2,0:0:0:0:
32,352,176403,1,0,0:0:0:0:
68,68,176580,5,8,0:0:0:0:
132,124,176668,2,0,L|228:104,1,75.0000028610231,0|0,0:0|0:0,0:0:0:0:
448,48,176933,6,0,L|400:38,1,37.5000014305115,2|0,0:0|0:0,0:0:0:0:
320,152,177109,2,0,L|272:163,1,37.5000014305115,0|0,0:0|0:0,0:0:0:0:
100,204,177285,5,8,0:0:0:0:
164,260,177373,2,0,L|260:240,1,75.0000028610231,0|0,0:0|0:0,0:0:0:0:
424,64,177638,6,0,L|376:54,1,37.5000014305115,2|0,0:0|0:0,0:0:0:0:
112,271,177815,1,0,0:0:0:0:
164,260,177903,1,0,0:0:0:0:
216,249,177991,1,8,0:0:0:0:
268,238,178079,1,0,0:0:0:0:
156,148,178168,6,0,B|168:224|108:268|108:268|296:232,1,300,0|0,0:0|0:0,0:0:0:0:
176,60,178521,6,0,P|122:58|83:94,1,100,0|8,0:0|0:0,0:0:0:0:
54,165,178785,1,0,0:0:0:0:
75,183,178874,1,0,0:0:0:0:
248,28,179050,1,2,0:0:0:0:
75,183,179227,1,0,0:0:0:0:
316,276,179403,1,8,0:0:0:0:
448,92,179580,6,0,L|428:28,1,50,0|0,0:0|0:0,0:0:0:0:
301,228,179756,2,0,L|321:292,1,50,2|0,0:0|0:0,0:0:0:0:
456,128,179933,2,0,P|432:112|404:108,1,50,0|0,0:0|0:0,0:0:0:0:
301,228,180109,2,0,P|329:222|351:205,1,50,8|0,0:0|0:0,0:0:0:0:
368,112,180285,6,0,B|396:248|396:248|342:208,1,200,0|8,0:0|0:3,0:0:0:0:
320,196,180550,1,0,0:0:0:0:
436,324,180638,6,0,P|384:332|332:296,1,100,4|8,0:3|0:0,0:0:0:0:
32,88,180991,6,0,P|56:48|108:28,1,100,0|4,0:0|0:0,0:0:0:0:
139,206,181256,1,0,0:0:0:0:
139,206,181344,2,0,P|89:204|51:173,1,100,0|8,0:0|0:0,0:0:0:0:
188,53,181609,1,0,0:0:0:0:
188,53,181697,2,0,P|211:96|203:145,1,100,4|0,0:0|0:0,0:0:0:0:
132,285,181962,5,0,0:0:0:0:
108,301,182050,2,0,L|148:177,1,100,8|0,0:0|0:0,0:0:0:0:
304,48,182315,1,0,0:0:0:0:
328,32,182403,2,0,L|288:156,1,100,2|0,0:0|0:0,0:0:0:0:
284,324,182668,5,0,0:0:0:0:
284,324,182756,2,0,L|296:284,1,25,8|0,0:0|0:0,0:0:0:0:
260,340,182844,2,0,L|272:300,1,25,0|0,0:0|0:0,0:0:0:0:
408,192,182933,2,0,L|392:243,1,50,0|0,0:0|0:0,0:0:0:0:
232,384,183109,2,0,L|247:332,1,50,2|0,0:0|0:0,0:0:0:0:
476,248,183285,5,0,0:0:0:0:
448,320,183374,1,0,0:0:0:0:
372,320,183462,1,8,0:0:0:0:
344,232,183550,5,0,0:0:0:0:
268,232,183638,1,0,0:0:0:0:
240,304,183727,1,0,0:0:0:0:
164,324,183815,6,0,L|120:320,1,37.5000014305115,2|0,0:0|0:0,0:0:0:0:
69,188,183991,2,0,L|32:192,1,37.5000014305115,0|0,0:0|0:0,0:0:0:0:
256,52,184168,6,0,L|260:96,1,37.5000014305115,8|0,0:0|0:0,0:0:0:0:
416,184,184344,2,0,L|420:140,1,37.5000014305115,0|0,0:0|0:0,0:0:0:0:
192,140,184521,6,0,P|236:168|252:164,1,37.5000014305115,4|0,0:0|0:0,0:0:0:0:
488,104,184697,2,0,P|444:76|428:80,1,37.5000014305115,0|0,0:0|0:0,0:0:0:0:
256,292,184874,6,0,L|259:329,1,37.5000014305115,8|0,0:0|0:0,0:0:0:0:
284,344,185050,2,0,L|287:306,1,37.5000014305115,0|0,0:0|0:0,0:0:0:0:
382,143,185227,6,0,L|419:146,1,37.5000014305115,2|0,0:0|0:0,0:0:0:0:
256,292,185403,2,0,L|293:288,1,37.5000014305115,0|0,0:0|0:0,0:0:0:0:
156,136,185580,2,0,L|193:139,1,37.5000014305115,8|0,0:0|0:0,0:0:0:0:
89,324,185756,2,0,L|126:320,1,37.5000014305115,0|0,0:0|0:0,0:0:0:0:
80,120,185933,6,0,P|108:76|116:72,1,37.5000014305115,2|0,0:0|0:0,0:0:0:0:
327,15,186109,2,0,P|345:21|361:31,1,37.5000014305115,0|0,0:0|0:0,0:0:0:0:
181,16,186285,2,0,P|198:6|216:2,1,37.5000014305115,8|0,0:0|0:0,0:0:0:0:
431,118,186461,2,0,P|442:169|439:177,1,37.5000014305115,0|0,0:0|0:0,0:0:0:0:
432,264,186638,5,2,0:0:0:0:
156,136,186815,1,0,0:0:0:0:
432,264,186991,2,0,B|416:276|416:276|272:272,1,150.000005722046,8|0,0:0|0:0,0:0:0:0:
156,60,187344,6,0,P|196:72|204:88,1,37.5000014305115,4|0,0:0|0:0,0:0:0:0:
88,176,187521,2,0,P|78:135|88:120,1,37.5000014305115,0|0,0:0|0:0,0:0:0:0:
222,176,187697,2,0,P|191:204|173:203,1,37.5000014305115,8|0,0:0|0:0,0:0:0:0:
156,136,187874,1,0,0:0:0:0:
436,56,188050,5,0,0:0:0:0:
288,308,188227,2,0,L|284:270,1,37.5000014305115,0|0,0:0|0:0,0:0:0:0:
436,224,188403,2,0,L|432:261,1,37.5000014305115,0|0,0:0|0:0,0:0:0:0:
432,288,188580,5,2,0:0:0:0:
284,188,188756,6,0,P|236:204|232:208,1,37.5000014305115,0|0,0:0|0:0,0:0:0:0:
160,132,188933,6,0,P|137:177|137:182,1,50,8|0,0:0|0:0,0:0:0:0:
32,192,189109,6,0,P|52:253|57:258,1,62.5,0|0,0:0|0:0,0:0:0:0:
267,329,189285,6,0,P|281:301|284:270,1,62.5,2|0,0:0|0:0,0:0:0:0:
160,132,189462,6,0,L|104:136,1,37.5000014305115,0|0,0:0|0:0,0:0:0:0:
186,102,189727,6,0,L|132:87,1,37.5000014305115,0|0,0:0|0:0,0:0:0:0:
221,84,189991,6,0,L|175:51,1,37.5000014305115,4|0,0:0|0:0,0:0:0:0:
352,132,190168,6,0,L|408:136,1,37.5000014305115,0|0,0:0|0:0,0:0:0:0:
325,102,190344,2,0,L|379:87,1,37.5000014305115,8|0,0:0|0:0,0:0:0:0:
290,84,190521,2,0,L|336:51,1,37.5000014305115,0|0,0:0|0:0,0:0:0:0:
352,132,190697,6,0,L|408:136,1,37.5000014305115,2|0,0:0|0:0,0:0:0:0:
160,252,190874,6,0,L|104:248,1,37.5000014305115,0|0,0:0|0:0,0:0:0:0:
355,245,191138,2,0,L|380:295,1,37.5000014305115,0|0,0:0|0:0,0:0:0:0:
252,78,191403,2,0,L|283:32,1,37.5000014305115,2|0,0:0|0:0,0:0:0:0:
156,138,191580,5,4,0:3:0:0:
352,132,191756,1,8,0:0:0:0:
259,305,191933,1,8,0:0:0:0:
256,196,192109,1,4,0:3:0:0:
273,47,192285,5,2,0:0:0:0:
256,196,192462,1,8,0:0:0:0:
239,345,192638,2,0,L|188:352,1,37.5000014305115,8|0,0:0|0:0,0:0:0:0:
104,312,192815,2,0,L|53:305,1,37.5000014305115,4|0,0:0|0:0,0:0:0:0:
8,104,192991,2,0,B|49:99|80:132|80:132|139:119|139:119|156:155|224:169,1,220.000006713867,0|0,0:0|0:0,0:0:0:0:
216,80,193697,5,0,0:0:0:0:
292,92,193815,1,0,0:0:0:0:
356,48,193933,1,0,0:0:0:0:
423,114,194050,5,0,0:0:0:0:
380,220,194168,1,0,0:0:0:0:
494,204,194285,1,0,0:0:0:0:
360,150,194403,5,0,0:0:0:0:
444,256,194520,1,0,0:0:0:0:
493,130,194638,1,0,0:0:0:0:
352,320,194756,5,0,0:0:0:0:
324,333,194815,5,0,0:0:0:0:
290,339,194874,5,0,0:0:0:0:
256,339,194933,5,2,0:0:0:0:
72,260,195109,1,0,0:0:0:0:
256,339,195285,1,8,0:0:0:0:
0,320,195462,1,0,0:0:0:0:
180,304,195638,1,4,0:0:0:0:
64,160,195815,2,0,L|72:260,1,100,0|8,0:0|0:0,0:0:0:0:
64,160,196168,5,0,0:0:0:0:
80,344,196344,1,2,0:0:0:0:
144,124,196521,2,0,P|112:84|56:76,1,100,0|8,0:0|0:0,0:0:0:0:
328,156,196874,2,0,P|378:161|424:128,1,100,0|2,0:0|0:0,0:0:0:0:
144,228,197227,6,0,P|96:232|44:280,1,112.500004291535,0|0,0:0|0:0,0:0:0:0:
352,256,197580,2,0,P|388:286|459:289,1,112.500004291535,8|0,0:0|0:0,0:0:0:0:
280,36,197933,6,0,B|229:63|239:117|239:117|271:95,1,125,0|0,0:0|0:0,0:0:0:0:
319,63,198462,6,0,P|279:35|252:172,1,266.666666666667,4|2,0:0|0:0,0:0:0:0:
368,128,200050,1,0,0:0:0:0:
332,304,200227,2,0,L|320:364,1,50,8|0,0:0|0:0,0:0:0:0:
332,304,200580,5,2,0:0:0:0:
358,177,200756,2,0,L|370:117,2,50,2|0|4,0:0|0:0|0:0,0:0:0:0:
240,320,201462,2,0,P|203:342|157:338,1,83.3333333333333,0|0,0:0|0:0,0:0:0:0:
88,312,201991,5,2,0:0:0:0:
284,244,202168,2,0,L|344:256,2,50,0|0|2,0:0|0:0|0:0,0:0:0:0:
72,204,202874,2,0,P|64:180|68:152,1,50,0|2,0:0|0:0,0:0:0:0:
88,228,203227,1,2,0:0:0:0:
136,88,203403,2,0,P|157:117|150:173,1,83.3333333333333,0|0,0:0|0:0,0:0:0:0:
100,77,203933,1,0,0:0:0:0:
380,96,204109,6,0,L|424:88,1,37.5,0|8,0:0|0:0,0:0:0:0:
232,212,204462,6,0,L|221:241,1,25,0|2,0:0|0:0,0:0:0:0:
228,52,204815,6,0,L|213:34,1,18.75,0|8,0:0|0:0,0:0:0:0:
316,164,205168,6,0,L|280:122,1,55,0|0,0:0|0:0,0:0:0:0:
