osu file format v14

[General]
AudioFilename: audio.mp3
AudioLeadIn: 0
PreviewTime: -1
Countdown: 1
SampleSet: Normal
StackLeniency: 0.7
Mode: 0
LetterboxInBreaks: 0
WidescreenStoryboard: 0

[Editor]
DistanceSpacing: 0.4
BeatDivisor: 4
GridSize: 8
TimelineZoom: 2.899999

[Metadata]
Title:Everything (feat. Ashdown)
TitleUnicode:Everything (feat. Ashdown)
Artist:WRLD
ArtistUnicode:WRLD
Creator:Post
Version:french fries
Source:
Tags:WRLD Ashdown electronic monstercat
BeatmapID:1575984
BeatmapSetID:748022

[Difficulty]
HPDrainRate:5
CircleSize:3.8
OverallDifficulty:8
ApproachRate:9.6
SliderMultiplier:1.6
SliderTickRate:1

[Events]
//Background and Video events
0,0,"vaporwave-city-skyline.png",0,0
//Break Periods
2,45498,55761
//Storyboard Layer 0 (Background)
//Storyboard Layer 1 (Fail)
//Storyboard Layer 2 (Pass)
//Storyboard Layer 3 (Foreground)
//Storyboard Sound Samples

[TimingPoints]
40,342.857142857143,5,1,0,100,1,0
1756,342.857142857143,4,1,0,100,1,0
1756,-200,4,1,0,100,0,0
22327,-125,4,1,0,100,0,0
23356,342.857142857143,4,1,0,100,1,0
23356,-100,4,1,0,100,0,0
33298,-200,4,1,0,100,0,0
33556,-200,4,1,0,10,0,0
33641,-200,4,1,0,100,0,0
33727,-200,4,1,0,10,0,0
33813,-200,4,1,0,100,0,0
33898,-200,4,1,0,10,0,0
33984,-200,4,1,0,100,0,0
34070,-200,4,1,0,10,0,0
34156,-200,4,1,0,100,0,0
34241,-200,4,1,0,10,0,0
34327,-100,4,1,0,100,0,0
56270,-200,4,1,0,100,0,0
61756,-133.333333333333,4,1,0,100,0,0
66556,-100,4,1,0,100,0,0

[HitObjects]
192,88,40,6,0,L|144:104,3,40
320,168,382,2,0,L|368:184,3,40
168,184,725,2,0,L|128:208,3,40
344,272,1068,2,0,L|392:296,3,40
144,304,1411,1,0,0:0:0:0:
400,200,1582,1,0,0:0:0:0:
184,80,1756,6,0,B|144:64|144:64|128:112,1,80
360,320,2270,2,0,B|400:304|400:304|392:264,1,80
376,128,2785,2,0,L|360:104,1,20
232,88,2956,2,0,L|216:64,1,20
184,312,3127,6,0,B|144:320|144:320|144:280,1,80
368,56,3642,2,0,B|408:72|408:72|392:112,1,80
176,120,4156,1,0,0:0:0:0:
96,272,4327,1,0,0:0:0:0:
408,208,4499,6,0,P|440:240|416:248,1,80
120,88,5013,2,0,P|80:96|96:112,1,80
312,64,5527,2,0,L|328:88,1,20
384,272,5699,2,0,L|368:248,1,20
144,328,5870,6,0,P|104:336|112:320,1,80
328,80,6385,2,0,P|360:56|368:80,1,80
344,328,6899,1,0,0:0:0:0:
112,264,7070,1,0,0:0:0:0:
400,64,7242,6,0,L|376:72,1,20
176,128,7413,2,0,B|160:144|160:144|176:160,1,40
352,240,7756,2,0,B|368:256|368:256|360:272,1,40
192,320,8099,1,0,0:0:0:0:
96,192,8270,1,0,0:0:0:0:
200,56,8442,1,0,0:0:0:0:
376,56,8613,6,0,B|400:96|400:96|368:136,1,80
376,336,9127,2,0,B|352:296|352:296|372:269,1,80
280,72,9642,1,0,0:0:0:0:
216,312,9813,1,0,0:0:0:0:
144,64,9985,6,0,P|112:56|136:80,1,80
392,320,10499,2,0,P|408:336|400:304,1,80
136,312,11013,2,0,L|144:288,1,20
256,200,11185,2,0,L|264:176,1,20
368,56,11356,6,0,B|408:72|408:72|432:112,1,80
144,336,11870,2,0,B|104:320|104:320|88:280,1,80
88,272,12299,1,0,0:0:0:0:
88,256,12385,1,0,0:0:0:0:
384,64,12727,6,0,L|336:64,1,40
208,64,13070,1,0,0:0:0:0:
408,96,13242,2,0,L|368:96,1,40
160,224,13585,1,0,0:0:0:0:
64,288,13756,1,0,0:0:0:0:
160,352,13927,1,0,0:0:0:0:
344,344,14099,6,0,L|344:304,1,40
344,160,14442,1,0,0:0:0:0:
384,360,14613,2,0,L|384:320,1,40
152,160,14956,1,0,0:0:0:0:
184,32,15127,1,0,0:0:0:0:
48,64,15299,1,0,0:0:0:0:
120,288,15470,6,0,P|136:304|160:296,1,40
256,192,15813,1,0,0:0:0:0:
384,88,15985,2,0,P|360:80|336:96,1,40
256,192,16327,1,0,0:0:0:0:
152,328,16499,1,0,0:0:0:0:
360,328,16670,1,0,0:0:0:0:
120,95,16842,6,0,P|132:81|152:81,1,40
256,192,17185,1,0,0:0:0:0:
384,295,17356,2,0,P|366:304|346:299,1,40
256,192,17699,1,0,0:0:0:0:
152,56,17870,1,0,0:0:0:0:
360,56,18042,1,0,0:0:0:0:
168,272,18213,6,0,L|144:304,1,40
352,208,18556,2,0,L|384:256,1,40
112,80,18899,2,0,L|80:112,1,40
424,40,19242,2,0,L|464:80,1,40
208,304,19585,1,0,0:0:0:0:
344,328,19756,1,0,0:0:0:0:
168,216,19927,1,0,0:0:0:0:
328,272,20099,1,0,0:0:0:0:
136,120,20270,2,0,B|128:96|128:96|144:72,1,40
272,72,20527,1,0,0:0:0:0:
288,88,20613,2,0,B|296:112|296:112|280:136,1,40
120,280,20956,6,0,L|168:312,1,40
352,296,21299,2,0,L|336:280,1,20
208,72,21470,2,0,L|224:104,1,20
320,304,21642,2,0,L|312:280,1,20
240,64,21813,2,0,L|248:88,1,20
224,304,21985,2,0,P|192:304|176:296,1,40
144,80,22242,1,0,0:0:0:0:
160,72,22327,6,0,L|176:104,1,32
280,296,22499,2,0,L|248:256,1,32
240,56,22670,2,0,L|248:96,1,32
352,272,22842,2,0,L|312:224,1,32
336,72,23013,1,0,0:0:0:0:
288,56,23099,1,0,0:0:0:0:
240,56,23185,1,0,0:0:0:0:
192,72,23270,1,0,0:0:0:0:
152,112,23356,5,0,0:0:0:0:
392,264,23527,1,0,0:0:0:0:
152,336,23698,2,0,B|112:352|112:352|64:328,1,80
360,192,24041,1,0,0:0:0:0:
168,72,24213,2,0,B|128:56|128:56|88:72,1,80
64,320,24556,1,0,0:0:0:0:
392,288,24727,6,0,L|352:304,1,40
152,144,24898,2,0,L|192:128,1,40
352,264,25070,2,0,L|312:280,1,40
112,120,25241,2,0,L|152:104,1,40
368,64,25413,2,0,P|408:72|392:88,1,80
144,320,25756,2,0,P|104:312|120:296,1,80
224,32,26098,5,0,0:0:0:0:
48,168,26270,1,0,0:0:0:0:
216,336,26441,2,0,B|256:352|256:352|304:328,1,80
416,176,26784,1,0,0:0:0:0:
296,40,26956,2,0,B|256:24|256:24|216:40,1,80
48,288,27298,1,0,0:0:0:0:
384,336,27470,5,0,0:0:0:0:
448,144,27641,1,0,0:0:0:0:
240,280,27813,1,0,0:0:0:0:
360,96,27984,1,0,0:0:0:0:
144,208,28156,1,0,0:0:0:0:
296,40,28327,1,0,0:0:0:0:
88,168,28498,2,0,P|80:208|112:208,1,80
336,56,28841,5,0,0:0:0:0:
416,232,29013,1,0,0:0:0:0:
272,352,29184,2,0,B|224:352|224:352|184:328,1,80
416,112,29527,2,0,B|440:144|440:144|440:184,1,80
160,192,29870,2,0,B|120:184|120:184|96:152,1,80
448,248,30213,2,0,B|472:288|472:288|456:336,1,80
136,256,30556,2,0,B|112:208|112:208|120:168,1,80
352,48,30898,2,0,B|392:72|392:72|408:104,1,80
368,256,31241,2,0,L|336:224,1,40
88,160,31413,2,0,L|128:200,1,40
144,320,31584,5,0,0:0:0:0:
424,248,31756,1,0,0:0:0:0:
288,64,31927,2,0,P|248:40|240:56,1,80
256,352,32270,1,0,0:0:0:0:
176,72,32441,2,0,P|136:72|144:112,1,80
376,320,32784,1,0,0:0:0:0:
432,128,32956,6,0,B|432:80|392:56,1,80
176,80,33298,1,0,0:0:0:0:
352,296,33470,2,0,L|338:281,1,20
136,200,33641,2,0,L|150:184,1,20
264,48,33813,2,0,L|279:63,1,20
408,200,33984,2,0,L|408:221,1,20
192,320,34156,2,0,L|173:321,1,20
392,64,34327,5,0,0:0:0:0:
416,272,34498,1,0,0:0:0:0:
208,144,34670,2,0,B|160:152|160:152|144:192,1,80
176,336,35013,1,0,0:0:0:0:
400,296,35184,1,0,0:0:0:0:
448,136,35356,2,0,B|432:96|432:96|392:80,1,80
96,184,35698,5,0,0:0:0:0:
256,296,35870,1,0,0:0:0:0:
352,80,36041,2,0,P|392:88|368:120,1,80
256,312,36384,1,0,0:0:0:0:
96,176,36556,1,0,0:0:0:0:
288,288,36727,1,0,0:0:0:0:
448,136,36898,1,0,0:0:0:0:
136,296,37070,5,0,0:0:0:0:
272,88,37241,1,0,0:0:0:0:
440,280,37413,2,0,P|440:320|416:304,1,80
128,192,37756,1,0,0:0:0:0:
392,96,37927,1,0,0:0:0:0:
304,328,38098,1,0,0:0:0:0:
216,80,38270,1,0,0:0:0:0:
392,160,38441,6,0,L|376:208,1,40
104,232,38613,2,0,L|120:272,1,40
368,320,38784,2,0,B|352:360|352:360|312:336,1,80
112,288,39127,1,0,0:0:0:0:
368,208,39298,1,0,0:0:0:0:
144,128,39470,1,0,0:0:0:0:
416,40,39641,1,0,0:0:0:0:
288,336,39813,5,0,0:0:0:0:
72,280,39984,1,0,0:0:0:0:
48,80,40156,2,0,B|64:40|64:40|112:56,1,80
272,336,40498,1,0,0:0:0:0:
136,160,40670,1,0,0:0:0:0:
352,56,40841,2,0,B|392:64|392:64|392:104,1,80
96,136,41184,5,0,0:0:0:0:
192,328,41356,1,0,0:0:0:0:
440,280,41527,2,0,P|480:272|464:256,1,80
184,120,41870,1,0,0:0:0:0:
376,240,42041,1,0,0:0:0:0:
408,48,42213,2,0,P|400:8|384:24,1,80
152,72,42556,5,0,0:0:0:0:
256,296,42727,1,0,0:0:0:0:
400,96,42898,1,0,0:0:0:0:
136,112,43070,1,0,0:0:0:0:
136,112,43156,1,0,0:0:0:0:
136,112,43241,1,0,0:0:0:0:
328,288,43413,1,0,0:0:0:0:
336,48,43584,1,0,0:0:0:0:
136,176,43756,1,0,0:0:0:0:
384,264,43927,5,0,0:0:0:0:
272,64,44098,1,0,0:0:0:0:
248,56,44184,1,0,0:0:0:0:
224,64,44270,1,0,0:0:0:0:
264,296,44441,1,0,0:0:0:0:
296,320,44527,1,0,0:0:0:0:
336,328,44613,1,0,0:0:0:0:
376,320,44698,1,0,0:0:0:0:
408,296,44784,1,0,0:0:0:0:
336,88,44956,1,0,0:0:0:0:
272,80,45041,1,0,0:0:0:0:
208,96,45127,1,0,0:0:0:0:
160,136,45213,1,0,0:0:0:0:
136,192,45298,5,0,0:0:0:0:
424,96,56270,6,0,B|432:56|432:56|392:72,1,80
56,200,56956,2,0,B|16:232|16:232|48:256,1,80
440,328,57641,2,0,B|472:304|472:304|432:288,1,80
256,32,58327,2,0,B|216:8|216:8|192:40,1,80
176,336,59013,6,0,P|200:368|208:344,1,80
488,96,59698,2,0,P|488:56|456:64,1,80
96,48,60384,2,0,P|56:48|64:64,1,80
384,344,61070,2,0,P|424:352|416:320,1,80
456,56,61756,6,0,L|408:112,1,60.0000022888184
256,120,62098,2,0,L|304:72,1,60.0000022888184
232,256,62441,2,0,L|192:304,1,60.0000022888184
40,320,62784,2,0,L|88:272,1,60.0000022888184
80,72,63127,2,0,B|96:40|96:40|136:32,1,60.0000022888184
208,128,63470,2,0,B|200:160|200:160|168:168,1,60.0000022888184
304,72,63813,2,0,B|320:40|320:40|344:32,1,60.0000022888184
440,128,64156,2,0,B|432:160|432:160|400:176,1,60.0000022888184
112,288,64498,6,0,L|80:272,3,30.0000011444092
384,240,64841,2,0,L|416:224,3,30.0000011444092
104,144,65184,2,0,L|72:128,3,30.0000011444092
376,96,65527,2,0,L|408:80,3,30.0000011444092
176,64,65870,5,0,0:0:0:0:
136,96,65956,1,0,0:0:0:0:
112,136,66041,1,0,0:0:0:0:
104,192,66127,1,0,0:0:0:0:
128,240,66213,1,0,0:0:0:0:
176,288,66298,1,0,0:0:0:0:
248,312,66384,1,0,0:0:0:0:
320,304,66470,1,0,0:0:0:0:
392,256,66556,5,0,0:0:0:0:
200,144,66727,1,0,0:0:0:0:
376,224,66898,1,0,0:0:0:0:
168,128,67070,1,0,0:0:0:0:
352,296,67241,6,0,P|392:296|384:264,1,80
120,128,67584,1,0,0:0:0:0:
208,296,67756,1,0,0:0:0:0:
256,288,67841,1,0,0:0:0:0:
288,256,67927,2,0,P|312:216|312:184,1,80
160,80,68270,1,0,0:0:0:0:
328,216,68441,1,0,0:0:0:0:
368,192,68527,1,0,0:0:0:0:
392,152,68613,2,0,P|416:104|416:64,1,80
400,88,68956,1,0,0:0:0:0:
144,256,69127,2,0,B|120:288|120:288|160:288,1,80
408,200,69470,1,0,0:0:0:0:
184,48,69641,2,0,B|144:40|144:40|120:72,1,80
200,296,69984,5,0,0:0:0:0:
360,96,70156,2,0,B|400:72|400:72|448:96,1,80
128,176,70498,1,0,0:0:0:0:
416,224,70670,2,0,B|456:248|456:248|456:288,1,80
184,312,71013,1,0,0:0:0:0:
104,72,71184,1,0,0:0:0:0:
272,304,71356,5,0,0:0:0:0:
384,96,71527,2,0,B|368:48|368:48|328:40,1,80
144,208,71870,2,0,B|112:240|112:240|120:280,1,80
416,336,72213,2,0,B|456:312|456:312|464:280,1,80
208,200,72556,1,0,0:0:0:0:
384,64,72727,6,0,P|424:56|416:96,1,80
216,264,73070,5,0,0:0:0:0:
144,240,73184,5,0,0:0:0:0:
88,192,73298,5,0,0:0:0:0:
56,128,73413,2,0,B|48:88|48:88|72:40,1,80
376,104,73756,1,0,0:0:0:0:
280,312,73927,1,0,0:0:0:0:
232,304,74013,1,0,0:0:0:0:
192,280,74098,2,0,P|152:240|136:208,1,80
424,296,74441,1,0,0:0:0:0:
248,64,74613,2,0,B|208:40|208:40|168:64,1,80
440,192,74956,1,0,0:0:0:0:
136,136,75127,2,0,B|104:168|104:168|128:208,1,80
352,328,75470,5,0,0:0:0:0:
96,128,75641,2,0,P|104:88|144:112,1,80
352,48,75984,1,0,0:0:0:0:
128,296,76156,2,0,P|144:336|176:312,1,80
424,200,76498,1,0,0:0:0:0:
208,32,76670,1,0,0:0:0:0:
48,240,76841,5,0,0:0:0:0:
384,328,77013,2,0,B|432:320|432:320|448:288,1,80
168,88,77356,2,0,B|128:96|128:96|104:136,1,80
368,304,77698,2,0,B|416:296|416:296|432:264,1,80
136,56,78041,1,0,0:0:0:0:
432,32,78213,6,0,P|472:48|448:72,1,80
352,224,78556,1,0,0:0:0:0:
176,288,78727,1,0,0:0:0:0:
128,272,78813,1,0,0:0:0:0:
88,240,78898,2,0,P|56:200|48:168,1,80
408,152,79241,1,0,0:0:0:0:
192,224,79413,1,0,0:0:0:0:
144,208,79498,1,0,0:0:0:0:
104,176,79584,2,0,P|72:136|64:104,1,80
240,24,79927,1,0,0:0:0:0:
456,200,80098,2,0,P|472:240|448:248,1,80
256,64,80441,1,0,0:0:0:0:
96,272,80613,2,0,P|64:280|64:240,1,80
312,56,80956,5,0,0:0:0:0:
416,272,81127,2,0,B|408:312|408:312|368:336,1,80
168,72,81470,1,0,0:0:0:0:
224,312,81641,2,0,B|192:344|192:344|144:344,1,80
32,160,81984,1,0,0:0:0:0:
272,312,82156,1,0,0:0:0:0:
432,104,82327,5,0,0:0:0:0:
128,176,82498,2,0,B|96:200|96:200|136:216,1,80
400,48,82841,2,0,B|448:32|448:32|448:80,1,80
440,320,83184,2,0,B|456:360|456:360|416:360,1,80
144,296,83527,1,0,0:0:0:0:
440,72,83698,6,0,P|448:48|408:64,1,80
152,128,84041,5,0,0:0:0:0:
120,200,84156,5,0,0:0:0:0:
152,272,84270,5,0,0:0:0:0:
216,320,84384,2,0,B|256:336|256:336|304:328,1,80
312,56,84727,1,0,0:0:0:0:
176,264,84898,1,0,0:0:0:0:
200,304,84984,1,0,0:0:0:0:
240,328,85070,2,0,P|280:344|328:336,1,80
440,184,85413,1,0,0:0:0:0:
240,40,85584,2,0,B|200:24|200:24|152:48,1,80
56,232,85927,1,0,0:0:0:0:
304,344,86098,2,0,B|352:336|352:336|368:304,1,80
392,72,86441,5,0,0:0:0:0:
160,112,86613,2,0,B|120:136|120:136|80:128,1,80
432,144,86956,1,0,0:0:0:0:
192,184,87127,2,0,B|144:200|144:200|112:192,1,80
456,232,87470,1,0,0:0:0:0:
208,296,87641,2,0,B|168:312|168:312|128:304,1,80
480,224,87984,1,0,0:0:0:0:
304,32,88156,1,0,0:0:0:0:
72,136,88327,2,0,B|40:168|40:168|56:200,1,80
384,264,88670,2,0,B|408:304|408:304|384:336,1,80
104,240,89013,1,0,0:0:0:0:
304,48,89184,5,0,0:0:0:0:
