osu file format v14

[General]
AudioFilename: audio.mp3
AudioLeadIn: 0
PreviewTime: 110156
Countdown: 0
SampleSet: Normal
StackLeniency: 0.7
Mode: 1
LetterboxInBreaks: 0
WidescreenStoryboard: 1

[Editor]
Bookmarks: 11756,22728,44671,66614,88556,132442,143414
DistanceSpacing: 1
BeatDivisor: 8
GridSize: 8
TimelineZoom: 2.3

[Metadata]
Title:By Design
TitleUnicode:By Design
Artist:WRLD
ArtistUnicode:WRLD
Creator:nyanmi-1828
Version:Inner Oni
Source:
Tags:monstercat dnb dance electronic Drum Bass
BeatmapID:1801783
BeatmapSetID:861231

[Difficulty]
HPDrainRate:5
CircleSize:4
OverallDifficulty:6
ApproachRate:9
SliderMultiplier:1.4
SliderTickRate:1

[Events]
//Background and Video events
0,0,"1920x1080 background.png",0,0
//Break Periods
//Storyboard Layer 0 (Background)
//Storyboard Layer 1 (Fail)
//Storyboard Layer 2 (Pass)
//Storyboard Layer 3 (Foreground)
//Storyboard Layer 4 (Overlay)
//Storyboard Sound Samples

[TimingPoints]
-586,342.857142857143,4,1,0,20,1,0
99,-100,4,1,0,20,0,0
185,-101,4,1,0,20,0,0
271,-102,4,1,0,20,0,0
442,-104,4,1,0,20,0,0
614,-106,4,1,0,20,0,0
785,-108,4,1,0,70,0,0
10728,-100,4,1,0,70,0,0
10814,-101,4,1,0,70,0,0
10899,-102,4,1,0,70,0,0
10985,-103,4,1,0,70,0,0
11071,-104,4,1,0,70,0,0
11156,-105,4,1,0,70,0,0
11242,-106,4,1,0,70,0,0
11328,-107,4,1,0,70,0,0
11414,-108,4,1,0,70,0,0
11585,-100,4,1,0,70,0,0
22214,-102,4,1,0,70,0,0
22299,-103,4,1,0,70,0,0
22385,-104,4,1,0,70,0,0
22556,-106,4,1,0,70,0,0
22728,-95,4,1,0,70,0,0
22814,-133.333333333333,4,1,0,70,0,0
33699,-117.647058823529,4,1,0,70,0,0
34042,-133.333333333333,4,1,0,70,0,0
44671,-111.111111111111,4,1,0,70,0,0
55642,-105.263157894737,4,1,0,70,0,0
61128,-100,4,1,0,70,0,0
62499,-95,4,1,0,70,0,0
63871,-90,4,1,0,70,0,0
63956,-89,4,1,0,70,0,0
64042,-88,4,1,0,70,0,0
64128,-87,4,1,0,70,0,0
64214,-86,4,1,0,70,0,0
64299,-85,4,1,0,70,0,0
64385,-84,4,1,0,70,0,0
64471,-83,4,1,0,70,0,0
64556,-82,4,1,0,70,0,0
64642,-81,4,1,0,70,0,0
64728,-80,4,1,0,70,0,0
64814,-79,4,1,0,70,0,0
64899,-78,4,1,0,70,0,0
64985,-77,4,1,0,70,0,0
65071,-76,4,1,0,70,0,0
65156,-75,4,1,0,70,0,0
65242,-74,4,1,0,70,0,0
65328,-77,4,1,0,70,0,0
65414,-80,4,1,0,70,0,0
65585,-86,4,1,0,70,0,0
65756,-89,4,1,0,70,0,0
65842,-92,4,1,0,70,0,0
65928,-95,4,1,0,70,0,0
66014,-98,4,1,0,70,0,0
66099,-101,4,1,0,70,0,0
66271,-105,4,1,0,70,0,0
66614,-100,4,1,0,70,0,0
88556,-85,4,1,0,80,0,1
107071,-87,4,1,0,80,0,1
107156,-88,4,1,0,80,0,1
107242,-89,4,1,0,80,0,1
107328,-90,4,1,0,80,0,1
107414,-91,4,1,0,80,0,1
107585,-93,4,1,0,80,0,1
107756,-95,4,1,0,70,0,0
108099,-117.647058823529,4,1,0,70,0,0
110499,-100,4,1,0,80,0,1
132442,-100,4,1,0,80,0,0
143756,-108,4,1,0,80,0,0

[Colours]
Combo1 : 231,10,148
Combo2 : 255,255,102
Combo3 : 72,154,255
Combo4 : 255,125,255
Combo5 : 255,207,64

[HitObjects]
376,216,99,5,8,0:0:0:0:
376,216,185,1,8,0:0:0:0:
376,216,271,1,8,0:0:0:0:
376,216,442,1,8,0:0:0:0:
392,224,614,1,8,0:0:0:0:
392,224,785,1,4,0:0:0:0:
384,216,1128,1,8,0:0:0:0:
384,216,1299,1,0,0:0:0:0:
384,216,1385,1,0,0:0:0:0:
384,216,1471,1,0,0:0:0:0:
384,216,1556,1,0,0:0:0:0:
384,216,1642,1,0,0:0:0:0:
384,216,1814,1,8,0:0:0:0:
384,224,1985,1,8,0:0:0:0:
384,232,2156,1,0,0:0:0:0:
384,232,2242,1,0,0:0:0:0:
384,232,2328,1,0,0:0:0:0:
384,232,2414,1,0,0:0:0:0:
384,232,2499,1,8,0:0:0:0:
416,248,2585,1,0,0:0:0:0:
392,232,2671,1,8,0:0:0:0:
416,248,2756,1,8,0:0:0:0:
416,248,2842,1,0,0:0:0:0:
416,248,2928,1,8,0:0:0:0:
416,240,3014,1,0,0:0:0:0:
416,248,3099,1,0,0:0:0:0:
416,232,3185,1,8,0:0:0:0:
400,256,3271,1,8,0:0:0:0:
400,256,3356,1,8,0:0:0:0:
400,256,3442,1,8,0:0:0:0:
400,256,3528,1,0,0:0:0:0:
400,256,3614,1,0,0:0:0:0:
400,256,3699,1,0,0:0:0:0:
400,256,3785,1,0,0:0:0:0:
400,256,3871,1,8,0:0:0:0:
400,240,3956,1,0,0:0:0:0:
400,256,4042,1,8,0:0:0:0:
400,256,4128,1,8,0:0:0:0:
408,248,4214,1,0,0:0:0:0:
408,248,4299,1,0,0:0:0:0:
408,248,4385,1,8,0:0:0:0:
408,248,4471,1,0,0:0:0:0:
408,248,4556,1,8,0:0:0:0:
408,248,4642,1,8,0:0:0:0:
408,248,4728,1,8,0:0:0:0:
408,248,4814,1,8,0:0:0:0:
392,248,4899,1,0,0:0:0:0:
392,256,4985,1,0,0:0:0:0:
392,256,5071,1,0,0:0:0:0:
392,256,5156,1,0,0:0:0:0:
392,248,5242,1,8,0:0:0:0:
392,248,5328,1,0,0:0:0:0:
408,248,5414,1,0,0:0:0:0:
408,248,5499,1,8,0:0:0:0:
408,248,5585,1,0,0:0:0:0:
416,240,5671,1,8,0:0:0:0:
416,240,5756,1,0,0:0:0:0:
416,240,5842,1,0,0:0:0:0:
416,240,5928,1,8,0:0:0:0:
400,248,6014,1,8,0:0:0:0:
400,248,6099,1,8,0:0:0:0:
400,248,6185,1,8,0:0:0:0:
408,240,6271,1,0,0:0:0:0:
408,256,6614,1,8,0:0:0:0:
408,256,6785,1,0,0:0:0:0:
408,256,6871,1,0,0:0:0:0:
408,256,6956,1,0,0:0:0:0:
408,256,7042,1,0,0:0:0:0:
408,256,7128,1,0,0:0:0:0:
408,256,7299,1,8,0:0:0:0:
408,256,7471,1,8,0:0:0:0:
408,256,7642,1,0,0:0:0:0:
408,256,7728,1,0,0:0:0:0:
408,256,7814,1,0,0:0:0:0:
408,256,7899,1,0,0:0:0:0:
408,256,7985,1,8,0:0:0:0:
408,256,8071,1,0,0:0:0:0:
408,256,8156,1,8,0:0:0:0:
408,256,8242,1,8,0:0:0:0:
408,256,8328,1,0,0:0:0:0:
416,264,8414,1,8,0:0:0:0:
416,264,8499,1,0,0:0:0:0:
408,256,8585,1,0,0:0:0:0:
408,256,8671,1,8,0:0:0:0:
408,256,8756,1,8,0:0:0:0:
408,256,8842,1,8,0:0:0:0:
408,256,8928,1,8,0:0:0:0:
408,256,9014,1,0,0:0:0:0:
408,256,9099,1,0,0:0:0:0:
408,256,9185,1,8,0:0:0:0:
408,256,9271,1,0,0:0:0:0:
408,256,9356,1,8,0:0:0:0:
408,256,9442,1,8,0:0:0:0:
416,280,9528,1,8,0:0:0:0:
416,264,9614,1,8,0:0:0:0:
408,256,9699,1,0,0:0:0:0:
416,256,9785,1,8,0:0:0:0:
432,272,9871,1,0,0:0:0:0:
408,256,9956,1,0,0:0:0:0:
408,256,10042,1,8,0:0:0:0:
408,256,10128,1,8,0:0:0:0:
408,256,10214,1,8,0:0:0:0:
408,256,10299,1,8,0:0:0:0:
408,256,10385,1,0,0:0:0:0:
408,248,10728,1,8,0:0:0:0:
408,248,10814,1,8,0:0:0:0:
424,264,10899,1,8,0:0:0:0:
408,248,10985,1,8,0:0:0:0:
408,248,11071,1,0,0:0:0:0:
408,248,11156,1,0,0:0:0:0:
408,248,11242,1,0,0:0:0:0:
408,248,11328,1,0,0:0:0:0:
416,248,11414,1,8,0:0:0:0:
400,264,11585,1,8,0:0:0:0:
432,264,11628,1,8,0:0:0:0:
400,264,11756,1,4,0:0:0:0:
384,240,12099,1,8,0:0:0:0:
400,248,12356,1,8,0:0:0:0:
400,248,12442,1,0,0:0:0:0:
400,248,12614,1,0,0:0:0:0:
400,248,12785,1,8,0:0:0:0:
400,248,12956,1,8,0:0:0:0:
400,248,13128,1,0,0:0:0:0:
400,248,13299,1,0,0:0:0:0:
400,248,13385,1,0,0:0:0:0:
400,248,13471,1,8,0:0:0:0:
400,232,13642,1,0,0:0:0:0:
360,232,13899,1,8,0:0:0:0:
416,256,13985,1,0,0:0:0:0:
408,256,14156,1,8,0:0:0:0:
408,256,14328,1,0,0:0:0:0:
416,272,14499,1,8,0:0:0:0:
416,272,14585,1,8,0:0:0:0:
416,272,14671,1,0,0:0:0:0:
416,272,14756,1,0,0:0:0:0:
416,272,14842,1,8,0:0:0:0:
416,264,14928,1,8,0:0:0:0:
416,264,15014,1,8,0:0:0:0:
416,264,15099,1,8,0:0:0:0:
424,264,15185,1,0,0:0:0:0:
424,264,15356,1,0,0:0:0:0:
424,264,15442,1,0,0:0:0:0:
424,264,15528,1,8,0:0:0:0:
424,264,15699,1,8,0:0:0:0:
416,248,15871,1,0,0:0:0:0:
416,256,16128,1,0,0:0:0:0:
416,256,16214,1,8,0:0:0:0:
416,256,16385,1,0,0:0:0:0:
416,248,16556,1,0,0:0:0:0:
416,248,16642,1,8,0:0:0:0:
416,248,16728,1,0,0:0:0:0:
416,248,16899,1,8,0:0:0:0:
400,248,17071,1,8,0:0:0:0:
400,248,17242,1,4,0:0:0:0:
408,232,17585,1,8,0:0:0:0:
400,240,17842,1,8,0:0:0:0:
400,240,17928,1,0,0:0:0:0:
400,248,18099,1,0,0:0:0:0:
400,248,18271,1,8,0:0:0:0:
400,240,18442,1,8,0:0:0:0:
368,248,18614,1,0,0:0:0:0:
416,256,18956,1,8,0:0:0:0:
392,256,19128,1,0,0:0:0:0:
392,256,19214,1,0,0:0:0:0:
392,256,19299,1,8,0:0:0:0:
392,256,19385,1,8,0:0:0:0:
392,256,19471,1,0,0:0:0:0:
400,256,19642,1,8,0:0:0:0:
400,256,19814,1,0,0:0:0:0:
416,256,19985,1,8,0:0:0:0:
416,256,20071,1,8,0:0:0:0:
416,256,20156,1,0,0:0:0:0:
416,256,20242,1,0,0:0:0:0:
416,256,20328,1,8,0:0:0:0:
416,256,20414,1,0,0:0:0:0:
416,256,20499,1,8,0:0:0:0:
416,256,20585,1,8,0:0:0:0:
416,256,20671,1,0,0:0:0:0:
408,240,20842,1,0,0:0:0:0:
408,240,20928,1,0,0:0:0:0:
408,240,21014,1,8,0:0:0:0:
408,240,21185,1,8,0:0:0:0:
432,240,21356,1,0,0:0:0:0:
432,224,21528,1,0,0:0:0:0:
432,240,21614,1,0,0:0:0:0:
432,240,21699,1,0,0:0:0:0:
432,240,21785,1,0,0:0:0:0:
432,232,21871,1,8,0:0:0:0:
440,240,22214,1,0,0:0:0:0:
440,240,22299,1,0,0:0:0:0:
440,240,22385,1,8,0:0:0:0:
456,232,22556,1,8,0:0:0:0:
456,232,22728,1,4,0:0:0:0:
408,216,24099,1,0,0:0:0:0:
392,224,25471,1,8,0:0:0:0:
400,224,26842,1,8,0:0:0:0:
408,232,28214,1,0,0:0:0:0:
400,224,29585,1,0,0:0:0:0:
392,208,30956,1,8,0:0:0:0:
408,216,32328,1,8,0:0:0:0:
408,224,33699,1,4,0:0:0:0:
408,208,35071,1,0,0:0:0:0:
424,232,36442,1,8,0:0:0:0:
424,232,37814,1,8,0:0:0:0:
408,224,39185,1,0,0:0:0:0:
400,216,40556,1,0,0:0:0:0:
400,240,41928,1,0,0:0:0:0:
408,248,43299,1,8,0:0:0:0:
384,216,44671,1,4,0:0:0:0:
400,232,45185,1,0,0:0:0:0:
400,232,45356,1,8,0:0:0:0:
400,232,45528,1,0,0:0:0:0:
400,216,45871,1,8,0:0:0:0:
400,216,46042,1,0,0:0:0:0:
400,216,46214,1,8,0:0:0:0:
408,232,46556,1,0,0:0:0:0:
408,232,46728,1,8,0:0:0:0:
408,232,46899,1,0,0:0:0:0:
408,232,47071,1,8,0:0:0:0:
408,232,47156,1,8,0:0:0:0:
408,232,47242,1,8,0:0:0:0:
408,232,47414,1,0,0:0:0:0:
392,232,47928,1,0,0:0:0:0:
392,232,48099,1,8,0:0:0:0:
392,232,48271,1,0,0:0:0:0:
392,240,48442,1,8,0:0:0:0:
400,232,48614,1,8,0:0:0:0:
400,232,48699,1,8,0:0:0:0:
400,232,48785,1,0,0:0:0:0:
408,232,48871,1,0,0:0:0:0:
408,232,48956,1,0,0:0:0:0:
400,224,49128,1,8,0:0:0:0:
400,232,49299,1,0,0:0:0:0:
408,224,49471,1,8,0:0:0:0:
408,224,49642,1,0,0:0:0:0:
416,240,49814,1,8,0:0:0:0:
416,240,49899,1,8,0:0:0:0:
416,240,49985,1,8,0:0:0:0:
416,240,50156,1,0,0:0:0:0:
400,240,50671,1,0,0:0:0:0:
400,240,50842,1,8,0:0:0:0:
424,264,51014,1,0,0:0:0:0:
400,256,51356,1,8,0:0:0:0:
400,256,51528,1,0,0:0:0:0:
400,256,51699,1,8,0:0:0:0:
408,256,52042,1,0,0:0:0:0:
408,256,52214,1,8,0:0:0:0:
408,256,52385,1,0,0:0:0:0:
408,256,52556,1,8,0:0:0:0:
408,256,52642,1,8,0:0:0:0:
408,256,52728,1,8,0:0:0:0:
408,256,52899,1,0,0:0:0:0:
416,240,53242,1,0,0:0:0:0:
392,240,53585,1,8,0:0:0:0:
384,232,53928,1,0,0:0:0:0:
384,232,54099,1,8,0:0:0:0:
256,192,54271,12,0,55299,0:0:0:0:
400,240,55642,5,4,0:0:0:0:
416,248,56156,1,8,0:0:0:0:
416,240,56328,1,0,0:0:0:0:
400,240,56499,1,0,0:0:0:0:
416,232,56842,1,8,0:0:0:0:
416,232,57014,1,0,0:0:0:0:
416,232,57185,1,8,0:0:0:0:
392,240,57528,1,8,0:0:0:0:
384,232,57699,1,0,0:0:0:0:
384,232,57871,1,0,0:0:0:0:
400,240,58042,1,8,0:0:0:0:
400,240,58128,1,8,0:0:0:0:
400,240,58214,1,8,0:0:0:0:
400,240,58385,1,0,0:0:0:0:
400,224,58899,1,8,0:0:0:0:
400,224,59071,1,0,0:0:0:0:
408,256,59242,1,0,0:0:0:0:
392,240,59414,1,8,0:0:0:0:
392,240,59585,1,8,0:0:0:0:
392,240,59671,1,8,0:0:0:0:
392,240,59756,1,0,0:0:0:0:
392,240,59842,1,0,0:0:0:0:
392,240,59928,1,0,0:0:0:0:
408,240,60099,1,8,0:0:0:0:
408,240,60271,1,0,0:0:0:0:
392,232,60442,1,0,0:0:0:0:
392,232,60614,1,0,0:0:0:0:
392,232,60785,1,8,0:0:0:0:
408,256,60871,1,8,0:0:0:0:
408,256,60956,1,8,0:0:0:0:
408,256,61128,1,0,0:0:0:0:
408,256,61299,1,8,0:0:0:0:
400,232,61471,1,0,0:0:0:0:
400,240,61642,1,8,0:0:0:0:
400,240,61814,1,0,0:0:0:0:
416,240,61985,1,8,0:0:0:0:
400,232,62156,1,0,0:0:0:0:
400,240,62242,1,0,0:0:0:0:
400,240,62328,1,8,0:0:0:0:
400,248,62499,1,0,0:0:0:0:
400,248,62671,1,8,0:0:0:0:
400,248,62842,1,0,0:0:0:0:
400,248,63014,1,8,0:0:0:0:
400,248,63185,1,0,0:0:0:0:
400,248,63356,1,8,0:0:0:0:
416,264,63528,1,0,0:0:0:0:
416,264,63614,1,0,0:0:0:0:
416,264,63699,1,8,0:0:0:0:
432,264,63871,1,0,0:0:0:0:
432,264,63956,1,0,0:0:0:0:
432,264,64042,1,8,0:0:0:0:
432,264,64128,1,0,0:0:0:0:
432,264,64214,1,8,0:0:0:0:
408,256,64299,1,8,0:0:0:0:
408,256,64385,1,8,0:0:0:0:
408,256,64471,1,8,0:0:0:0:
416,264,64556,1,0,0:0:0:0:
416,264,64642,1,0,0:0:0:0:
416,264,64728,1,0,0:0:0:0:
416,264,64814,1,0,0:0:0:0:
416,264,64899,1,8,0:0:0:0:
416,264,64985,1,0,0:0:0:0:
416,264,65071,1,8,0:0:0:0:
416,264,65156,1,8,0:0:0:0:
416,256,65242,1,0,0:0:0:0:
416,256,65328,1,0,0:0:0:0:
416,256,65414,1,0,0:0:0:0:
424,264,65585,1,8,0:0:0:0:
416,248,65756,1,0,0:0:0:0:
416,248,65842,1,0,0:0:0:0:
416,248,65928,1,8,0:0:0:0:
416,248,66014,1,8,0:0:0:0:
416,248,66099,1,0,0:0:0:0:
416,256,66271,1,8,0:0:0:0:
400,264,66614,1,4,0:0:0:0:
384,240,66956,1,8,0:0:0:0:
408,248,67128,1,0,0:0:0:0:
408,248,67214,1,0,0:0:0:0:
408,248,67299,1,8,0:0:0:0:
400,248,67471,1,0,0:0:0:0:
400,248,67642,1,8,0:0:0:0:
400,248,67814,1,8,0:0:0:0:
400,248,67985,1,0,0:0:0:0:
400,248,68156,1,0,0:0:0:0:
400,248,68242,1,0,0:0:0:0:
400,248,68328,1,8,0:0:0:0:
400,232,68499,1,0,0:0:0:0:
416,256,68671,1,0,0:0:0:0:
360,232,68756,1,8,0:0:0:0:
416,256,68842,1,0,0:0:0:0:
408,256,69014,1,8,0:0:0:0:
408,256,69185,1,0,0:0:0:0:
416,272,69356,1,8,0:0:0:0:
416,272,69442,1,8,0:0:0:0:
416,272,69528,1,0,0:0:0:0:
416,272,69614,1,0,0:0:0:0:
416,272,69699,1,8,0:0:0:0:
416,264,69785,1,8,0:0:0:0:
416,264,69871,1,8,0:0:0:0:
416,264,69956,1,8,0:0:0:0:
424,264,70042,1,0,0:0:0:0:
424,264,70214,1,0,0:0:0:0:
424,264,70299,1,0,0:0:0:0:
424,264,70385,1,8,0:0:0:0:
424,264,70556,1,8,0:0:0:0:
416,248,70728,1,0,0:0:0:0:
424,248,70899,1,0,0:0:0:0:
416,256,70985,1,0,0:0:0:0:
416,256,71071,1,8,0:0:0:0:
416,256,71242,1,0,0:0:0:0:
416,248,71414,1,0,0:0:0:0:
416,248,71499,1,8,0:0:0:0:
416,248,71585,1,0,0:0:0:0:
416,248,71756,1,8,0:0:0:0:
400,248,71928,1,8,0:0:0:0:
400,248,72099,1,4,0:0:0:0:
408,232,72442,1,8,0:0:0:0:
400,240,72699,1,8,0:0:0:0:
400,240,72785,1,0,0:0:0:0:
400,248,72956,1,0,0:0:0:0:
400,248,73128,1,8,0:0:0:0:
400,240,73299,1,8,0:0:0:0:
368,248,73471,1,0,0:0:0:0:
400,264,73642,1,0,0:0:0:0:
416,272,73728,1,0,0:0:0:0:
416,272,73814,1,8,0:0:0:0:
392,256,73985,1,0,0:0:0:0:
392,256,74071,1,0,0:0:0:0:
392,256,74156,1,8,0:0:0:0:
392,256,74242,1,8,0:0:0:0:
392,256,74328,1,0,0:0:0:0:
400,256,74499,1,8,0:0:0:0:
400,256,74671,1,0,0:0:0:0:
416,256,74842,1,8,0:0:0:0:
416,256,74928,1,8,0:0:0:0:
416,256,75014,1,0,0:0:0:0:
416,256,75099,1,0,0:0:0:0:
416,256,75185,1,8,0:0:0:0:
416,256,75271,1,0,0:0:0:0:
416,256,75356,1,8,0:0:0:0:
416,256,75442,1,8,0:0:0:0:
416,256,75528,1,0,0:0:0:0:
408,240,75699,1,0,0:0:0:0:
408,240,75785,1,0,0:0:0:0:
408,240,75871,1,8,0:0:0:0:
408,240,76042,1,8,0:0:0:0:
432,240,76214,1,0,0:0:0:0:
432,224,76385,1,0,0:0:0:0:
432,240,76471,1,0,0:0:0:0:
432,240,76556,1,0,0:0:0:0:
432,232,76728,1,8,0:0:0:0:
416,240,76899,1,8,0:0:0:0:
416,240,76985,1,0,0:0:0:0:
440,240,77071,1,0,0:0:0:0:
416,240,77156,1,0,0:0:0:0:
440,240,77242,1,8,0:0:0:0:
416,240,77328,1,8,0:0:0:0:
456,232,77414,1,8,0:0:0:0:
400,264,77585,1,4,0:0:0:0:
384,240,77928,1,8,0:0:0:0:
408,256,78099,1,8,0:0:0:0:
400,248,78271,1,0,0:0:0:0:
400,248,78442,1,0,0:0:0:0:
408,240,78528,1,0,0:0:0:0:
400,240,78614,1,8,0:0:0:0:
400,248,78785,1,8,0:0:0:0:
400,248,78956,1,0,0:0:0:0:
408,248,79128,1,8,0:0:0:0:
408,240,79214,1,8,0:0:0:0:
400,232,79299,1,8,0:0:0:0:
424,264,79471,1,0,0:0:0:0:
424,264,79556,1,0,0:0:0:0:
416,256,79642,1,8,0:0:0:0:
400,232,79728,1,8,0:0:0:0:
416,256,79814,1,0,0:0:0:0:
432,272,79985,1,8,0:0:0:0:
416,256,80071,1,0,0:0:0:0:
432,248,80156,1,0,0:0:0:0:
432,264,80328,1,8,0:0:0:0:
432,264,80414,1,8,0:0:0:0:
432,264,80499,1,0,0:0:0:0:
432,264,80585,1,0,0:0:0:0:
416,272,80671,1,8,0:0:0:0:
432,264,80756,1,0,0:0:0:0:
416,264,80842,1,8,0:0:0:0:
432,264,80928,1,8,0:0:0:0:
424,264,81014,1,0,0:0:0:0:
424,264,81185,1,0,0:0:0:0:
424,264,81356,1,8,0:0:0:0:
424,264,81442,1,0,0:0:0:0:
424,264,81528,1,8,0:0:0:0:
416,264,81614,1,8,0:0:0:0:
416,248,81699,1,0,0:0:0:0:
416,264,81785,1,0,0:0:0:0:
416,264,81871,1,0,0:0:0:0:
416,256,82042,1,8,0:0:0:0:
416,256,82214,1,0,0:0:0:0:
416,248,82385,1,0,0:0:0:0:
416,248,82556,1,0,0:0:0:0:
416,248,82642,1,0,0:0:0:0:
416,248,82728,1,8,0:0:0:0:
424,240,82814,1,8,0:0:0:0:
400,248,82899,1,8,0:0:0:0:
400,248,83071,1,4,0:0:0:0:
408,232,83414,1,8,0:0:0:0:
400,240,83585,1,8,0:0:0:0:
400,240,83756,1,0,0:0:0:0:
400,248,83928,1,0,0:0:0:0:
392,248,84014,1,0,0:0:0:0:
400,248,84099,1,8,0:0:0:0:
400,240,84271,1,8,0:0:0:0:
368,248,84442,1,0,0:0:0:0:
400,256,84614,1,8,0:0:0:0:
400,256,84699,1,0,0:0:0:0:
416,256,84785,1,8,0:0:0:0:
392,256,84956,1,0,0:0:0:0:
392,256,85042,1,0,0:0:0:0:
392,256,85128,1,8,0:0:0:0:
392,256,85214,1,8,0:0:0:0:
392,256,85299,1,0,0:0:0:0:
400,256,85471,1,8,0:0:0:0:
416,232,85556,1,8,0:0:0:0:
400,248,85642,1,0,0:0:0:0:
416,256,85814,1,8,0:0:0:0:
416,256,85899,1,8,0:0:0:0:
416,256,85985,1,0,0:0:0:0:
416,256,86071,1,0,0:0:0:0:
416,256,86156,1,8,0:0:0:0:
416,256,86242,1,0,0:0:0:0:
416,256,86328,1,8,0:0:0:0:
416,256,86414,1,8,0:0:0:0:
416,256,86499,1,0,0:0:0:0:
408,240,86671,1,0,0:0:0:0:
408,240,86756,1,0,0:0:0:0:
408,240,86842,1,8,0:0:0:0:
424,248,86928,1,0,0:0:0:0:
408,240,87014,1,8,0:0:0:0:
424,248,87099,1,8,0:0:0:0:
432,240,87185,1,0,0:0:0:0:
408,240,87271,1,0,0:0:0:0:
432,224,87356,1,0,0:0:0:0:
432,240,87528,1,8,0:0:0:0:
416,264,87699,1,0,0:0:0:0:
424,264,87785,1,0,0:0:0:0:
424,264,87871,1,8,0:0:0:0:
440,240,88042,1,0,0:0:0:0:
440,240,88214,1,12,0:0:0:0:
456,232,88556,1,4,0:0:0:0:
392,240,88728,1,0,0:0:0:0:
408,240,88814,1,0,0:0:0:0:
392,240,88899,1,8,0:0:0:0:
392,240,89071,1,0,0:0:0:0:
392,240,89242,1,8,0:0:0:0:
392,240,89414,1,8,0:0:0:0:
392,240,89585,1,0,0:0:0:0:
392,240,89756,1,8,0:0:0:0:
400,240,89928,1,0,0:0:0:0:
400,240,90099,1,0,0:0:0:0:
400,240,90185,1,0,0:0:0:0:
400,240,90271,1,8,0:0:0:0:
400,240,90442,1,0,0:0:0:0:
400,240,90614,1,8,0:0:0:0:
400,248,90785,1,8,0:0:0:0:
400,248,90871,1,0,0:0:0:0:
400,248,90956,1,8,0:0:0:0:
400,248,91128,1,8,0:0:0:0:
400,248,91299,1,0,0:0:0:0:
408,232,91471,1,0,0:0:0:0:
408,232,91642,1,8,0:0:0:0:
424,256,91814,1,0,0:0:0:0:
424,256,91899,1,0,0:0:0:0:
424,256,91985,1,8,0:0:0:0:
424,256,92156,1,8,0:0:0:0:
392,240,92328,1,0,0:0:0:0:
392,248,92499,1,8,0:0:0:0:
416,256,92585,1,8,0:0:0:0:
400,240,92671,1,8,0:0:0:0:
400,240,92842,1,0,0:0:0:0:
408,248,93014,1,8,0:0:0:0:
384,256,93185,1,0,0:0:0:0:
384,256,93271,1,0,0:0:0:0:
392,256,93356,1,8,0:0:0:0:
392,256,93442,1,0,0:0:0:0:
392,256,93528,1,0,0:0:0:0:
392,264,93699,1,8,0:0:0:0:
392,264,93871,1,8,0:0:0:0:
392,256,94042,1,0,0:0:0:0:
416,264,94385,1,8,0:0:0:0:
416,264,94556,1,0,0:0:0:0:
416,264,94642,1,0,0:0:0:0:
416,264,94728,1,8,0:0:0:0:
416,272,94899,1,0,0:0:0:0:
416,272,95071,1,8,0:0:0:0:
416,272,95242,1,8,0:0:0:0:
408,272,95414,1,0,0:0:0:0:
408,272,95585,1,0,0:0:0:0:
408,272,95671,1,0,0:0:0:0:
408,272,95756,1,8,0:0:0:0:
408,264,95928,1,0,0:0:0:0:
408,256,96099,1,8,0:0:0:0:
416,256,96271,1,8,0:0:0:0:
416,256,96356,1,8,0:0:0:0:
416,256,96442,1,0,0:0:0:0:
416,256,96528,1,0,0:0:0:0:
416,256,96614,1,8,0:0:0:0:
416,256,96785,1,0,0:0:0:0:
408,248,96956,1,0,0:0:0:0:
408,248,97042,1,0,0:0:0:0:
416,248,97128,1,8,0:0:0:0:
392,264,97299,1,0,0:0:0:0:
392,256,97471,1,8,0:0:0:0:
392,248,97556,1,8,0:0:0:0:
392,248,97642,1,8,0:0:0:0:
400,240,97814,1,0,0:0:0:0:
408,232,97985,1,8,0:0:0:0:
408,232,98071,1,8,0:0:0:0:
408,232,98156,1,0,0:0:0:0:
416,232,98328,1,0,0:0:0:0:
416,232,98499,1,8,0:0:0:0:
400,224,98671,1,0,0:0:0:0:
400,224,98756,1,0,0:0:0:0:
400,224,98842,1,8,0:0:0:0:
392,232,98928,1,0,0:0:0:0:
392,240,99014,1,0,0:0:0:0:
392,240,99185,1,8,0:0:0:0:
408,248,99356,1,8,0:0:0:0:
408,248,99528,1,4,0:0:0:0:
400,232,99871,1,8,0:0:0:0:
400,232,100042,1,0,0:0:0:0:
424,248,100214,1,8,0:0:0:0:
424,248,100299,1,8,0:0:0:0:
424,248,100385,1,0,0:0:0:0:
424,248,100556,1,8,0:0:0:0:
424,248,100728,1,8,0:0:0:0:
408,256,100899,1,0,0:0:0:0:
416,256,101071,1,0,0:0:0:0:
416,256,101156,1,0,0:0:0:0:
416,256,101242,1,8,0:0:0:0:
400,248,101414,1,0,0:0:0:0:
400,248,101585,1,8,0:0:0:0:
400,248,101756,1,8,0:0:0:0:
400,264,101842,1,0,0:0:0:0:
416,248,101928,1,8,0:0:0:0:
416,248,102099,1,8,0:0:0:0:
408,224,102271,1,0,0:0:0:0:
400,240,102442,1,0,0:0:0:0:
400,240,102528,1,0,0:0:0:0:
400,240,102614,1,8,0:0:0:0:
400,240,102785,1,0,0:0:0:0:
400,248,102956,1,0,0:0:0:0:
400,248,103128,1,8,0:0:0:0:
400,248,103299,1,0,0:0:0:0:
408,240,103471,1,8,0:0:0:0:
408,248,103556,1,8,0:0:0:0:
408,248,103642,1,0,0:0:0:0:
408,248,103814,1,0,0:0:0:0:
408,248,103985,1,8,0:0:0:0:
416,248,104156,1,0,0:0:0:0:
416,256,104242,1,0,0:0:0:0:
416,256,104328,1,8,0:0:0:0:
416,256,104414,1,0,0:0:0:0:
416,256,104499,1,0,0:0:0:0:
416,256,104671,1,8,0:0:0:0:
416,256,104842,1,8,0:0:0:0:
416,256,105014,1,0,0:0:0:0:
408,240,105356,1,8,0:0:0:0:
416,248,105528,1,0,0:0:0:0:
416,256,105614,1,0,0:0:0:0:
416,256,105699,1,8,0:0:0:0:
416,256,105871,1,0,0:0:0:0:
416,256,106042,1,8,0:0:0:0:
416,248,106214,1,8,0:0:0:0:
408,240,106385,1,0,0:0:0:0:
408,240,106556,1,0,0:0:0:0:
408,240,106642,1,0,0:0:0:0:
408,240,106728,1,8,0:0:0:0:
408,240,106899,1,0,0:0:0:0:
408,240,107071,1,8,0:0:0:0:
408,240,107156,1,8,0:0:0:0:
408,240,107242,1,0,0:0:0:0:
408,240,107328,1,0,0:0:0:0:
408,240,107414,1,8,0:0:0:0:
408,240,107585,1,8,0:0:0:0:
408,240,107756,1,0,0:0:0:0:
416,264,108099,1,0,0:0:0:0:
416,264,108271,1,8,0:0:0:0:
408,256,108614,1,0,0:0:0:0:
408,264,108785,1,8,0:0:0:0:
400,256,109128,1,0,0:0:0:0:
392,248,109471,1,0,0:0:0:0:
392,248,109642,1,8,0:0:0:0:
384,248,109814,1,0,0:0:0:0:
384,256,109985,1,0,0:0:0:0:
384,256,110156,1,8,0:0:0:0:
400,248,110499,1,4,0:0:0:0:
408,240,110842,1,8,0:0:0:0:
408,240,111014,1,0,0:0:0:0:
408,240,111099,1,0,0:0:0:0:
408,240,111185,1,8,0:0:0:0:
400,248,111271,1,8,0:0:0:0:
408,240,111356,1,0,0:0:0:0:
408,248,111528,1,8,0:0:0:0:
408,264,111699,1,8,0:0:0:0:
408,240,111785,1,8,0:0:0:0:
408,264,111871,1,0,0:0:0:0:
408,264,112042,1,0,0:0:0:0:
408,248,112214,1,8,0:0:0:0:
408,248,112385,1,0,0:0:0:0:
408,248,112471,1,0,0:0:0:0:
400,256,112556,1,8,0:0:0:0:
400,256,112599,1,8,0:0:0:0:
400,256,112728,1,8,0:0:0:0:
400,256,112771,1,8,0:0:0:0:
400,256,112899,1,8,0:0:0:0:
400,256,112942,1,8,0:0:0:0:
400,256,113071,1,0,0:0:0:0:
416,240,113242,1,8,0:0:0:0:
424,256,113328,1,8,0:0:0:0:
416,248,113414,1,0,0:0:0:0:
416,256,113499,1,0,0:0:0:0:
416,256,113585,1,8,0:0:0:0:
416,264,113756,1,8,0:0:0:0:
408,256,113842,1,8,0:0:0:0:
416,264,113928,1,0,0:0:0:0:
416,256,114014,1,8,0:0:0:0:
416,264,114099,1,0,0:0:0:0:
400,240,114185,1,0,0:0:0:0:
416,264,114271,1,8,0:0:0:0:
432,272,114442,1,8,0:0:0:0:
416,256,114614,1,0,0:0:0:0:
416,256,114956,1,8,0:0:0:0:
416,264,115128,1,0,0:0:0:0:
416,264,115214,1,0,0:0:0:0:
416,264,115299,1,8,0:0:0:0:
416,240,115385,1,0,0:0:0:0:
416,240,115471,1,8,0:0:0:0:
416,240,115556,1,8,0:0:0:0:
416,264,115642,1,8,0:0:0:0:
416,264,115814,1,8,0:0:0:0:
400,248,115985,1,4,0:0:0:0:
408,240,116328,1,8,0:0:0:0:
408,240,116499,1,0,0:0:0:0:
408,240,116585,1,0,0:0:0:0:
408,240,116671,1,8,0:0:0:0:
448,248,116756,1,8,0:0:0:0:
408,240,116842,1,0,0:0:0:0:
408,248,117014,1,8,0:0:0:0:
408,264,117185,1,8,0:0:0:0:
400,248,117271,1,8,0:0:0:0:
408,264,117356,1,0,0:0:0:0:
408,264,117528,1,0,0:0:0:0:
408,248,117699,1,8,0:0:0:0:
408,248,117871,1,0,0:0:0:0:
416,240,117956,1,0,0:0:0:0:
400,256,118042,1,8,0:0:0:0:
400,256,118085,1,8,0:0:0:0:
400,256,118214,1,8,0:0:0:0:
400,256,118256,1,8,0:0:0:0:
400,256,118385,1,8,0:0:0:0:
400,256,118428,1,8,0:0:0:0:
400,256,118556,1,0,0:0:0:0:
416,240,118728,1,8,0:0:0:0:
400,240,118814,1,8,0:0:0:0:
416,248,118899,1,0,0:0:0:0:
416,256,118985,1,0,0:0:0:0:
416,256,119071,1,8,0:0:0:0:
408,240,119242,1,8,0:0:0:0:
408,240,119328,1,0,0:0:0:0:
408,256,119414,1,8,0:0:0:0:
408,240,119499,1,8,0:0:0:0:
416,264,119585,1,0,0:0:0:0:
408,240,119671,1,0,0:0:0:0:
416,264,119756,1,8,0:0:0:0:
432,272,119928,1,8,0:0:0:0:
416,256,120099,1,0,0:0:0:0:
424,256,120185,1,0,0:0:0:0:
408,240,120271,1,0,0:0:0:0:
400,240,120442,1,8,0:0:0:0:
416,264,120614,1,0,0:0:0:0:
416,264,120699,1,0,0:0:0:0:
416,264,120785,1,8,0:0:0:0:
416,264,120956,1,0,0:0:0:0:
416,264,121128,1,8,0:0:0:0:
416,264,121299,1,8,0:0:0:0:
400,248,121471,1,4,0:0:0:0:
408,240,121814,1,8,0:0:0:0:
408,240,121985,1,0,0:0:0:0:
408,240,122071,1,0,0:0:0:0:
408,240,122156,1,8,0:0:0:0:
408,240,122242,1,8,0:0:0:0:
408,240,122328,1,0,0:0:0:0:
424,256,122414,1,0,0:0:0:0:
408,248,122499,1,8,0:0:0:0:
408,264,122671,1,8,0:0:0:0:
408,264,122842,1,0,0:0:0:0:
408,264,123014,1,0,0:0:0:0:
408,248,123185,1,8,0:0:0:0:
408,248,123356,1,0,0:0:0:0:
376,224,123442,1,0,0:0:0:0:
400,256,123528,1,8,0:0:0:0:
400,256,123571,1,8,0:0:0:0:
400,256,123699,1,8,0:0:0:0:
400,256,123742,1,8,0:0:0:0:
400,256,123871,1,8,0:0:0:0:
400,256,123914,1,8,0:0:0:0:
400,256,124042,1,0,0:0:0:0:
416,240,124214,1,8,0:0:0:0:
408,248,124299,1,8,0:0:0:0:
416,248,124385,1,0,0:0:0:0:
416,256,124471,1,0,0:0:0:0:
416,256,124556,1,8,0:0:0:0:
424,264,124642,1,0,0:0:0:0:
424,264,124728,1,8,0:0:0:0:
408,256,124814,1,8,0:0:0:0:
408,256,124899,1,8,0:0:0:0:
416,264,125071,1,0,0:0:0:0:
416,264,125242,1,8,0:0:0:0:
432,272,125414,1,8,0:0:0:0:
416,256,125585,1,0,0:0:0:0:
416,256,125928,1,8,0:0:0:0:
416,256,126099,1,8,0:0:0:0:
416,264,126185,1,0,0:0:0:0:
416,264,126271,1,8,0:0:0:0:
416,264,126442,1,0,0:0:0:0:
416,264,126614,1,8,0:0:0:0:
416,264,126785,1,8,0:0:0:0:
400,248,126956,1,4,0:0:0:0:
408,240,127299,1,8,0:0:0:0:
408,240,127471,1,0,0:0:0:0:
408,240,127556,1,0,0:0:0:0:
408,240,127642,1,8,0:0:0:0:
424,240,127728,1,8,0:0:0:0:
408,240,127814,1,0,0:0:0:0:
424,240,127899,1,0,0:0:0:0:
408,248,127985,1,8,0:0:0:0:
408,264,128156,1,8,0:0:0:0:
408,264,128328,1,0,0:0:0:0:
408,264,128499,1,0,0:0:0:0:
408,248,128671,1,8,0:0:0:0:
408,248,128842,1,0,0:0:0:0:
400,264,128928,1,0,0:0:0:0:
400,256,129014,1,8,0:0:0:0:
400,256,129056,1,8,0:0:0:0:
400,256,129185,1,8,0:0:0:0:
400,256,129228,1,8,0:0:0:0:
400,256,129356,1,8,0:0:0:0:
400,256,129399,1,8,0:0:0:0:
400,256,129528,1,0,0:0:0:0:
416,240,129699,1,8,0:0:0:0:
432,248,129785,1,8,0:0:0:0:
416,248,129871,1,0,0:0:0:0:
416,256,129956,1,0,0:0:0:0:
416,256,130042,1,8,0:0:0:0:
432,248,130128,1,0,0:0:0:0:
432,248,130214,1,8,0:0:0:0:
408,256,130299,1,8,0:0:0:0:
400,240,130385,1,0,0:0:0:0:
400,240,130471,1,0,0:0:0:0:
400,232,130556,1,8,0:0:0:0:
400,232,130642,1,0,0:0:0:0:
416,264,130728,1,8,0:0:0:0:
432,272,130899,1,8,0:0:0:0:
416,256,131071,1,0,0:0:0:0:
416,256,131242,1,0,0:0:0:0:
416,264,131585,1,8,0:0:0:0:
424,256,131671,1,8,0:0:0:0:
416,248,131756,1,0,0:0:0:0:
416,264,131928,1,0,0:0:0:0:
416,264,132099,1,8,0:0:0:0:
416,264,132271,1,8,0:0:0:0:
400,264,132442,1,4,0:0:0:0:
384,240,132785,1,8,0:0:0:0:
400,248,133042,1,8,0:0:0:0:
400,248,133128,1,0,0:0:0:0:
400,248,133299,1,0,0:0:0:0:
400,248,133471,1,8,0:0:0:0:
400,248,133642,1,8,0:0:0:0:
400,248,133814,1,0,0:0:0:0:
400,248,133985,1,0,0:0:0:0:
400,248,134071,1,0,0:0:0:0:
400,248,134156,1,8,0:0:0:0:
400,232,134328,1,0,0:0:0:0:
400,256,134499,1,8,0:0:0:0:
400,256,134585,1,8,0:0:0:0:
416,256,134671,1,0,0:0:0:0:
408,256,134842,1,8,0:0:0:0:
408,256,135014,1,0,0:0:0:0:
416,272,135185,1,8,0:0:0:0:
416,272,135271,1,8,0:0:0:0:
416,272,135356,1,0,0:0:0:0:
416,272,135442,1,0,0:0:0:0:
416,272,135528,1,8,0:0:0:0:
416,264,135614,1,8,0:0:0:0:
416,264,135699,1,8,0:0:0:0:
416,264,135785,1,8,0:0:0:0:
424,264,135871,1,0,0:0:0:0:
424,264,136042,1,0,0:0:0:0:
424,264,136128,1,0,0:0:0:0:
424,264,136214,1,8,0:0:0:0:
424,264,136385,1,8,0:0:0:0:
416,248,136556,1,0,0:0:0:0:
416,256,136814,1,0,0:0:0:0:
416,256,136899,1,8,0:0:0:0:
416,256,137071,1,0,0:0:0:0:
416,248,137242,1,0,0:0:0:0:
416,248,137328,1,8,0:0:0:0:
416,248,137414,1,0,0:0:0:0:
416,248,137585,1,8,0:0:0:0:
400,248,137756,1,8,0:0:0:0:
400,248,137928,1,4,0:0:0:0:
408,232,138271,1,8,0:0:0:0:
400,240,138528,1,8,0:0:0:0:
400,240,138614,1,0,0:0:0:0:
400,248,138785,1,0,0:0:0:0:
400,248,138956,1,8,0:0:0:0:
400,240,139128,1,8,0:0:0:0:
368,248,139299,1,0,0:0:0:0:
384,224,139471,1,0,0:0:0:0:
376,248,139556,1,0,0:0:0:0:
416,256,139642,1,8,0:0:0:0:
392,256,139814,1,0,0:0:0:0:
392,256,139899,1,0,0:0:0:0:
392,256,139985,1,8,0:0:0:0:
392,256,140071,1,8,0:0:0:0:
392,256,140156,1,0,0:0:0:0:
400,256,140328,1,8,0:0:0:0:
400,256,140499,1,0,0:0:0:0:
416,256,140671,1,8,0:0:0:0:
416,256,140756,1,8,0:0:0:0:
416,256,140842,1,0,0:0:0:0:
416,256,140928,1,0,0:0:0:0:
416,256,141014,1,8,0:0:0:0:
416,256,141099,1,0,0:0:0:0:
416,256,141185,1,8,0:0:0:0:
416,256,141271,1,8,0:0:0:0:
416,256,141356,1,0,0:0:0:0:
408,240,141528,1,0,0:0:0:0:
408,240,141614,1,0,0:0:0:0:
408,240,141699,1,8,0:0:0:0:
408,240,141871,1,8,0:0:0:0:
432,240,142042,1,0,0:0:0:0:
432,224,142214,1,0,0:0:0:0:
416,216,142299,1,0,0:0:0:0:
432,240,142385,1,0,0:0:0:0:
432,232,142556,1,8,0:0:0:0:
440,240,142899,5,0,0:0:0:0:
440,240,142985,1,0,0:0:0:0:
440,240,143071,1,8,0:0:0:0:
456,232,143242,1,8,0:0:0:0:
456,232,143414,1,4,0:0:0:0:
384,232,143756,1,8,0:0:0:0:
384,256,144014,1,0,0:0:0:0:
384,256,144185,1,0,0:0:0:0:
384,256,144271,1,0,0:0:0:0:
392,224,144356,1,0,0:0:0:0:
384,256,144442,1,8,0:0:0:0:
384,256,144614,1,8,0:0:0:0:
400,256,144785,1,0,0:0:0:0:
400,256,144871,1,0,0:0:0:0:
400,256,144956,1,0,0:0:0:0:
400,256,145042,1,0,0:0:0:0:
400,256,145128,1,8,0:0:0:0:
384,256,145214,1,0,0:0:0:0:
384,256,145299,1,0,0:0:0:0:
384,256,145385,1,8,0:0:0:0:
400,256,145471,1,0,0:0:0:0:
400,256,145556,1,8,0:0:0:0:
400,256,145642,1,0,0:0:0:0:
400,256,145728,1,0,0:0:0:0:
400,256,145814,1,8,0:0:0:0:
408,256,145899,1,8,0:0:0:0:
400,256,145985,1,0,0:0:0:0:
408,256,146071,1,8,0:0:0:0:
408,256,146156,1,0,0:0:0:0:
408,256,146242,1,0,0:0:0:0:
408,256,146328,1,0,0:0:0:0:
408,256,146414,1,0,0:0:0:0:
408,256,146499,1,8,0:0:0:0:
416,240,146585,1,0,0:0:0:0:
416,248,146671,1,0,0:0:0:0:
416,248,146756,1,8,0:0:0:0:
416,248,146842,1,0,0:0:0:0:
416,248,146928,1,8,0:0:0:0:
408,272,147014,1,8,0:0:0:0:
416,248,147099,1,0,0:0:0:0:
416,248,147185,1,8,0:0:0:0:
416,248,147271,1,8,0:0:0:0:
416,248,147356,1,0,0:0:0:0:
416,248,147442,1,8,0:0:0:0:
408,240,147528,1,0,0:0:0:0:
408,248,147614,1,0,0:0:0:0:
408,248,147699,1,0,0:0:0:0:
408,248,147785,1,0,0:0:0:0:
408,248,147871,1,8,0:0:0:0:
408,248,147956,1,0,0:0:0:0:
408,248,148042,1,0,0:0:0:0:
408,248,148128,1,8,0:0:0:0:
408,248,148214,1,0,0:0:0:0:
408,248,148299,1,8,0:0:0:0:
408,264,148385,1,0,0:0:0:0:
408,264,148471,1,0,0:0:0:0:
408,264,148556,1,8,0:0:0:0:
408,264,148642,1,8,0:0:0:0:
408,264,148728,1,0,0:0:0:0:
408,264,148814,1,8,0:0:0:0:
408,264,148899,1,0,0:0:0:0:
400,232,149242,1,8,0:0:0:0:
408,248,149499,1,0,0:0:0:0:
408,248,149671,1,0,0:0:0:0:
408,248,149756,1,0,0:0:0:0:
408,248,149842,1,0,0:0:0:0:
408,248,149928,1,8,0:0:0:0:
408,248,150099,1,8,0:0:0:0:
392,256,150271,1,0,0:0:0:0:
392,256,150356,1,0,0:0:0:0:
392,256,150442,1,0,0:0:0:0:
392,256,150528,1,0,0:0:0:0:
392,256,150614,1,8,0:0:0:0:
392,256,150699,1,0,0:0:0:0:
392,256,150785,1,0,0:0:0:0:
392,256,150871,1,8,0:0:0:0:
392,256,150956,1,0,0:0:0:0:
408,248,151042,1,8,0:0:0:0:
408,248,151128,1,0,0:0:0:0:
408,240,151214,1,0,0:0:0:0:
408,240,151299,1,8,0:0:0:0:
408,240,151385,1,0,0:0:0:0:
408,240,151471,1,8,0:0:0:0:
408,240,151556,1,8,0:0:0:0:
408,240,151642,1,0,0:0:0:0:
256,192,151985,12,0,154385,0:0:0:0:
