osu file format v14

[General]
AudioFilename: audio.mp3
AudioLeadIn: 0
PreviewTime: 65499
Countdown: 0
SampleSet: Soft
StackLeniency: 0.7
Mode: 0
LetterboxInBreaks: 0
EpilepsyWarning: 1
WidescreenStoryboard: 1

[Editor]
Bookmarks: 10385,66614,88556,110499,132442,143414
DistanceSpacing: 1.3
BeatDivisor: 4
GridSize: 4
TimelineZoom: 3.099999

[Metadata]
Title:By Design
TitleUnicode:By Design
Artist:WRLD
ArtistUnicode:WRLD
Creator:depzdai
Version:Insane
Source:
Tags:dancefloor drum and bass cut version monstercat 028
BeatmapID:2174301
BeatmapSetID:1040293

[Difficulty]
HPDrainRate:5
CircleSize:4
OverallDifficulty:8
ApproachRate:9
SliderMultiplier:1.55
SliderTickRate:1

[Events]
//Background and Video events
0,0,"ByDesign.png",0,0
//Break Periods
//Storyboard Layer 0 (Background)
//Storyboard Layer 1 (Fail)
//Storyboard Layer 2 (Pass)
//Storyboard Layer 3 (Foreground)
//Storyboard Layer 4 (Overlay)
//Storyboard Sound Samples

[TimingPoints]
-586,342.857142857143,4,2,1,75,1,0
99,-125,4,2,1,50,0,0
356,-125,4,2,1,5,0,0
442,-125,4,2,1,50,0,0
528,-125,4,2,1,5,0,0
614,-125,4,2,1,25,0,0
785,-111.111111111111,4,2,1,75,0,0
11756,-100,4,2,1,75,0,0
22728,-125,4,2,1,75,0,0
44671,-111.111111111111,4,2,1,75,0,0
55556,-111.111111111111,4,2,1,5,0,0
55642,-111.111111111111,4,2,1,75,0,0
64214,-111.111111111111,4,2,1,75,0,0
64556,-111.111111111111,4,2,1,75,0,0
64899,-111.111111111111,4,2,1,75,0,0
65242,-111.111111111111,4,2,1,75,0,0
65585,-111.111111111111,4,2,1,50,0,0
66271,-100,4,2,1,75,0,0
66614,-100,4,2,1,75,0,0
77585,-100,4,2,1,75,0,1
87185,-111.111111111111,4,2,1,50,0,0
88214,-90.9090909090909,4,2,1,50,0,0
88556,-100,4,2,1,75,0,0
107928,-111.111111111111,4,2,1,50,0,0
109642,-100,4,2,1,75,0,0
110156,-83.3333333333333,4,2,1,75,0,0
110499,-90.9090909090909,4,2,1,75,0,1
131071,-111.111111111111,4,2,1,50,0,0
132099,-76.9230769230769,4,2,1,75,0,0
132442,-100,4,2,1,75,0,0

[Colours]
Combo1 : 232,232,232
Combo2 : 255,255,108
Combo3 : 89,164,255
Combo4 : 255,94,174
Combo5 : 255,182,108
Combo6 : 205,205,205

[HitObjects]
112,81,99,70,0,L|101:32,2,31,2|2|2,0:3|0:3|0:3,0:0:0:0:
65,154,442,1,2,0:3:0:0:
112,227,614,1,2,0:0:0:0:
116,231,699,1,2,0:0:0:0:
120,235,785,6,0,P|102:268|101:318,1,69.749997871399,4|0,3:1|0:0,0:0:0:0:
164,371,1128,2,0,P|201:370|245:345,1,69.749997871399,8|0,0:0|0:0,0:0:0:0:
260,265,1471,1,0,0:0:0:0:
260,265,1556,1,0,0:0:0:0:
260,265,1642,1,0,3:0:0:0:
355,288,1814,2,0,P|392:288|436:313,1,69.749997871399,8|0,0:0|0:0,0:0:0:0:
506,189,2156,70,0,P|474:202|440:203,1,69.749997871399,0|0,3:0|0:0,0:0:0:0:
375,129,2499,2,0,P|379:94|396:64,1,69.749997871399,8|0,0:0|0:0,0:0:0:0:
315,9,2842,1,0,0:0:0:0:
315,9,2928,1,0,0:0:0:0:
315,9,3014,1,0,3:0:0:0:
233,64,3185,2,0,L|255:130,1,69.749997871399,8|0,0:0|0:0,0:0:0:0:
150,251,3528,6,0,L|172:184,1,69.749997871399,0|0,3:0|0:0,0:0:0:0:
38,124,3871,2,0,L|107:111,1,69.749997871399,8|0,0:0|0:0,0:0:0:0:
58,220,4214,1,0,0:0:0:0:
58,220,4299,1,0,0:0:0:0:
58,220,4385,1,0,3:0:0:0:
38,315,4556,2,0,L|106:328,1,69.749997871399,8|0,0:0|0:0,0:0:0:0:
260,269,4899,70,0,L|192:283,1,69.749997871399,0|0,3:0|0:0,0:0:0:0:
353,299,5242,2,0,L|399:351,1,69.749997871399,8|0,0:0|0:0,0:0:0:0:
333,204,5585,1,0,0:0:0:0:
333,204,5671,1,0,0:0:0:0:
333,204,5756,1,0,3:0:0:0:
364,111,5928,1,8,0:0:0:0:
231,33,6099,1,2,0:0:0:0:
231,33,6185,1,2,0:0:0:0:
231,33,6271,6,0,P|264:42|299:38,1,69.749997871399,0|0,3:0|0:0,0:0:0:0:
380,92,6614,2,0,P|388:125|410:152,1,69.749997871399,8|0,0:0|0:0,0:0:0:0:
403,249,6956,1,0,0:0:0:0:
403,249,7042,1,0,0:0:0:0:
403,249,7128,1,0,3:0:0:0:
468,318,7299,2,0,P|490:291|499:258,1,69.749997871399,8|0,0:0|0:0,0:0:0:0:
337,318,7642,70,0,P|315:290|306:257,1,69.749997871399,0|0,3:0|0:0,0:0:0:0:
312,159,7985,2,0,P|324:126|349:102,1,69.749997871399,8|0,0:0|0:0,0:0:0:0:
437,57,8328,1,0,0:0:0:0:
437,57,8414,1,0,0:0:0:0:
437,57,8499,1,0,3:0:0:0:
257,68,8671,2,0,L|216:6,1,69.749997871399,8|0,0:0|0:0,0:0:0:0:
169,113,9014,6,0,L|115:193,1,69.749997871399,0|0,3:0|0:0,0:0:0:0:
155,330,9356,2,0,L|124:268,1,69.749997871399,8|0,0:0|0:0,0:0:0:0:
42,213,9699,1,0,0:0:0:0:
42,213,9785,1,0,0:0:0:0:
42,213,9871,1,0,3:0:0:0:
211,226,10042,2,0,L|280:230,1,69.749997871399,8|0,0:0|0:0,0:0:0:0:
449,243,10385,69,0,3:0:0:0:
368,188,10728,6,0,L|365:153,3,34.8749989356995,0|0|0|0,3:0|3:0|3:0|3:0,0:0:0:0:
335,114,11071,2,0,L|337:79,3,34.8749989356995,0|0|0|0,3:0|3:0|3:0|3:0,0:0:0:0:
368,40,11414,69,8,0:1:0:0:
229,91,11585,1,2,0:0:0:0:
225,87,11671,1,2,0:0:0:0:
221,83,11756,22,0,P|150:95|129:88,1,77.5,4|0,1:0|0:0,0:0:0:0:
14,165,12099,2,0,P|52:163|89:177,1,77.5,8|0,0:1|0:0,0:0:0:0:
117,273,12442,1,0,0:0:0:0:
60,356,12614,1,0,1:0:0:0:
117,273,12785,1,8,0:1:0:0:
216,288,12956,1,0,0:0:0:0:
273,205,13128,6,0,L|398:185,1,116.25,0|0,1:0|0:0,0:0:0:0:
420,148,13471,1,8,0:1:0:0:
216,122,13642,2,0,L|91:102,1,116.25,0|0,0:0|0:0,0:0:0:0:
69,65,13985,1,0,1:0:0:0:
273,39,14156,2,0,L|352:26,1,77.5,8|0,0:1|0:0,0:0:0:0:
421,98,14499,6,0,L|408:177,1,77.5,4|0,1:0|0:0,0:0:0:0:
348,322,14842,2,0,L|336:246,1,77.5,8|0,0:1|0:0,0:0:0:0:
243,206,15185,1,0,0:0:0:0:
171,278,15356,1,0,1:0:0:0:
78,238,15528,1,8,0:1:0:0:
150,166,15700,1,0,0:0:0:0:
99,350,15871,6,0,P|170:336|236:353,1,116.25,0|0,1:0|0:0,0:0:0:0:
245,381,16214,1,8,0:1:0:0:
416,229,16385,2,0,P|345:215|279:232,1,116.25,0|0,0:0|0:0,0:0:0:0:
270,260,16728,1,0,1:0:0:0:
99,108,16899,1,8,0:1:0:0:
245,139,17071,1,2,0:0:0:0:
241,143,17156,1,2,0:0:0:0:
237,147,17242,38,0,P|223:110|231:57,1,77.5,4|0,1:0|0:0,0:0:0:0:
150,197,17585,2,0,P|152:235|138:271,1,77.5,8|0,0:1|0:0,0:0:0:0:
56,159,17928,1,0,0:0:0:0:
147,105,18099,1,0,1:0:0:0:
241,143,18271,1,8,0:1:0:0:
147,105,18442,1,0,0:0:0:0:
332,89,18614,6,0,P|373:152|430:175,1,116.25,0|0,1:0|0:0,0:0:0:0:
456,160,18956,1,8,0:1:0:0:
264,341,19129,2,0,P|291:290|340:260,1,116.25,0|0,0:0|0:0,0:0:0:0:
388,269,19471,1,0,1:0:0:0:
196,89,19642,2,0,P|223:139|259:164,1,77.5,8|0,0:1|0:0,0:0:0:0:
169,277,19985,6,0,P|143:305|128:341,1,77.5,4|0,1:0|0:0,0:0:0:0:
358,359,20328,2,0,P|329:334|311:300,1,77.5,8|0,0:1|0:0,0:0:0:0:
447,146,20671,2,0,P|414:166|376:173,1,77.5,0|0,0:0|1:0,0:0:0:0:
275,71,21014,1,8,0:1:0:0:
74,116,21185,2,0,P|113:119|147:136,1,77.5,0|0,0:0|1:0,0:0:0:0:
256,192,21442,12,4,22728,1:0:0:0:
131,221,23071,22,0,P|121:187|31:128,1,124
10,286,23756,1,0,0:0:0:0:
87,309,23928,2,0,L|212:300,1,124,0|0,0:0|0:0,0:0:0:0:
431,200,24785,2,0,L|307:191,1,124,0|0,0:0|0:0,0:0:0:0:
232,222,25299,1,0,0:0:0:0:
242,141,25471,5,0,0:0:0:0:
237,127,26156,2,0,P|182:156|121:156,1,124,0|0,0:0|0:0,0:0:0:0:
116,237,26671,2,0,P|49:235|-13:193,1,124,0|0,0:0|0:0,0:0:0:0:
242,46,27528,2,0,P|309:48|371:90,1,124,0|0,0:0|0:0,0:0:0:0:
363,156,28042,1,0,0:0:0:0:
430,110,28214,69,0,0:0:0:0:
441,122,28899,2,0,P|422:195|453:257,1,124,0|0,0:0|0:0,0:0:0:0:
511,272,29414,2,0,P|457:219|388:214,1,124,0|0,0:0|0:0,0:0:0:0:
217,355,30271,2,0,P|276:343|319:299,1,124,0|0,0:0|0:0,0:0:0:0:
332,219,30785,1,0,0:0:0:0:
398,290,30956,5,0,0:0:0:0:
253,228,31299,2,0,L|240:89,1,124,0|0,0:0|0:0,0:0:0:0:
399,71,31985,1,0,0:0:0:0:
344,129,32156,2,0,L|325:326,1,186,0|0,0:0|0:0,0:0:0:0:
163,259,32842,2,0,L|144:61,1,186,0|0,0:0|0:0,0:0:0:0:
311,21,33528,1,0,0:0:0:0:
311,21,33614,1,0,0:0:0:0:
311,21,33699,69,0,0:0:0:0:
317,37,34385,2,0,P|286:78|280:151,1,124,0|0,0:0|0:0,0:0:0:0:
201,170,34899,2,0,P|139:165|85:193,1,124,0|0,0:0|0:0,0:0:0:0:
277,340,35756,2,0,P|256:292|196:250,1,124,0|0,0:0|0:0,0:0:0:0:
119,265,36271,1,0,0:0:0:0:
147,189,36442,5,0,0:0:0:0:
134,180,37128,2,0,L|118:37,1,124,0|0,0:0|0:0,0:0:0:0:
186,10,37642,2,0,L|317:67,1,124,0|0,0:0|0:0,0:0:0:0:
207,213,38499,2,0,L|307:140,1,124,0|0,0:0|0:0,0:0:0:0:
374,93,39014,1,0,0:0:0:0:
299,59,39185,69,0,0:0:0:0:
293,41,39699,1,0,0:0:0:0:
219,75,39871,2,0,L|87:91,1,124,0|0,0:0|0:0,0:0:0:0:
41,149,40385,2,0,P|34:220|68:275,1,124,0|0,0:0|0:0,0:0:0:0:
274,372,41242,2,0,P|299:316|290:256,1,124,0|0,0:0|0:0,0:0:0:0:
232,200,41756,1,0,0:0:0:0:
274,131,41928,5,0,0:0:0:0:
372,3,42271,2,0,P|381:63|355:118,1,124,0|0,0:0|0:0,0:0:0:0:
194,109,42956,1,0,0:0:0:0:
122,146,43128,2,0,P|96:201|152:313,1,186,0|0,0:0|0:0,0:0:0:0:
367,308,43814,2,0,P|415:232|390:146,1,186,0|0,0:0|0:0,0:0:0:0:
256,56,44499,1,0,0:0:0:0:
256,56,44585,1,0,0:0:0:0:
256,56,44671,70,0,P|292:36|341:33,1,69.749997871399,4|0,1:0|0:0,0:0:0:0:
403,67,45185,1,0,0:0:0:0:
403,67,45356,2,0,P|423:103|426:152,1,69.749997871399,2|0,0:0|0:0,0:0:0:0:
390,214,45871,2,0,L|315:220,1,69.749997871399,0|2,0:0|0:0,0:0:0:0:
283,303,46214,2,0,L|208:309,1,69.749997871399,0|0,0:0|0:0,0:0:0:0:
145,368,46556,1,0,0:0:0:0:
145,368,46727,2,0,P|125:332|122:283,1,69.749997871399,2|0,0:0|0:0,0:0:0:0:
169,225,47071,1,0,0:0:0:0:
169,225,47156,1,0,0:0:0:0:
169,225,47242,1,0,0:0:0:0:
217,145,47414,6,0,P|210:111|193:82,1,69.749997871399,2|0,0:0|0:0,0:0:0:0:
109,45,47928,1,0,0:0:0:0:
109,45,48099,2,0,P|74:51|45:69,1,69.749997871399,2|0,0:0|0:0,0:0:0:0:
192,81,48442,1,0,0:0:0:0:
275,117,48614,2,0,L|273:167,3,34.8749989356995,0|0|2|0,0:0|0:0|0:0|0:0,0:0:0:0:
244,186,48956,1,0,0:0:0:0:
329,291,49128,2,0,L|326:221,1,69.749997871399,0|0,0:0|0:0,0:0:0:0:
373,143,49471,1,2,0:0:0:0:
455,178,49642,1,0,0:0:0:0:
459,269,49814,1,0,0:0:0:0:
459,269,49899,1,0,0:0:0:0:
459,269,49985,1,0,0:0:0:0:
380,313,50156,70,0,P|339:324|297:317,1,69.749997871399,2|0,0:0|0:0,0:0:0:0:
243,262,50671,1,0,0:0:0:0:
243,262,50842,2,0,P|235:220|246:178,1,69.749997871399,2|0,0:0|0:0,0:0:0:0:
305,130,51356,2,0,L|374:123,1,69.749997871399,0|2,0:0|0:0,0:0:0:0:
164,78,51699,2,0,L|234:72,1,69.749997871399,0|0,0:0|0:0,0:0:0:0:
64,45,52042,1,0,0:0:0:0:
64,45,52214,2,0,P|71:79|67:114,1,69.749997871399,2|0,0:0|0:0,0:0:0:0:
128,180,52556,1,0,0:0:0:0:
128,180,52642,1,0,0:0:0:0:
128,180,52728,1,0,0:0:0:0:
188,246,52899,2,0,P|183:280|190:314,1,69.749997871399,2|0,0:0|0:0,0:0:0:0:
321,314,53242,6,0,P|328:280|324:246,1,69.749997871399,0|0,0:0|0:0,0:0:0:0:
374,126,53585,2,0,P|403:104|461:88,1,69.749997871399,2|0,0:0|0:0,0:0:0:0:
256,70,53928,1,0,0:0:0:0:
78,91,54099,2,0,P|110:104|138:126,1,69.749997871399,0|2,0:0|0:0,0:0:0:0:
256,192,54356,12,0,55556,0:0:0:0:
461,62,55642,70,0,L|435:229,1,139.499995742798,4|0,1:0|0:0,0:0:0:0:
431,69,56328,2,0,L|405:236,1,139.499995742798,0|0,1:0|0:0,0:0:0:0:
401,76,57014,2,0,L|375:243,1,139.499995742798,0|0,1:0|0:0,0:0:0:0:
371,83,57699,2,0,L|345:250,1,139.499995742798,0|0,1:0|0:0,0:0:0:0:
319,227,58385,6,0,L|341:90,1,139.499995742798,0|0,1:0|0:0,0:0:0:0:
289,234,59071,2,0,L|311:97,1,139.499995742798,0|0,1:0|0:0,0:0:0:0:
259,241,59757,2,0,L|281:104,1,139.499995742798,0|0,1:0|0:0,0:0:0:0:
229,248,60442,2,0,L|251:111,1,139.499995742798,0|0,1:0|0:0,0:0:0:0:
221,118,60956,1,0,0:0:0:0:
199,255,61128,6,0,L|213:345,1,69.749997871399,0|2,1:0|0:0,0:0:0:0:
221,118,61471,2,0,L|209:49,1,69.749997871399,0|2,1:0|0:0,0:0:0:0:
141,175,61814,2,0,L|50:190,1,69.749997871399,0|2,1:0|0:0,0:0:0:0:
278,197,62157,2,0,L|347:186,1,69.749997871399,0|2,1:0|0:0,0:0:0:0:
199,255,62499,5,0,1:0:0:0:
221,118,62671,1,2,0:0:0:0:
141,175,62842,1,0,1:0:0:0:
278,197,63014,1,2,0:0:0:0:
111,258,63185,5,0,1:0:0:0:
308,115,63357,1,2,0:0:0:0:
138,87,63528,1,0,1:0:0:0:
280,284,63700,1,2,0:0:0:0:
209,186,63871,5,0,1:0:0:0:
202,151,63956,1,2,0:3:0:0:
209,117,64042,1,2,0:3:0:0:
229,89,64128,1,2,0:3:0:0:
257,69,64213,1,0,1:0:0:0:
291,61,64299,1,2,0:3:0:0:
325,66,64385,1,2,0:3:0:0:
355,84,64470,1,2,0:3:0:0:
376,112,64556,38,0,P|375:148|368:171,3,34.8749989356995,0|2|2|2,1:0|0:3|0:3|0:3,0:0:0:0:
428,202,64899,2,0,P|396:219|372:224,3,34.8749989356995,0|2|2|2,1:0|0:3|0:3|0:3,0:0:0:0:
376,292,65242,2,0,P|344:273|328:255,3,34.8749989356995,0|2|2|2,1:0|0:3|0:3|0:3,0:0:0:0:
316,202,65585,54,0,L|278:193,1,34.8749989356995,8|2,0:1|0:3,0:0:0:0:
198,266,65756,2,0,L|233:259,1,34.8749989356995,2|2,0:3|0:3,0:0:0:0:
129,166,65928,2,0,L|163:174,1,34.8749989356995,2|2,0:3|0:3,0:0:0:0:
80,286,66099,2,0,L|43:295,1,34.8749989356995,2|2,0:3|0:3,0:0:0:0:
10,145,66271,5,8,0:1:0:0:
30,149,66614,6,0,P|46:108|37:44,1,77.5,4|0,1:0|0:0,0:0:0:0:
163,174,66956,2,0,P|179:215|170:279,1,77.5,8|0,0:1|0:0,0:0:0:0:
59,267,67299,1,0,0:0:0:0:
30,149,67471,1,0,1:0:0:0:
179,248,67642,1,8,0:1:0:0:
42,299,67814,1,0,0:0:0:0:
228,360,67985,6,0,L|150:366,1,77.5,0|0,1:0|0:0,0:0:0:0:
304,263,68328,1,8,0:1:0:0:
412,330,68499,2,0,L|490:324,1,77.5,0|0,0:0|0:0,0:0:0:0:
380,166,68842,1,0,1:0:0:0:
304,263,69014,1,8,0:1:0:0:
496,209,69185,1,0,0:0:0:0:
392,61,69356,6,0,P|375:95|370:134,1,77.5,4|0,1:0|0:0,0:0:0:0:
240,205,69699,2,0,P|210:181|189:149,1,77.5,0|0,0:0|0:0,0:0:0:0:
246,4,70042,1,0,0:0:0:0:
380,166,70214,1,0,1:0:0:0:
356,14,70385,1,8,0:1:0:0:
188,148,70556,1,0,0:0:0:0:
275,247,70728,6,0,L|289:346,1,77.5,0|0,1:0|0:0,0:0:0:0:
83,229,71071,1,8,0:1:0:0:
275,247,71242,1,0,0:0:0:0:
170,328,71414,1,0,0:0:0:0:
188,148,71585,1,0,1:0:0:0:
83,229,71756,1,8,0:1:0:0:
101,49,71928,1,0,0:0:0:0:
293,67,72099,38,0,L|392:53,1,77.5,4|0,1:0|0:0,0:0:0:0:
486,186,72442,2,0,L|410:176,1,77.5,8|0,0:1|0:0,0:0:0:0:
276,217,72785,1,0,0:0:0:0:
293,67,72956,1,0,1:0:0:0:
176,130,73128,1,8,0:1:0:0:
285,245,73299,1,0,0:0:0:0:
68,274,73471,6,0,P|55:311|58:350,1,77.5,0|0,1:0|0:0,0:0:0:0:
294,273,73814,1,8,0:1:0:0:
178,223,73985,2,0,P|175:184|188:148,1,77.5,0|0,0:0|0:0,0:0:0:0:
218,371,74328,1,0,1:0:0:0:
410,323,74499,1,8,0:1:0:0:
370,175,74671,1,0,0:0:0:0:
218,291,74842,6,0,L|294:273,1,77.5,4|0,1:0|0:0,0:0:0:0:
370,175,75185,2,0,L|273:117,1,77.5,8|0,0:1|0:0,0:0:0:0:
184,172,75528,1,0,0:0:0:0:
294,273,75699,1,0,1:0:0:0:
65,210,75871,1,8,0:1:0:0:
303,134,76042,1,0,0:0:0:0:
269,35,76214,6,0,P|230:39|193:33,1,77.5,0|0,1:0|0:0,0:0:0:0:
74,71,76556,1,8,0:1:0:0:
65,210,76728,1,0,0:0:0:0:
87,101,76899,1,0,0:0:0:0:
192,32,77071,1,0,1:0:0:0:
333,44,77242,1,8,0:1:0:0:
330,54,77328,1,0,0:0:0:0:
327,64,77414,1,0,0:0:0:0:
433,211,77585,38,0,L|457:138,1,77.5,4|0,1:0|0:0,0:0:0:0:
315,182,77928,1,8,0:1:0:0:
421,329,78099,1,2,0:0:0:0:
275,301,78271,1,2,0:0:0:0:
138,351,78442,1,0,1:0:0:0:
132,152,78614,2,0,P|130:190|115:226,1,77.5,8|2,0:1|0:0,0:0:0:0:
275,301,78956,6,0,P|259:265|257:227,1,77.5,4|2,1:0|0:0,0:0:0:0:
392,88,79299,2,0,P|376:123|374:161,1,77.5,8|2,0:1|0:0,0:0:0:0:
501,194,79642,1,2,0:0:0:0:
484,0,79814,1,0,1:0:0:0:
376,84,79985,1,8,0:1:0:0:
360,80,80071,1,2,0:0:0:0:
344,76,80157,1,2,0:0:0:0:
211,4,80328,6,0,L|105:38,1,77.5,4|0,1:0|0:0,0:0:0:0:
204,146,80671,1,8,0:1:0:0:
57,110,80842,1,2,0:0:0:0:
50,252,81014,2,0,L|156:218,1,77.5,2|0,0:0|1:0,0:0:0:0:
351,182,81356,1,8,0:1:0:0:
278,283,81528,2,0,P|247:275|218:258,1,38.75,2|2,0:0|0:0,0:0:0:0:
230,173,81699,6,0,P|207:150|190:121,1,38.75,4|2,1:0|0:0,0:0:0:0:
243,53,81871,1,2,0:0:0:0:
370,8,82042,2,0,P|351:61|363:117,1,77.5,8|2,0:1|0:0,0:0:0:0:
498,218,82385,1,2,0:0:0:0:
469,100,82556,1,0,1:0:0:0:
334,202,82728,2,0,P|387:183|405:182,1,38.75,8|2,0:1|0:0,0:0:0:0:
398,304,82899,1,2,0:0:0:0:
219,236,83071,38,0,P|166:217|110:229,1,77.5,4|0,1:0|0:0,0:0:0:0:
59,318,83414,1,8,0:1:0:0:
230,353,83585,1,2,0:0:0:0:
219,236,83756,1,2,0:0:0:0:
334,202,83928,1,0,1:0:0:0:
345,85,84099,2,0,L|435:76,1,77.5,8|2,0:1|0:0,0:0:0:0:
230,119,84442,6,0,L|170:69,1,77.5,4|2,1:0|0:0,0:0:0:0:
219,236,84785,2,0,L|229:341,1,77.5,8|2,0:1|0:0,0:0:0:0:
115,181,85128,1,2,0:0:0:0:
334,202,85299,1,0,1:0:0:0:
209,314,85471,1,8,0:1:0:0:
192,316,85557,1,2,0:0:0:0:
175,318,85643,1,2,0:0:0:0:
347,342,85814,6,0,P|378:364|415:375,1,77.5,4|0,1:0|0:0,0:0:0:0:
502,220,86156,1,8,0:1:0:0:
326,230,86328,1,2,0:0:0:0:
480,107,86499,2,0,P|464:71|438:44,1,77.5,2|0,0:0|1:0,0:0:0:0:
218,88,86842,1,8,0:1:0:0:
332,141,87014,2,0,P|338:123|348:106,1,38.75,2|2,0:0|0:0,0:0:0:0:
438,44,87185,5,0,1:0:0:0:
482,206,87356,1,2,0:3:0:0:
462,213,87442,1,2,0:3:0:0:
442,218,87528,1,2,0:3:0:0:
421,218,87614,1,2,0:3:0:0:
400,216,87699,6,0,P|400:267|348:347,1,139.499995742798,8|0,0:0|0:0,0:0:0:0:
274,324,88214,6,0,P|274:272|222:193,1,127.875003902435,8|0,0:1|0:0,0:0:0:0:
157,223,88556,70,0,P|119:236|68:237,1,77.5,4|0,1:0|0:0,0:0:0:0:
55,81,88899,2,0,P|93:83|130:96,1,77.5,10|0,0:1|0:0,0:0:0:0:
32,171,89242,1,2,0:1:0:0:
120,2,89414,1,0,1:0:0:0:
224,75,89585,2,0,L|221:162,1,77.5,10|0,0:1|0:0,0:0:0:0:
423,31,89928,6,0,L|346:34,1,77.5,0|0,1:0|0:0,0:0:0:0:
425,155,90271,2,0,L|503:158,1,77.5,10|0,0:1|0:0,0:0:0:0:
323,134,90614,1,2,0:1:0:0:
281,230,90785,1,0,1:0:0:0:
398,343,90956,2,0,P|400:296|380:247,1,77.5,10|0,0:1|0:0,0:0:0:0:
188,298,91299,70,0,P|141:300|92:280,1,77.5,0|0,1:0|0:0,0:0:0:0:
322,349,91642,2,0,P|359:339|397:342,1,77.5,10|0,0:1|0:0,0:0:0:0:
280,245,91985,1,2,0:1:0:0:
112,291,92156,1,0,1:0:0:0:
177,184,92328,2,0,L|168:99,1,77.5,10|2,0:1|0:1,0:0:0:0:
181,94,92585,1,2,0:1:0:0:
194,82,92671,6,0,P|236:124|323:142,1,116.25,2|0,1:0|0:0,0:0:0:0:
146,254,93014,2,0,P|188:212|206:125,1,116.25,10|0,0:1|0:0,0:0:0:0:
318,302,93356,2,0,P|276:260|189:242,1,116.25,2|0,0:1|0:0,0:0:0:0:
366,130,93699,2,0,P|324:172|306:259,1,116.25,10|0,0:1|0:0,0:0:0:0:
194,82,94042,70,0,P|226:127|232:167,1,77.5,0|0,1:0|0:0,0:0:0:0:
106,268,94385,2,0,P|119:232|144:203,1,77.5,10|0,0:1|0:0,0:0:0:0:
305,224,94728,1,2,0:1:0:0:
210,285,94899,1,0,1:0:0:0:
67,192,95071,2,0,L|173:206,1,77.5,10|0,0:1|0:0,0:0:0:0:
345,92,95413,6,0,L|355:168,1,77.5,0|0,1:0|0:0,0:0:0:0:
230,147,95756,2,0,L|241:71,1,77.5,10|0,0:1|0:0,0:0:0:0:
436,40,96099,1,2,0:1:0:0:
355,168,96271,1,0,1:0:0:0:
495,252,96442,2,0,P|457:241|419:244,1,77.5,10|0,0:1|0:0,0:0:0:0:
263,298,96785,70,0,P|273:260|270:222,1,77.5,2|0,1:2|0:0,0:0:0:0:
144,199,97128,1,8,0:1:0:0:
155,312,97299,1,0,0:0:0:0:
5,328,97471,1,2,0:0:0:0:
36,185,97642,1,0,1:0:0:0:
133,86,97814,1,8,0:1:0:0:
270,222,97985,1,2,0:0:0:0:
254,229,98071,1,2,0:0:0:0:
238,236,98156,6,0,P|221:200|220:139,1,77.5,2|2,1:2|0:0,0:0:0:0:
298,86,98499,1,8,0:1:0:0:
377,219,98671,2,0,P|360:255|359:316,1,77.5,2|2,0:0|0:0,0:0:0:0:
437,369,99014,1,2,1:2:0:0:
248,345,99185,1,8,0:1:0:0:
125,252,99356,1,2,0:0:0:0:
128,235,99442,1,2,0:0:0:0:
131,218,99528,70,0,L|31:208,1,77.5,4|0,1:0|0:0,0:0:0:0:
71,325,99871,1,8,0:1:0:0:
205,274,100042,1,0,0:0:0:0:
203,256,100128,1,0,0:0:0:0:
201,239,100214,6,0,L|101:255,1,77.5,2|0,0:0|1:0,0:0:0:0:
177,144,100557,1,8,0:1:0:0:
287,275,100728,1,0,0:0:0:0:
281,258,100814,1,0,0:0:0:0:
275,242,100899,70,0,L|183:283,1,77.5,2|0,1:2|0:0,0:0:0:0:
276,365,101242,1,8,0:1:0:0:
367,254,101414,1,0,0:0:0:0:
356,239,101499,1,0,0:0:0:0:
346,225,101585,6,0,L|268:288,1,77.5,2|0,0:0|1:0,0:0:0:0:
278,155,101929,1,8,0:1:0:0:
439,214,102099,1,0,0:0:0:0:
425,202,102185,1,0,0:0:0:0:
412,191,102271,70,0,L|353:272,1,77.5,2|0,1:2|0:0,0:0:0:0:
472,296,102614,1,8,0:1:0:0:
498,155,102785,1,0,0:0:0:0:
481,148,102871,1,0,0:0:0:0:
465,141,102956,6,0,L|429:235,1,77.5,2|0,0:0|1:0,0:0:0:0:
371,114,103299,2,0,L|335:20,1,77.5,8|0,0:1|0:0,0:0:0:0:
207,102,103642,69,2,1:2:0:0:
343,204,103814,2,0,L|271:177,1,77.5,2|8,0:0|0:1,0:0:0:0:
224,317,104156,1,2,0:0:0:0:
321,320,104328,2,0,L|391:285,1,77.5,2|0,0:0|1:0,0:0:0:0:
181,223,104671,1,8,0:1:0:0:
139,368,104842,1,2,0:1:0:0:
139,368,104928,1,2,0:1:0:0:
139,368,105014,6,0,L|69:332,1,77.5,0|0,1:0|0:0,0:0:0:0:
88,166,105356,1,10,0:1:0:0:
88,166,105442,1,0,0:0:0:0:
88,166,105528,1,0,0:0:0:0:
7,244,105699,1,2,0:1:0:0:
150,254,105871,1,0,1:0:0:0:
293,264,106042,2,0,P|310:307|303:362,1,77.5,10|0,0:1|0:0,0:0:0:0:
382,158,106385,70,0,P|399:114|392:60,1,77.5,0|0,1:0|0:0,0:0:0:0:
256,94,106728,1,10,0:1:0:0:
256,94,106814,1,0,0:0:0:0:
256,94,106899,1,0,0:0:0:0:
113,104,107071,1,2,0:1:0:0:
113,104,107156,1,0,0:0:0:0:
113,104,107242,1,0,1:0:0:0:
158,251,107414,2,0,L|193:181,1,77.5,10|0,0:1|0:0,0:0:0:0:
238,328,107756,5,0,1:0:0:0:
318,251,107928,1,0,0:0:0:0:
338,249,108013,1,0,0:0:0:0:
359,250,108099,1,2,0:0:0:0:
379,255,108185,1,2,0:3:0:0:
399,263,108271,2,0,L|441:244,5,34.8749989356995,8|2|2|2|2|2,0:0|0:3|0:0|0:3|0:3|0:3,0:0:0:0:
457,141,108785,70,0,L|425:155,5,34.8749989356995,10|2|2|2|2|2,0:0|0:3|0:0|3:0|3:0|3:0,0:0:0:0:
337,121,109299,1,2,3:0:0:0:
316,102,109384,1,2,3:0:0:0:
307,76,109470,1,2,3:0:0:0:
313,49,109556,1,0,3:0:0:0:
331,29,109642,6,0,P|385:69|319:117,1,155,8|0,0:1|0:0,0:0:0:0:
267,189,110156,70,0,P|212:146|260:96,1,139.499995742798,8|0,0:1|0:0,0:0:0:0:
359,212,110499,22,0,L|343:331,1,85.2500026016236,4|0,1:0|0:0,0:0:0:0:
443,367,110842,1,8,0:1:0:0:
235,384,111014,2,0,L|219:265,1,85.2500026016236,2|2,0:0|0:0,0:0:0:0:
40,223,111356,1,0,1:0:0:0:
108,319,111528,1,8,0:1:0:0:
241,184,111699,1,2,0:0:0:0:
113,25,111871,6,0,P|82:80|83:143,1,127.875003902435,0|0,1:0|0:0,0:0:0:0:
156,193,112214,2,0,L|253:182,1,85.2500026016236,8|2,0:1|0:0,0:0:0:0:
446,62,112556,1,2,0:0:0:0:
262,27,112728,1,0,1:0:0:0:
324,204,112899,1,8,0:1:0:0:
431,174,113071,1,0,0:0:0:0:
281,327,113242,6,0,P|239:305|176:302,1,85.2500026016236,4|0,1:0|0:0,0:0:0:0:
114,226,113585,1,8,0:1:0:0:
324,204,113756,2,0,P|323:162|347:98,1,85.2500026016236,2|0,0:0|0:0,0:0:0:0:
392,298,114099,1,0,1:0:0:0:
205,151,114271,1,8,0:1:0:0:
201,299,114442,1,2,0:0:0:0:
436,184,114614,6,0,P|430:247|392:297,1,127.875003902435,4|0,1:0|0:0,0:0:0:0:
337,359,114956,1,8,0:1:0:0:
251,220,115128,1,2,0:0:0:0:
219,208,115213,1,2,0:0:0:0:
185,207,115299,2,0,P|152:221|116:263,1,85.2500026016236,2|0,0:0|1:0,0:0:0:0:
332,178,115642,1,8,0:1:0:0:
164,107,115814,1,2,0:0:0:0:
201,299,115985,38,0,L|297:288,1,85.2500026016236,4|0,1:0|0:0,0:0:0:0:
332,178,116328,1,8,0:1:0:0:
103,233,116499,2,0,L|7:222,1,85.2500026016236,2|2,0:0|0:0,0:0:0:0:
105,361,116842,1,0,1:0:0:0:
199,171,117014,1,8,0:1:0:0:
201,299,117185,1,2,0:0:0:0:
384,372,117356,6,0,P|384:288|330:232,1,127.875003902435,0|0,1:0|0:0,0:0:0:0:
285,289,117699,2,0,L|201:299,1,85.2500026016236,8|2,0:1|0:0,0:0:0:0:
18,223,118042,1,2,0:0:0:0:
151,367,118214,1,0,1:0:0:0:
210,180,118385,1,8,0:1:0:0:
125,253,118556,1,0,0:0:0:0:
21,71,118728,6,0,P|61:89|130:85,1,85.2500026016236,4|0,1:0|0:0,0:0:0:0:
203,205,119071,1,8,0:1:0:0:
237,20,119242,2,0,P|277:2|346:6,1,85.2500026016236,2|0,0:0|0:0,0:0:0:0:
434,139,119585,1,0,1:0:0:0:
301,108,119756,1,8,0:1:0:0:
450,31,119928,1,2,0:0:0:0:
418,247,120099,5,4,1:0:0:0:
210,243,120271,2,0,P|187:208|152:185,1,85.2500026016236,2|8,0:0|0:1,0:0:0:0:
44,201,120614,1,2,0:0:0:0:
113,285,120785,1,2,0:1:0:0:
189,83,120956,1,0,1:0:0:0:
82,100,121128,1,10,0:1:0:0:
218,267,121299,1,2,0:0:0:0:
256,166,121471,38,0,P|297:158|334:138,1,85.2500026016236,4|0,1:0|0:0,0:0:0:0:
327,22,121814,1,10,0:1:0:0:
452,109,121985,2,0,P|437:148|436:191,1,85.2500026016236,2|2,0:0|0:1,0:0:0:0:
242,317,122328,1,2,1:2:0:0:
402,308,122499,2,0,P|374:275|338:253,1,85.2500026016236,10|2,0:1|0:0,0:0:0:0:
90,297,122842,5,4,1:0:0:0:
110,145,123014,1,0,0:0:0:0:
262,165,123185,1,10,0:1:0:0:
242,317,123356,1,0,0:0:0:0:
110,145,123528,2,0,L|13:132,1,85.2500026016236,2|2,0:1|1:2,0:0:0:0:
293,56,123871,2,0,L|166:72,1,127.875003902435,10|0,0:1|0:0,0:0:0:0:
110,145,124214,5,4,1:0:0:0:
51,6,124385,1,0,0:0:0:0:
54,218,124556,1,10,0:1:0:0:
237,115,124728,2,0,L|257:197,1,85.2500026016236,2|2,0:0|0:1,0:0:0:0:
96,294,125071,1,2,1:2:0:0:
110,145,125242,1,10,0:1:0:0:
299,273,125414,1,2,0:0:0:0:
138,370,125585,5,4,1:0:0:0:
197,283,125756,1,0,0:0:0:0:
341,349,125928,1,10,0:1:0:0:
409,220,126099,2,0,L|400:262,2,42.6250013008118,2|2|4,0:0|0:0|0:1,0:0:0:0:
490,339,126442,1,0,1:0:0:0:
469,134,126614,2,0,L|387:114,1,85.2500026016236,10|2,0:1|0:0,0:0:0:0:
202,173,126956,38,0,P|162:186|120:188,1,85.2500026016236,4|0,1:0|0:0,0:0:0:0:
268,72,127299,1,10,0:1:0:0:
89,15,127471,2,0,P|121:43|144:80,1,85.2500026016236,2|2,0:0|0:1,0:0:0:0:
65,299,127814,1,2,1:2:0:0:
10,192,127985,2,0,P|19:150|39:113,1,85.2500026016236,10|2,0:1|0:0,0:0:0:0:
268,72,128328,5,4,1:0:0:0:
383,218,128499,1,0,0:0:0:0:
236,335,128671,1,10,0:1:0:0:
119,188,128842,1,0,0:0:0:0:
383,218,129014,2,0,L|316:270,1,85.2500026016236,2|2,0:1|1:2,0:0:0:0:
272,38,129356,2,0,L|323:154,1,127.875003902435,10|2,0:1|0:0,0:0:0:0:
383,218,129699,5,4,1:0:0:0:
381,58,129871,1,0,0:0:0:0:
215,133,130042,1,10,0:1:0:0:
464,254,130214,2,0,L|515:138,1,85.2500026016236,2|2,0:0|0:1,0:0:0:0:
323,154,130556,1,2,1:2:0:0:
399,355,130728,1,10,0:1:0:0:
151,237,130899,1,2,0:0:0:0:
383,218,131071,21,0,1:0:0:0:
298,339,131242,1,2,0:3:0:0:
306,319,131327,1,2,0:3:0:0:
307,299,131413,1,2,0:3:0:0:
306,278,131499,1,2,0:3:0:0:
299,257,131585,54,0,P|244:213|211:153,1,139.499995742798,8|0,0:0|0:0,0:0:0:0:
412,102,132099,5,8,0:1:0:0:
451,369,132271,1,8,0:1:0:0:
453,206,132442,38,0,P|426:234|412:269,1,77.5,4|0,1:0|0:0,0:0:0:0:
320,175,132785,2,0,P|305:139|278:111,1,77.5,8|0,0:1|0:0,0:0:0:0:
209,241,133128,1,0,0:0:0:0:
94,196,133299,1,0,1:0:0:0:
126,68,133471,1,8,0:1:0:0:
94,196,133642,1,0,0:0:0:0:
172,344,133814,6,0,P|211:325|319:329,1,116.25,0|0,1:0|0:0,0:0:0:0:
321,351,134156,1,8,0:1:0:0:
302,164,134328,2,0,P|341:183|449:179,1,116.25,0|0,0:0|0:0,0:0:0:0:
451,157,134670,1,0,1:0:0:0:
432,344,134842,2,0,P|471:325|519:318,1,77.5,8|0,0:1|0:0,0:0:0:0:
311,240,135185,6,0,L|302:164,1,77.5,4|0,1:0|0:0,0:0:0:0:
157,280,135528,2,0,L|147:356,1,77.5,8|0,0:1|0:0,0:0:0:0:
278,356,135871,1,0,0:0:0:0:
311,240,136042,1,0,1:0:0:0:
190,164,136213,1,8,0:1:0:0:
157,280,136385,1,0,0:0:0:0:
34,63,136556,6,0,L|48:187,1,116.25,0|0,1:0|0:0,0:0:0:0:
29,230,136899,1,8,0:1:0:0:
174,341,137071,2,0,L|188:217,1,116.25,0|0,0:0|0:0,0:0:0:0:
169,174,137414,1,0,1:0:0:0:
314,63,137585,1,8,0:1:0:0:
309,230,137756,1,0,0:0:0:0:
305,226,137842,1,0,0:0:0:0:
301,222,137928,38,0,P|352:202|410:207,1,77.5,4|0,1:0|0:0,0:0:0:0:
487,329,138271,2,0,P|448:324|413:308,1,77.5,8|0,0:1|0:0,0:0:0:0:
453,120,138614,1,0,0:0:0:0:
414,13,138785,1,0,1:0:0:0:
453,120,138956,1,8,0:1:0:0:
374,201,139128,1,0,0:0:0:0:
265,167,139299,6,0,P|225:128|165:109,1,116.25,0|0,1:0|0:0,0:0:0:0:
122,136,139642,1,8,0:1:0:0:
2,285,139814,2,0,P|42:246|102:227,1,116.25,0|0,0:0|0:0,0:0:0:0:
145,254,140157,1,0,1:0:0:0:
238,374,140328,2,0,P|205:353|167:344,1,77.5,8|0,0:1|0:0,0:0:0:0:
324,338,140671,6,0,L|334:255,1,77.5,4|0,1:0|0:0,0:0:0:0:
428,198,141014,2,0,L|437:274,1,77.5,8|0,0:1|0:0,0:0:0:0:
270,166,141356,1,0,0:0:0:0:
365,103,141528,1,0,1:0:0:0:
333,261,141699,1,8,0:1:0:0:
270,166,141871,1,0,0:0:0:0:
207,71,142042,6,0,L|94:84,1,77.5,0|0,1:0|0:0,0:0:0:0:
44,19,142385,1,8,0:1:0:0:
0,162,142556,2,0,L|173:181,1,155,0|0,0:0|1:0,0:0:0:0:
239,239,143071,2,0,L|230:315,1,77.5,8|0,0:1|0:0,0:0:0:0:
320,56,143414,5,4,1:0:0:0:
