osu file format v14

[General]
AudioFilename: audio.mp3
AudioLeadIn: 0
PreviewTime: 110156
Countdown: 0
SampleSet: Soft
StackLeniency: 0.7
Mode: 2
LetterboxInBreaks: 0
WidescreenStoryboard: 0

[Editor]
DistanceSpacing: 1
BeatDivisor: 8
GridSize: 8
TimelineZoom: 2.3

[Metadata]
Title:By Design
TitleUnicode:By Design
Artist:WRLD
ArtistUnicode:WRLD
Creator:WildOne94
Version:Salad
Source:
Tags:monstercat dnb dance electronic Drum Bass
BeatmapID:1429066
BeatmapSetID:672806

[Difficulty]
HPDrainRate:4
CircleSize:3
OverallDifficulty:6.5
ApproachRate:6.5
SliderMultiplier:1.2
SliderTickRate:1

[Events]
//Background and Video events
0,0,"1920x1080 background.png",0,0
//Break Periods
//Storyboard Layer 0 (Background)
//Storyboard Layer 1 (Fail)
//Storyboard Layer 2 (Pass)
//Storyboard Layer 3 (Foreground)
//Storyboard Sound Samples

[TimingPoints]
-586,342.857142857143,4,2,0,20,1,0
785,-100,4,2,2,30,0,0
10385,-100,4,2,2,30,0,0
11756,-100,4,2,2,50,0,0
21356,-100,4,2,2,40,0,0
22727,-100,4,2,0,25,0,0
31685,-100,4,2,0,5,0,0
31706,-100,4,2,0,25,0,0
33699,-100,4,2,2,30,0,0
34385,-100,4,2,0,25,0,0
41028,-100,4,2,0,5,0,0
41071,-100,4,2,0,25,0,0
44670,-100,4,2,2,50,0,0
54785,-100,4,2,2,20,0,0
55642,-100,4,2,2,50,0,0
61127,-100,4,2,2,55,0,0
63870,-100,4,2,2,60,0,0
65585,-100,4,2,2,30,0,0
66270,-100,4,2,2,20,0,0
66614,-100,4,2,1,70,0,1
66785,-100,4,2,1,70,0,1
68499,-100,4,2,1,70,0,1
68670,-100,4,2,1,70,0,1
71242,-100,4,2,1,70,0,1
71413,-100,4,2,1,70,0,1
72099,-100,4,2,1,70,0,1
72270,-100,4,2,1,70,0,1
73985,-100,4,2,1,70,0,1
74156,-100,4,2,1,70,0,1
76727,-100,4,2,1,70,0,1
76899,-100,4,2,1,70,0,1
77585,-100,4,2,1,70,0,1
77756,-100,4,2,1,70,0,1
83070,-100,4,2,1,70,0,1
83242,-100,4,2,1,70,0,1
87185,-100,4,2,1,40,0,0
87356,-100,4,2,0,40,0,0
88213,-100,4,2,1,40,0,0
88556,-100,4,2,1,70,0,1
107756,-100,4,2,1,40,0,0
108270,-100,4,2,1,45,0,0
108785,-100,4,2,1,50,0,0
109642,-100,4,2,1,60,0,0
110156,-100,4,2,1,40,0,0
110499,-100,4,2,1,70,0,1
110842,-100,4,2,1,70,0,1
111870,-100,4,2,1,70,0,1
112213,-100,4,2,1,70,0,1
113756,-100,4,2,1,70,0,1
113927,-100,4,2,1,70,0,1
114613,-100,4,2,1,70,0,1
114956,-100,4,2,1,70,0,1
115985,-100,4,2,1,70,0,1
116156,-100,4,2,1,70,0,1
117356,-100,4,2,1,70,0,1
117699,-100,4,2,1,70,0,1
119242,-100,4,2,1,70,0,1
119413,-100,4,2,1,70,0,1
121470,-100,4,2,1,70,0,1
121642,-100,4,2,1,70,0,1
122842,-100,4,2,1,70,0,1
123185,-100,4,2,1,70,0,1
124727,-100,4,2,1,70,0,1
124899,-100,4,2,1,70,0,1
125585,-100,4,2,1,70,0,1
125927,-100,4,2,1,70,0,1
126956,-100,4,2,1,70,0,1
127127,-100,4,2,1,70,0,1
128327,-100,4,2,1,70,0,1
128670,-100,4,2,1,70,0,1
130213,-100,4,2,1,70,0,1
130385,-100,4,2,1,70,0,1
131071,-100,4,2,1,40,0,0
131413,-100,4,2,0,40,0,0
132442,-100,4,2,1,60,0,0
133813,-100,4,2,2,55,0,0
135185,-100,4,2,2,50,0,0
143413,-100,4,2,2,40,0,0
144785,-100,4,2,2,30,0,0
151813,-100,4,2,2,20,0,0
152327,-100,4,2,2,15,0,0
153013,-100,4,2,2,10,0,0
153699,-100,4,2,2,5,0,0

[Colours]
Combo1 : 231,10,148
Combo2 : 255,255,102
Combo3 : 72,154,255
Combo4 : 255,125,255
Combo5 : 255,207,64

[HitObjects]
160,192,99,6,0,L|240:192,2,60,2|2|2,0:0|0:0|0:0,0:0:0:0:
88,192,614,1,0,0:0:0:0:
256,112,785,6,0,P|296:144|240:168,1,120,6|8,0:0|0:0,0:0:0:0:
112,176,1471,2,0,L|40:176,1,60,0|2,0:0|0:0,0:0:0:0:
128,176,1814,2,0,L|208:176,1,60,8|0,0:0|0:0,0:0:0:0:
253,175,2156,6,0,P|293:207|237:231,1,120,2|8,0:0|0:0,0:0:0:0:
96,240,2842,2,0,L|156:240,1,60,0|2,0:0|0:0,0:0:0:0:
228,241,3185,2,0,L|288:241,1,60,8|0,0:0|0:0,0:0:0:0:
120,240,3528,6,0,P|78:209|118:176,1,120,2|8,0:0|0:0,0:0:0:0:
264,192,4214,2,0,L|328:192,1,60,0|2,0:0|0:0,0:0:0:0:
392,192,4556,2,0,L|312:192,1,60,8|0,0:0|0:0,0:0:0:0:
256,192,4899,6,0,P|214:161|254:128,1,120,2|8,0:0|0:0,0:0:0:0:
160,144,5585,2,0,L|80:144,1,60,0|2,0:0|0:0,0:0:0:0:
24,144,5928,2,0,L|84:144,1,60,8|0,0:0|0:0,0:0:0:0:
256,136,6271,6,0,P|296:152|240:192,1,120,2|8,0:0|0:0,0:0:0:0:
120,192,6956,2,0,L|60:192,1,60,0|2,0:0|0:0,0:0:0:0:
136,192,7299,2,0,L|208:192,1,60,8|0,0:0|0:0,0:0:0:0:
264,192,7642,6,0,P|304:216|248:256,1,120,2|8,0:0|0:0,0:0:0:0:
408,256,8328,2,0,L|480:256,1,60,0|2,0:0|0:0,0:0:0:0:
392,256,8671,2,0,L|320:256,1,60,8|0,0:0|0:0,0:0:0:0:
160,176,9014,6,0,P|120:208|176:232,1,120,2|8,0:0|0:0,0:0:0:0:
288,240,9699,2,0,L|348:240,1,60,0|2,0:0|0:0,0:0:0:0:
272,240,10042,2,0,L|212:240,1,60,8|0,0:0|0:0,0:0:0:0:
288,240,10385,5,2,0:0:0:0:
96,232,10728,2,0,L|8:232,1,60,2|2,0:0|0:0,0:0:0:0:
80,232,11071,2,0,L|168:232,1,60,2|2,0:0|0:0,0:0:0:0:
216,232,11414,1,8,0:0:0:0:
488,224,11756,6,0,P|496:176|440:144,1,120,6|8,0:0|0:0,0:0:0:0:
216,128,12614,1,2,0:0:0:0:
288,128,12785,2,0,L|348:128,1,60,8|0,0:0|0:0,0:0:0:0:
424,120,13128,6,0,P|464:144|416:176,1,120,2|8,0:0|0:0,0:0:0:0:
256,184,13642,2,0,L|112:184,1,120,0|2,0:0|0:0,0:0:0:0:
64,184,14156,1,8,0:0:0:0:
312,192,14499,6,0,L|392:192,2,60,2|0|8,0:0|0:0|0:0,0:0:0:0:
240,192,15014,1,0,0:0:0:0:
80,192,15356,1,2,0:0:0:0:
152,192,15528,2,0,L|232:192,1,60,8|0,0:0|0:0,0:0:0:0:
136,192,15871,6,0,P|96:168|152:128,1,120,2|8,0:0|0:0,0:0:0:0:
304,120,16385,2,0,L|448:120,1,120,0|2,0:0|0:0,0:0:0:0:
504,120,16899,1,8,0:0:0:0:
248,112,17242,6,0,P|208:144|264:168,1,120,2|8,0:0|0:0,0:0:0:0:
48,112,18099,1,2,0:0:0:0:
120,112,18271,2,0,L|180:112,1,60,8|0,0:0|0:0,0:0:0:0:
88,120,18614,6,0,P|48:144|96:176,1,120,2|8,0:0|0:0,0:0:0:0:
256,184,19128,2,0,L|400:184,1,120,0|2,0:0|0:0,0:0:0:0:
448,184,19642,1,8,0:0:0:0:
200,192,19985,6,0,L|120:192,2,60,2|0|8,0:0|0:0|0:0,0:0:0:0:
272,192,20499,1,0,0:0:0:0:
432,192,20842,1,2,0:0:0:0:
360,192,21014,2,0,L|280:192,1,60,8|0,0:0|0:0,0:0:0:0:
376,192,21356,6,0,P|416:168|360:128,1,120,2|0,0:0|0:0,0:0:0:0:
216,120,21871,2,0,L|72:120,1,120,2|0,0:0|0:0,0:0:0:0:
24,120,22385,1,2,0:0:0:0:
96,120,22556,1,2,0:0:0:0:
256,112,22728,6,0,P|296:160|240:184,1,120,6|0,0:0|0:0,0:0:0:0:
368,176,23414,2,0,L|472:176,1,105,2|0,0:0|0:0,0:0:0:0:
416,176,23899,1,0,0:0:0:0:
296,176,24242,6,0,P|232:240|296:272,1,190,2|0,0:0|0:0,0:0:0:0:
168,272,25128,1,2,0:0:0:0:
232,272,25299,6,0,L|352:272,1,120,2|0,0:0|0:0,0:0:0:0:
160,280,26156,2,0,P|128:224|168:208,1,120,2|0,0:0|0:0,0:0:0:0:
232,208,26699,6,0,L|344:208,1,110,2|0,0:0|0:0,0:0:0:0:
256,216,27528,1,2,0:0:0:0:
136,224,27871,2,0,L|196:224,1,60,2|2,0:0|0:0,0:0:0:0:
256,224,28214,6,0,P|296:184|256:152,1,120
136,152,28899,2,0,L|256:152,1,120,2|0,0:0|0:0,0:0:0:0:
317,152,29414,6,0,L|257:152,1,60,2|0,0:0|0:0,0:0:0:0:
200,152,29756,2,0,P|136:208|208:248,1,180,2|2,0:0|0:0,0:0:0:0:
296,248,30614,1,2,0:0:0:0:
240,248,30785,6,0,L|160:248,1,60,2|0,0:0|0:0,0:0:0:0:
328,248,31342,2,0,P|376:216|352:160,1,127.5,2|2,0:0|0:0,0:0:0:0:
256,160,32028,1,2,0:0:0:0:
176,160,32185,6,0,P|120:224|200:272,1,200,2|0,0:0|0:0,0:0:0:0:
240,272,32885,2,0,L|416:272,1,165,2|0,0:0|0:0,0:0:0:0:
112,264,33699,6,0,P|24:224|112:176,1,240,6|2,0:0|0:0,0:0:0:0:
224,176,34685,1,2,0:0:0:0:
168,176,34856,6,0,L|256:176,1,75,2|0,0:0|0:0,0:0:0:0:
288,176,35214,2,0,P|360:168|392:64,1,190,2|2,0:0|0:0,0:0:0:0:
256,80,36099,1,2,0:0:0:0:
200,80,36271,6,0,P|120:88|136:160,1,165,2|0,0:0|0:0,0:0:0:0:
304,168,37128,2,0,L|200:168,1,105,2|0,0:0|0:0,0:0:0:0:
256,168,37642,2,0,L|320:168,1,60,2|0,0:0|0:0,0:0:0:0:
256,168,37985,6,0,P|192:216|248:272,1,180,2|2,0:0|0:0,0:0:0:0:
344,272,38842,2,0,L|284:272,1,60,2|2,0:0|0:0,0:0:0:0:
224,264,39185,6,0,P|168:216|224:168,1,165,0|2,0:0|0:0,0:0:0:0:
296,168,39871,2,0,L|400:168,1,105,2|0,0:0|0:0,0:0:0:0:
344,168,40342,1,2,0:0:0:0:
208,168,40685,6,0,P|160:200|192:256,1,135,2|0,0:0|0:0,0:0:0:0:
256,256,41242,1,2,0:0:0:0:
152,256,41542,1,2,0:0:0:0:
88,256,41714,6,0,P|24:184|72:96,1,210,2|2,0:0|0:0,0:0:0:0:
176,96,42656,2,0,L|296:96,1,120,2|2,0:0|0:0,0:0:0:0:
200,96,43171,6,0,P|136:152|200:192,1,180,2|0,0:0|0:0,0:0:0:0:
256,200,43856,2,0,P|272:248|184:296,1,165,2|0,0:0|0:0,0:0:0:0:
480,288,44671,5,6,0:0:0:0:
256,256,45185,1,0,0:0:0:0:
328,256,45356,2,0,L|388:256,1,60,8|0,0:0|0:0,0:0:0:0:
120,256,45871,6,0,L|48:256,1,60,0|2,0:0|0:0,0:0:0:0:
136,256,46214,2,0,L|208:256,1,60
264,256,46556,1,0,0:0:0:0:
196,256,46728,1,8,0:0:0:0:
344,256,47071,1,0,0:0:0:0:
416,256,47242,1,0,0:0:0:0:
344,256,47414,5,2,0:0:0:0:
176,192,47928,1,0,0:0:0:0:
248,192,48099,2,0,L|328:192,1,60,8|0,0:0|0:0,0:0:0:0:
384,192,48442,2,0,L|304:192,1,60,0|0,0:0|0:0,0:0:0:0:
184,192,48785,5,2,0:0:0:0:
144,192,48871,1,0,0:0:0:0:
176,192,48956,1,0,0:0:0:0:
256,192,49128,1,0,0:0:0:0:
332,192,49299,1,0,0:0:0:0:
256,192,49471,1,8,0:0:0:0:
360,192,49814,1,0,0:0:0:0:
432,192,49985,1,0,0:0:0:0:
256,144,50156,5,2,0:0:0:0:
72,192,50671,1,0,0:0:0:0:
144,192,50842,2,0,L|84:192,1,60,8|0,0:0|0:0,0:0:0:0:
352,256,51356,6,0,L|424:256,1,60,0|2,0:0|0:0,0:0:0:0:
344,256,51699,2,0,L|272:256,1,60,0|0,0:0|0:0,0:0:0:0:
208,256,52042,1,0,0:0:0:0:
284,256,52214,1,8,0:0:0:0:
120,256,52556,1,0,0:0:0:0:
48,256,52728,1,0,0:0:0:0:
120,256,52899,5,2,0:0:0:0:
256,256,53285,2,0,L|360:256,1,105,0|8,0:0|0:0,0:0:0:0:
472,256,53928,1,0,0:0:0:0:
392,256,54128,1,0,0:0:0:0:
256,111,54271,6,0,P|216:152|256:183,1,120,2|0,0:0|0:0,0:0:0:0:
336,184,54814,2,0,P|408:192|384:264,1,170,0|0,0:0|0:0,0:0:0:0:
144,272,55642,5,6,0:0:0:0:
256,256,56156,1,0,0:0:0:0:
184,256,56328,2,0,L|124:256,1,60,2|0,0:0|0:0,0:0:0:0:
392,256,56842,6,0,L|464:256,1,60,0|2,0:0|0:0,0:0:0:0:
384,256,57185,2,0,L|312:256,1,60,0|0,0:0|0:0,0:0:0:0:
248,256,57528,1,0,0:0:0:0:
324,256,57699,1,2,0:0:0:0:
176,256,58042,1,0,0:0:0:0:
104,256,58214,1,0,0:0:0:0:
176,256,58385,5,2,0:0:0:0:
336,192,58899,1,0,0:0:0:0:
256,192,59071,2,0,L|184:192,1,60,2|0,0:0|0:0,0:0:0:0:
112,192,59414,2,0,L|192:192,1,60,0|0,0:0|0:0,0:0:0:0:
328,192,59756,5,2,0:0:0:0:
368,192,59842,1,0,0:0:0:0:
336,192,59928,1,0,0:0:0:0:
256,192,60099,1,0,0:0:0:0:
172,192,60271,1,0,0:0:0:0:
256,192,60442,1,2,0:0:0:0:
152,192,60785,1,0,0:0:0:0:
80,192,60956,1,0,0:0:0:0:
256,184,61128,6,0,L|392:184,1,120,2|8,0:0|0:0,0:0:0:0:
232,184,61814,2,0,L|88:184,1,120,2|8,0:0|0:0,0:0:0:0:
184,184,62328,1,0,0:0:0:0:
344,184,62499,6,0,L|488:184,2,120,2|8|2,0:0|0:0|0:0,0:0:0:0:
472,184,63528,2,0,L|384:184,1,60,8|0,0:0|0:0,0:0:0:0:
256,184,63871,6,0,L|168:184,1,60,2|2,0:0|0:0,0:0:0:0:
272,184,64214,2,0,L|344:184,1,60,8|2,0:0|0:0,0:0:0:0:
408,184,64556,2,0,L|320:184,1,60,2|2,0:0|0:0,0:0:0:0:
272,184,64899,2,0,L|184:184,1,60,8|2,0:0|0:0,0:0:0:0:
136,184,65242,6,0,L|52:184,1,60,2|2,0:0|0:0,0:0:0:0:
256,192,65585,2,0,L|336:192,1,60,2|0,0:0|0:0,0:0:0:0:
240,192,65928,2,0,L|152:192,1,60,2|0,0:0|0:0,0:0:0:0:
104,192,66271,1,2,0:0:0:0:
368,192,66614,6,0,P|408:232|352:240,1,120,6|8,0:0|0:0,0:0:0:0:
216,248,67299,2,0,L|276:248,1,60,0|2,0:0|0:0,0:0:0:0:
352,248,67642,2,0,L|292:248,1,60,8|0,0:0|0:0,0:0:0:0:
128,256,67985,6,0,P|85:226|127:196,1,120,2|8,0:0|0:0,0:0:0:0:
200,192,68499,1,0,0:0:0:0:
344,192,68842,2,0,L|424:192,2,60,2|8|0,0:0|0:0|0:0,0:0:0:0:
176,192,69356,6,0,L|96:192,2,60,2|0|8,0:0|0:0|0:0,0:0:0:0:
312,192,70042,2,0,L|372:192,1,60,0|2,0:0|0:0,0:0:0:0:
444,192,70385,1,8,0:0:0:0:
372,192,70556,1,0,0:0:0:0:
212,208,70728,6,0,P|172:192|228:152,1,120,2|8,0:0|0:0,0:0:0:0:
280,144,71242,1,0,0:0:0:0:
352,144,71414,2,0,L|440:144,1,60,0|2,0:0|0:0,0:0:0:0:
340,144,71756,2,0,L|280:144,1,60,8|0,0:0|0:0,0:0:0:0:
112,144,72099,6,0,P|72:184|128:192,1,120,2|8,0:0|0:0,0:0:0:0:
256,208,72785,2,0,L|316:208,1,60,0|2,0:0|0:0,0:0:0:0:
224,208,73128,2,0,L|164:208,1,60,8|0,0:0|0:0,0:0:0:0:
344,216,73471,6,0,P|387:186|345:156,1,120,2|8,0:0|0:0,0:0:0:0:
256,152,73985,1,0,0:0:0:0:
88,152,74328,2,0,L|8:152,2,60,2|8|0,0:0|0:0|0:0,0:0:0:0:
256,152,74842,6,0,L|336:152,2,60,2|0|8,0:0|0:0|0:0,0:0:0:0:
116,192,75528,2,0,L|56:192,1,60,0|2,0:0|0:0,0:0:0:0:
128,192,75871,1,8,0:0:0:0:
200,192,76042,1,0,0:0:0:0:
368,208,76214,6,0,P|400:192|352:144,1,120,2|8,0:0|0:0,0:0:0:0:
288,144,76728,1,0,0:0:0:0:
216,144,76899,2,0,L|128:144,1,60,0|2,0:0|0:0,0:0:0:0:
80,144,77242,1,8,0:0:0:0:
40,144,77328,1,0,0:0:0:0:
88,144,77414,1,0,0:0:0:0:
256,144,77585,5,6,0:0:0:0:
400,144,77928,1,8,0:0:0:0:
328,152,78099,2,0,L|248:152,1,60
416,152,78614,1,8,0:0:0:0:
256,152,78785,6,0,L|184:152,1,60,0|2,0:0|0:0,0:0:0:0:
256,152,79128,2,0,L|328:152,1,60,0|8,0:0|0:0,0:0:0:0:
376,152,79471,1,0,0:0:0:0:
316,152,79642,1,0,0:0:0:0:
416,152,79985,1,8,0:0:0:0:
96,152,80328,5,2,0:0:0:0:
232,152,80671,1,8,0:0:0:0:
304,152,80842,2,0,L|384:152,1,60
216,152,81356,2,0,L|136:152,1,60,8|0,0:0|0:0,0:0:0:0:
328,144,81699,5,2,0:0:0:0:
368,144,81785,1,0,0:0:0:0:
400,144,81871,1,0,0:0:0:0:
312,144,82042,1,8,0:0:0:0:
240,144,82214,1,0,0:0:0:0:
312,144,82385,1,0,0:0:0:0:
432,144,82728,1,8,0:0:0:0:
467,144,82814,1,0,0:0:0:0:
432,144,82899,1,0,0:0:0:0:
256,144,83071,5,2,0:0:0:0:
112,144,83414,1,8,0:0:0:0:
184,152,83585,2,0,L|264:152,1,60,0|0,0:0|0:0,0:0:0:0:
96,152,84099,1,8,0:0:0:0:
256,152,84271,6,0,L|328:152,1,60,0|2,0:0|0:0,0:0:0:0:
256,152,84614,2,0,L|184:152,1,60,0|8,0:0|0:0,0:0:0:0:
136,152,84956,1,0,0:0:0:0:
196,152,85127,1,0,0:0:0:0:
96,152,85470,1,8,0:0:0:0:
416,152,85814,5,2,0:0:0:0:
272,152,86156,1,8,0:0:0:0:
196,152,86328,2,0,L|116:152,1,60
280,152,86842,2,0,L|360:152,1,60,8|0,0:0|0:0,0:0:0:0:
184,152,87185,5,2,0:0:0:0:
144,152,87271,1,0,0:0:0:0:
112,152,87356,1,0,0:0:0:0:
184,152,87528,1,2,0:0:0:0:
112,152,87699,1,0,0:0:0:0:
184,152,87871,1,2,0:0:0:0:
336,152,88214,1,8,0:0:0:0:
64,120,88556,6,0,P|48:176|120:192,1,120,6|8,0:0|0:0,0:0:0:0:
256,192,89242,2,0,L|316:192,1,60,0|2,0:0|0:0,0:0:0:0:
240,192,89585,2,0,L|152:192,1,60,8|0,0:0|0:0,0:0:0:0:
360,184,89928,6,0,L|488:184,1,120,2|8,0:0|0:0,0:0:0:0:
336,184,90614,2,0,L|264:184,1,60,0|2,0:0|0:0,0:0:0:0:
344,184,90956,2,0,L|424:184,1,60,8|0,0:0|0:0,0:0:0:0:
224,192,91299,6,0,P|192:160|256:120,1,120,2|8,0:0|0:0,0:0:0:0:
352,104,91985,2,0,L|424:104,1,60,0|2,0:0|0:0,0:0:0:0:
488,104,92328,2,0,L|408:104,1,60,8|0,0:0|0:0,0:0:0:0:
256,112,92671,6,0,L|136:112,2,120,2|8|0,0:0|0:0|0:0,0:0:0:0:
112,112,93699,1,8,0:0:0:0:
392,112,94042,6,0,P|408:168|336:184,1,120,2|8,0:0|0:0,0:0:0:0:
240,192,94728,2,0,L|180:192,1,60,0|2,0:0|0:0,0:0:0:0:
256,192,95071,2,0,L|344:192,1,60,8|0,0:0|0:0,0:0:0:0:
152,184,95414,6,0,L|24:184,1,120,2|8,0:0|0:0,0:0:0:0:
184,184,96100,2,0,L|256:184,1,60,0|2,0:0|0:0,0:0:0:0:
176,184,96442,2,0,L|96:184,1,60,8|0,0:0|0:0,0:0:0:0:
288,192,96785,6,0,P|320:160|256:120,1,120,2|8,0:0|0:0,0:0:0:0:
160,120,97471,2,0,L|88:120,1,60,0|2,0:0|0:0,0:0:0:0:
32,120,97814,2,0,L|112:120,1,60,8|0,0:0|0:0,0:0:0:0:
256,112,98157,6,0,L|376:112,2,120,2|8|0,0:0|0:0|0:0,0:0:0:0:
400,112,99185,1,8,0:0:0:0:
104,104,99528,6,0,P|72:144|136:160,1,120,6|8,0:0|0:0,0:0:0:0:
256,192,100214,2,0,L|376:192,1,120,0|8,0:0|0:0,0:0:0:0:
304,192,100728,1,0,0:0:0:0:
128,192,100899,6,0,P|96:232|160:248,1,120,2|8,0:0|0:0,0:0:0:0:
288,264,101585,2,0,L|152:264,1,120,0|8,0:0|0:0,0:0:0:0:
240,264,102099,1,0,0:0:0:0:
424,272,102271,6,0,P|456:232|392:216,1,120,2|8,0:0|0:0,0:0:0:0:
288,192,102956,2,0,L|168:192,1,120,0|8,0:0|0:0,0:0:0:0:
96,192,103471,1,0,0:0:0:0:
256,192,103642,6,0,L|384:192,2,120,2|8|0,0:0|0:0|0:0,0:0:0:0:
96,192,104671,1,8,0:0:0:0:
352,192,105014,6,0,P|392:176|344:136,1,120,2|8,0:0|0:0,0:0:0:0:
160,128,105699,2,0,L|240:128,1,60,0|2,0:0|0:0,0:0:0:0:
296,128,106042,2,0,L|368:128,1,60,8|0,0:0|0:0,0:0:0:0:
184,128,106385,6,0,P|144:112|192:72,1,120,2|8,0:0|0:0,0:0:0:0:
304,72,107071,2,0,L|224:72,1,60,0|2,0:0|0:0,0:0:0:0:
168,72,107414,2,0,L|96:72,1,60,8|0,0:0|0:0,0:0:0:0:
256,72,107756,5,2,0:0:0:0:
400,72,108099,1,0,0:0:0:0:
328,72,108271,2,0,P|264:88|328:160,1,180,8|8,0:0|0:0,0:0:0:0:
376,168,108956,1,0,0:0:0:0:
448,168,109128,6,0,P|488:200|432:232,1,120,0|0,0:0|0:0,0:0:0:0:
280,232,109642,2,0,L|152:232,1,120,8|0,0:0|0:0,0:0:0:0:
96,232,110156,1,8,0:0:0:0:
168,232,110328,1,0,0:0:0:0:
352,224,110499,6,0,P|392:208|344:160,1,120,6|8,0:0|0:0,0:0:0:0:
296,160,111014,2,0,P|232:160|304:160,1,120
360,160,111528,1,8,0:0:0:0:
96,152,111871,6,0,B|32:152|32:152|96:152,1,120,2|8,0:0|0:0,0:0:0:0:
256,80,112556,2,0,L|336:80,1,60,0|2,0:0|0:0,0:0:0:0:
240,80,112899,2,0,L|152:80,1,60,8|0,0:0|0:0,0:0:0:0:
368,80,113242,6,0,P|408:112|360:128,1,120,2|8,0:0|0:0,0:0:0:0:
184,208,113756,2,0,L|112:208|184:208,1,120,0|2,0:0|0:0,0:0:0:0:
240,208,114271,1,8,0:0:0:0:
384,208,114614,6,0,P|416:192|368:128,1,120,2|8,0:0|0:0,0:0:0:0:
320,128,115128,1,0,0:0:0:0:
392,126,115299,2,0,L|452:126,2,60,0|2|8,0:0|0:0|0:0,0:0:0:0:
84,136,115985,6,0,P|52:112|100:64,1,120,2|8,0:0|0:0,0:0:0:0:
172,64,116499,2,0,L|52:64,1,120
124,64,117014,1,8,0:0:0:0:
392,64,117356,6,0,B|456:64|456:64|392:64,1,120,2|8,0:0|0:0,0:0:0:0:
256,64,118042,2,0,L|176:64,1,60,0|2,0:0|0:0,0:0:0:0:
296,64,118385,2,0,L|384:64,1,60,8|0,0:0|0:0,0:0:0:0:
200,80,118728,6,0,P|160:112|208:128,1,120,2|8,0:0|0:0,0:0:0:0:
384,208,119242,2,0,L|456:208|384:208,1,120,0|2,0:0|0:0,0:0:0:0:
336,208,119756,1,8,0:0:0:0:
80,208,120099,6,0,L|8:208,1,60,2|0,0:0|0:0,0:0:0:0:
96,208,120442,1,8,0:0:0:0:
256,192,120614,2,0,L|344:192,2,60,0|0|2,0:0|0:0|0:0,0:0:0:0:
184,192,121128,2,0,L|272:192,1,60,8|0,0:0|0:0,0:0:0:0:
64,144,121471,6,0,P|32:120|80:64,1,120,6|8,0:0|0:0,0:0:0:0:
136,72,121985,2,0,P|200:72|128:72,1,120
72,72,122499,1,8,0:0:0:0:
368,72,122842,6,0,B|432:72|432:72|368:72,1,120,2|8,0:0|0:0,0:0:0:0:
248,80,123528,2,0,L|168:80,1,60,0|2,0:0|0:0,0:0:0:0:
248,80,123871,2,0,L|336:80,1,60,8|0,0:0|0:0,0:0:0:0:
136,80,124214,6,0,P|96:112|144:128,1,120,2|8,0:0|0:0,0:0:0:0:
344,208,124728,2,0,L|416:208|344:208,1,120,0|2,0:0|0:0,0:0:0:0:
288,208,125242,1,8,0:0:0:0:
144,208,125585,6,0,P|112:192|160:128,1,120,2|8,0:0|0:0,0:0:0:0:
208,128,126099,1,0,0:0:0:0:
135,126,126271,2,0,L|75:126,2,60,0|2|8,0:0|0:0|0:0,0:0:0:0:
440,136,126956,6,0,P|472:112|424:64,1,120,2|8,0:0|0:0,0:0:0:0:
384,64,127471,2,0,L|264:64,1,120
360,64,127985,1,8,0:0:0:0:
96,64,128328,6,0,B|32:64|32:64|96:64,1,120,2|8,0:0|0:0,0:0:0:0:
256,80,129014,2,0,L|336:80,1,60,0|2,0:0|0:0,0:0:0:0:
240,80,129356,2,0,L|152:80,1,60,8|0,0:0|0:0,0:0:0:0:
360,80,129699,6,0,P|400:112|352:128,1,120,2|8,0:0|0:0,0:0:0:0:
184,208,130214,2,0,L|112:208|184:208,1,120,0|2,0:0|0:0,0:0:0:0:
224,208,130728,1,8,0:0:0:0:
488,208,131071,6,0,L|488:136,1,60,2|0,0:0|0:0,0:0:0:0:
424,144,131414,1,2,0:0:0:0:
256,136,131585,2,0,P|208:168|256:192,1,120
312,192,132099,2,0,L|240:192,1,60,2|2,0:0|0:0,0:0:0:0:
88,200,132442,6,0,P|48:160|96:136,1,120,6|8,0:0|0:0,0:0:0:0:
304,128,133299,1,2,0:0:0:0:
232,128,133471,2,0,L|172:128,1,60,8|0,0:0|0:0,0:0:0:0:
96,128,133814,6,0,P|56:152|104:184,1,120,2|8,0:0|0:0,0:0:0:0:
256,184,134328,2,0,L|400:184,1,120,0|2,0:0|0:0,0:0:0:0:
448,184,134842,1,8,0:0:0:0:
200,192,135185,6,0,L|120:192,2,60,2|0|8,0:0|0:0|0:0,0:0:0:0:
272,192,135699,1,0,0:0:0:0:
432,192,136042,1,2,0:0:0:0:
360,192,136214,2,0,L|280:192,1,60,8|0,0:0|0:0,0:0:0:0:
376,192,136556,6,0,P|416:168|360:128,1,120,2|8,0:0|0:0,0:0:0:0:
208,120,137071,2,0,L|64:120,1,120,0|2,0:0|0:0,0:0:0:0:
8,120,137585,1,8,0:0:0:0:
264,112,137928,6,0,P|304:144|248:168,1,120,2|8,0:0|0:0,0:0:0:0:
464,112,138785,1,2,0:0:0:0:
392,112,138956,2,0,L|332:112,1,60,8|0,0:0|0:0,0:0:0:0:
408,120,139299,6,0,P|448:144|400:176,1,120,2|8,0:0|0:0,0:0:0:0:
256,184,139814,2,0,L|112:184,1,120,0|2,0:0|0:0,0:0:0:0:
64,184,140328,1,8,0:0:0:0:
328,192,140671,6,0,L|408:192,2,60,2|0|0,0:0|0:0|0:0,0:0:0:0:
256,192,141185,1,0,0:0:0:0:
80,192,141528,1,2,0:0:0:0:
152,192,141699,2,0,L|232:192,1,60,8|0,0:0|0:0,0:0:0:0:
152,192,142042,6,0,P|112:168|168:128,1,120,2|8,0:0|0:0,0:0:0:0:
312,120,142556,2,0,L|456:120,1,120,0|2,0:0|0:0,0:0:0:0:
504,120,143071,1,8,0:0:0:0:
240,112,143414,6,0,P|200:144|256:168,1,120,6|8,0:0|0:0,0:0:0:0:
400,176,144100,2,0,L|472:176,1,60,0|2,0:0|0:0,0:0:0:0:
384,176,144443,2,0,L|304:176,1,60,8|0,0:0|0:0,0:0:0:0:
259,175,144785,6,0,P|219:207|275:231,1,120,2|8,0:0|0:0,0:0:0:0:
408,240,145471,2,0,L|348:240,1,60,0|2,0:0|0:0,0:0:0:0:
272,240,145814,2,0,L|212:240,1,60,8|0,0:0|0:0,0:0:0:0:
392,240,146157,6,0,P|434:209|394:176,1,120,2|8,0:0|0:0,0:0:0:0:
248,192,146843,2,0,L|184:192,1,60,0|2,0:0|0:0,0:0:0:0:
120,192,147185,2,0,L|200:192,1,60,8|0,0:0|0:0,0:0:0:0:
256,192,147528,6,0,P|298:161|258:128,1,120,2|8,0:0|0:0,0:0:0:0:
352,144,148214,2,0,L|432:144,1,60,0|2,0:0|0:0,0:0:0:0:
488,144,148557,2,0,L|428:144,1,60,8|0,0:0|0:0,0:0:0:0:
256,136,148900,6,0,P|216:152|272:192,1,120,2|8,0:0|0:0,0:0:0:0:
392,192,149585,2,0,L|452:192,1,60,0|2,0:0|0:0,0:0:0:0:
376,192,149928,2,0,L|304:192,1,60,8|0,0:0|0:0,0:0:0:0:
248,192,150271,6,0,P|208:216|264:256,1,120,2|8,0:0|0:0,0:0:0:0:
104,256,150957,2,0,L|32:256,1,60,0|2,0:0|0:0,0:0:0:0:
120,256,151300,2,0,L|192:256,1,60,8|0,0:0|0:0,0:0:0:0:
256,192,151642,5,2,0:0:0:0:
256,192,151985,12,0,154385,0:0:0:0:
