osu file format v14

[General]
AudioFilename: audio.mp3
AudioLeadIn: 0
PreviewTime: 110156
Countdown: 0
SampleSet: Soft
StackLeniency: 0.7
Mode: 2
LetterboxInBreaks: 0
WidescreenStoryboard: 0

[Editor]
DistanceSpacing: 1
BeatDivisor: 12
GridSize: 8
TimelineZoom: 2.3

[Metadata]
Title:By Design
TitleUnicode:By Design
Artist:WRLD
ArtistUnicode:WRLD
Creator:WildOne94
Version:Platter
Source:
Tags:monstercat dnb dance electronic Drum Bass
BeatmapID:1429061
BeatmapSetID:672806

[Difficulty]
HPDrainRate:5
CircleSize:3.5
OverallDifficulty:8
ApproachRate:8
SliderMultiplier:1.4
SliderTickRate:1

[Events]
//Background and Video events
0,0,"1920x1080 background.png",0,0
//Break Periods
//Storyboard Layer 0 (Background)
//Storyboard Layer 1 (Fail)
//Storyboard Layer 2 (Pass)
//Storyboard Layer 3 (Foreground)
//Storyboard Sound Samples

[TimingPoints]
-586,342.857142857143,4,2,0,20,1,0
785,-100,4,2,2,30,0,0
10385,-100,4,2,2,30,0,0
11756,-100,4,2,2,50,0,0
21356,-100,4,2,2,40,0,0
22727,-100,4,2,0,25,0,0
31685,-100,4,2,0,5,0,0
31706,-100,4,2,0,25,0,0
33699,-100,4,2,2,30,0,0
34385,-100,4,2,0,25,0,0
41028,-100,4,2,0,5,0,0
41071,-100,4,2,0,25,0,0
44670,-100,4,2,2,50,0,0
54785,-100,4,2,2,20,0,0
55642,-100,4,2,2,50,0,0
61127,-100,4,2,2,55,0,0
63870,-100,4,2,2,60,0,0
65585,-100,4,2,2,30,0,0
66270,-100,4,2,2,20,0,0
66614,-100,4,2,1,70,0,1
66785,-100,4,2,1,70,0,1
68499,-100,4,2,1,70,0,1
68670,-100,4,2,1,70,0,1
71242,-100,4,2,1,70,0,1
71413,-100,4,2,1,70,0,1
72099,-100,4,2,1,70,0,1
72270,-100,4,2,1,70,0,1
73985,-100,4,2,1,70,0,1
74156,-100,4,2,1,70,0,1
76727,-100,4,2,1,70,0,1
76899,-100,4,2,1,70,0,1
77585,-100,4,2,1,70,0,1
77756,-100,4,2,1,70,0,1
83070,-100,4,2,1,70,0,1
83242,-100,4,2,1,70,0,1
87185,-100,4,2,1,40,0,0
87356,-100,4,2,0,40,0,0
88213,-100,4,2,1,40,0,0
88556,-100,4,2,1,70,0,1
107756,-100,4,2,1,40,0,0
108270,-100,4,2,1,45,0,0
108785,-100,4,2,1,50,0,0
109642,-100,4,2,1,60,0,0
110156,-100,4,2,1,40,0,0
110499,-100,4,2,1,70,0,1
110842,-100,4,2,1,70,0,1
111870,-100,4,2,1,70,0,1
112213,-100,4,2,1,70,0,1
113756,-100,4,2,1,70,0,1
113927,-100,4,2,1,70,0,1
114613,-100,4,2,1,70,0,1
114956,-100,4,2,1,70,0,1
115985,-100,4,2,1,70,0,1
116156,-100,4,2,1,70,0,1
117356,-100,4,2,1,70,0,1
117699,-100,4,2,1,70,0,1
119242,-100,4,2,1,70,0,1
119413,-100,4,2,1,70,0,1
121470,-100,4,2,1,70,0,1
121642,-100,4,2,1,70,0,1
122842,-100,4,2,1,70,0,1
123185,-100,4,2,1,70,0,1
124727,-100,4,2,1,70,0,1
124899,-100,4,2,1,70,0,1
125585,-100,4,2,1,70,0,1
125927,-100,4,2,1,70,0,1
126956,-100,4,2,1,70,0,1
127127,-100,4,2,1,70,0,1
128327,-100,4,2,1,70,0,1
128670,-100,4,2,1,70,0,1
130213,-100,4,2,1,70,0,1
130385,-100,4,2,1,70,0,1
131071,-100,4,2,1,40,0,0
131413,-100,4,2,0,40,0,0
132442,-100,4,2,1,60,0,0
133813,-100,4,2,2,55,0,0
135185,-100,4,2,2,50,0,0
143413,-100,4,2,2,40,0,0
144785,-100,4,2,2,30,0,0
151813,-100,4,2,2,20,0,0
152327,-100,4,2,2,15,0,0
153013,-100,4,2,2,10,0,0
153699,-100,4,2,2,5,0,0

[Colours]
Combo1 : 231,10,148
Combo2 : 255,255,102
Combo3 : 72,154,255
Combo4 : 255,125,255
Combo5 : 255,207,64

[HitObjects]
152,192,99,5,2,0:0:0:0:
192,192,185,1,2,0:0:0:0:
152,192,271,1,2,0:0:0:0:
64,192,442,1,2,0:0:0:0:
152,192,614,1,0,0:0:0:0:
400,216,785,6,0,P|448:192|416:120,1,140,6|8,0:0|0:0,0:0:0:0:
336,128,1299,1,0,0:0:0:0:
288,152,1385,1,0,0:0:0:0:
256,136,1471,1,0,0:0:0:0:
248,96,1556,1,0,0:0:0:0:
280,64,1642,1,2,0:0:0:0:
424,72,1814,2,0,L|496:72,1,70,8|0,0:0|0:0,0:0:0:0:
296,72,2156,6,0,P|240:96|280:144,1,140,2|8,0:0|0:0,0:0:0:0:
360,160,2671,1,0,0:0:0:0:
376,200,2756,1,0,0:0:0:0:
352,232,2842,1,0,0:0:0:0:
304,240,2928,1,0,0:0:0:0:
256,232,3014,1,2,0:0:0:0:
112,224,3185,2,0,L|16:224,1,70,8|0,0:0|0:0,0:0:0:0:
218,225,3528,6,0,P|276:197|257:135,1,140,2|8,0:0|0:0,0:0:0:0:
176,128,4042,1,0,0:0:0:0:
224,152,4128,1,0,0:0:0:0:
256,136,4214,1,0,0:0:0:0:
264,96,4299,1,0,0:0:0:0:
232,64,4385,1,2,0:0:0:0:
80,72,4556,2,0,L|8:72,1,70,8|0,0:0|0:0,0:0:0:0:
216,72,4899,6,0,P|272:96|232:144,1,140,2|8,0:0|0:0,0:0:0:0:
152,160,5414,1,0,0:0:0:0:
136,200,5499,1,0,0:0:0:0:
160,232,5585,1,0,0:0:0:0:
208,240,5671,1,0,0:0:0:0:
256,232,5756,1,2,0:0:0:0:
424,224,5928,2,0,L|520:224,1,70,8|0,0:0|0:0,0:0:0:0:
256,232,6271,6,0,P|208:192|272:152,1,140,2|8,0:0|0:0,0:0:0:0:
336,152,6785,1,0,0:0:0:0:
376,136,6871,1,0,0:0:0:0:
392,96,6956,1,0,0:0:0:0:
368,64,7042,1,0,0:0:0:0:
328,48,7128,1,2,0:0:0:0:
160,48,7299,2,0,L|72:48,1,70,8|0,0:0|0:0,0:0:0:0:
256,232,7642,6,0,P|304:192|240:152,1,140,2|8,0:0|0:0,0:0:0:0:
176,152,8156,1,0,0:0:0:0:
136,136,8242,1,0,0:0:0:0:
120,96,8328,1,0,0:0:0:0:
144,64,8414,1,0,0:0:0:0:
184,48,8499,1,2,0:0:0:0:
352,48,8671,2,0,L|440:48,1,70,8|0,0:0|0:0,0:0:0:0:
256,40,9014,6,0,P|200:56|256:96,1,140,2|8,0:0|0:0,0:0:0:0:
320,104,9528,5,0,0:0:0:0:
360,112,9614,1,0,0:0:0:0:
384,144,9699,1,0,0:0:0:0:
360,176,9785,1,0,0:0:0:0:
320,176,9871,1,2,0:0:0:0:
160,192,10042,2,0,L|88:192,1,70,8|0,0:0|0:0,0:0:0:0:
256,192,10385,5,2,0:0:0:0:
304,176,10728,1,2,0:0:0:0:
288,216,10814,1,2,0:0:0:0:
248,232,10899,1,2,0:0:0:0:
208,232,10985,1,2,0:0:0:0:
80,224,11071,1,2,0:0:0:0:
40,216,11156,1,2,0:0:0:0:
24,176,11242,1,2,0:0:0:0:
40,136,11328,1,2,0:0:0:0:
80,128,11414,1,8,0:0:0:0:
488,160,11756,6,0,P|480:224|416:248,1,140,6|8,0:0|0:0,0:0:0:0:
224,232,12442,1,0,0:0:0:0:
136,232,12614,1,2,0:0:0:0:
320,232,12785,2,0,L|400:232,1,70,8|0,0:0|0:0,0:0:0:0:
224,224,13128,6,0,P|168:184|224:136,1,140,2|8,0:0|0:0,0:0:0:0:
368,144,13642,2,0,L|456:144,1,70,0|0,0:0|0:0,0:0:0:0:
352,144,13985,1,2,0:0:0:0:
208,144,14156,2,0,L|112:144,1,70,8|0,0:0|0:0,0:0:0:0:
304,144,14499,5,2,0:0:0:0:
344,144,14585,1,0,0:0:0:0:
344,184,14671,1,0,0:0:0:0:
304,184,14756,1,0,0:0:0:0:
264,184,14842,2,0,P|224:152|280:104,1,140,8|0,0:0|0:0,0:0:0:0:
360,104,15356,1,2,0:0:0:0:
200,104,15528,2,0,L|104:104,1,70,8|0,0:0|0:0,0:0:0:0:
296,104,15871,6,0,P|338:152|295:200,1,140,2|8,0:0|0:0,0:0:0:0:
128,200,16385,2,0,L|40:200,1,70
144,200,16728,1,2,0:0:0:0:
328,200,16899,2,0,L|408:200,1,70,8|0,0:0|0:0,0:0:0:0:
144,144,17242,6,0,P|96:176|160:200,1,140,2|8,0:0|0:0,0:0:0:0:
336,200,17928,1,0,0:0:0:0:
256,200,18099,1,2,0:0:0:0:
104,208,18271,2,0,L|24:208,1,70,8|0,0:0|0:0,0:0:0:0:
192,208,18614,6,0,P|240:192|248:104,1,140,2|8,0:0|0:0,0:0:0:0:
104,144,19128,2,0,L|16:144,1,70,0|0,0:0|0:0,0:0:0:0:
120,144,19471,1,2,0:0:0:0:
304,144,19642,2,0,L|400:144,1,70,8|0,0:0|0:0,0:0:0:0:
208,144,19985,5,2,0:0:0:0:
168,144,20071,1,0,0:0:0:0:
168,184,20156,1,0,0:0:0:0:
208,184,20242,1,0,0:0:0:0:
248,184,20328,2,0,P|288:152|232:104,1,140,8|0,0:0|0:0,0:0:0:0:
152,104,20842,1,2,0:0:0:0:
312,104,21014,2,0,L|408:104,1,70,8|0,0:0|0:0,0:0:0:0:
216,104,21356,6,0,P|174:152|217:200,1,140,2|0,0:0|0:0,0:0:0:0:
368,200,21871,2,0,L|456:200,1,70,2|0,0:0|0:0,0:0:0:0:
352,200,22214,1,0,0:0:0:0:
192,200,22385,1,2,0:0:0:0:
112,200,22556,1,2,0:0:0:0:
352,192,22728,6,0,P|392:208|344:272,1,140,6|0,0:0|0:0,0:0:0:0:
192,192,23414,2,0,L|320:192,1,122.5,2|0,0:0|0:0,0:0:0:0:
248,192,23899,1,0,0:0:0:0:
376,192,24242,6,0,P|432:192|368:272,1,221.666666666667,2|0,0:0|0:0,0:0:0:0:
216,272,25128,1,2,0:0:0:0:
144,272,25299,6,0,P|104:232|152:168,1,140,2|0,0:0|0:0,0:0:0:0:
336,176,26156,2,0,P|384:144|336:104,1,140,2|0,0:0|0:0,0:0:0:0:
256,104,26699,6,0,L|120:104,1,128.333333333333,2|0,0:0|0:0,0:0:0:0:
312,112,27528,1,2,0:0:0:0:
456,112,27871,2,0,L|384:112,1,70,2|2,0:0|0:0,0:0:0:0:
232,160,28214,6,0,P|192:128|256:96,1,140
408,88,28899,2,0,P|456:136|392:168,1,140,2|0,0:0|0:0,0:0:0:0:
344,176,29414,6,0,L|272:176,1,70,2|0,0:0|0:0,0:0:0:0:
104,168,29756,2,0,P|62:216|112:255,1,140,2|0,0:0|0:0,0:0:0:0:
192,256,30271,1,2,0:0:0:0:
352,248,30614,1,2,0:0:0:0:
208,248,30785,6,0,L|136:248,1,70,2|0,0:0|0:0,0:0:0:0:
256,240,31342,2,0,P|320:192|288:152,1,148.75,2|2,0:0|0:0,0:0:0:0:
176,160,32028,1,2,0:0:0:0:
344,192,32185,6,0,P|416:104|336:56,1,233.333333333333,2|0,0:0|0:0,0:0:0:0:
256,88,32885,2,0,P|200:120|272:192,1,192.5,2|0,0:0|0:0,0:0:0:0:
368,192,33571,1,0,0:0:0:0:
216,192,33699,6,0,P|136:168|232:48,1,280,6|2,0:0|0:0,0:0:0:0:
335,40,34685,1,2,0:0:0:0:
248,40,34856,6,0,L|344:40,1,87.5,2|0,0:0|0:0,0:0:0:0:
400,40,35214,2,0,P|480:96|407:170,1,221.666666666667,2|2,0:0|0:0,0:0:0:0:
256,168,36099,1,2,0:0:0:0:
184,168,36271,6,0,P|112:152|144:56,1,192.5,2|0,0:0|0:0,0:0:0:0:
328,72,37128,2,0,L|176:72,1,140,2|0,0:0|0:0,0:0:0:0:
120,72,37642,2,0,L|192:72,1,70,2|0,0:0|0:0,0:0:0:0:
360,72,37985,6,0,P|400:96|312:192,1,210,2|2,0:0|0:0,0:0:0:0:
144,192,38842,2,0,L|64:192,1,70,2|2,0:0|0:0,0:0:0:0:
256,192,39185,6,0,P|304:152|240:56,1,192.5,0|2,0:0|0:0,0:0:0:0:
160,56,39871,2,0,L|288:56,1,122.5,2|0,0:0|0:0,0:0:0:0:
352,56,40342,1,2,0:0:0:0:
96,48,40685,6,0,P|40:88|96:128,1,157.5,2|0,0:0|0:0,0:0:0:0:
168,128,41242,1,2,0:0:0:0:
48,136,41542,1,2,0:0:0:0:
232,144,41714,6,0,P|320:120|232:48,1,245,2|2,0:0|0:0,0:0:0:0:
96,40,42656,2,0,L|240:40,1,140,2|2,0:0|0:0,0:0:0:0:
400,64,43171,6,0,P|424:112|320:192,1,210,2|0,0:0|0:0,0:0:0:0:
144,216,43856,2,0,P|64:176|80:72,1,192.5,2|0,0:0|0:0,0:0:0:0:
480,112,44671,5,6,0:0:0:0:
256,120,45185,1,0,0:0:0:0:
184,120,45356,2,0,L|104:120,1,70,8|0,0:0|0:0,0:0:0:0:
384,120,45871,6,0,L|464:120,1,70,0|2,0:0|0:0,0:0:0:0:
304,120,46214,2,0,L|216:120,1,70
320,120,46556,1,0,0:0:0:0:
168,120,46728,2,0,L|96:120,1,70,8|0,0:0|0:0,0:0:0:0:
192,120,47071,1,0,0:0:0:0:
234,120,47156,1,0,0:0:0:0:
280,120,47242,1,0,0:0:0:0:
424,120,47414,6,0,L|520:120,1,70,2|0,0:0|0:0,0:0:0:0:
296,120,47928,1,0,0:0:0:0:
208,120,48099,2,0,L|136:120,1,70,8|0,0:0|0:0,0:0:0:0:
296,120,48442,1,0,0:0:0:0:
336,120,48528,1,0,0:0:0:0:
336,160,48614,1,0,0:0:0:0:
296,160,48699,1,0,0:0:0:0:
192,168,48785,6,0,L|112:168,1,70,2|0,0:0|0:0,0:0:0:0:
208,168,49128,2,0,L|288:168,1,70
445,176,49471,2,0,P|453:136|413:96,1,70,8|0,0:0|0:0,0:0:0:0:
336,104,49814,1,0,0:0:0:0:
296,104,49899,1,0,0:0:0:0:
256,104,49985,1,0,0:0:0:0:
80,112,50156,5,2,0:0:0:0:
256,120,50671,1,0,0:0:0:0:
328,120,50842,2,0,L|408:120,1,70,8|0,0:0|0:0,0:0:0:0:
128,120,51356,6,0,L|48:120,1,70,0|2,0:0|0:0,0:0:0:0:
208,120,51699,2,0,L|296:120,1,70
192,120,52042,1,0,0:0:0:0:
344,120,52214,2,0,L|416:120,1,70,8|0,0:0|0:0,0:0:0:0:
320,120,52556,1,0,0:0:0:0:
278,120,52642,1,0,0:0:0:0:
232,120,52728,1,0,0:0:0:0:
392,120,52899,6,0,L|488:120,1,70,2|0,0:0|0:0,0:0:0:0:
272,120,53285,2,0,P|226:96|272:64,1,122.5,0|8,0:0|0:0,0:0:0:0:
440,80,53928,1,0,0:0:0:0:
344,80,54128,1,0,0:0:0:0:
200,80,54271,6,0,P|168:112|232:160,1,140,2|0,0:0|0:0,0:0:0:0:
336,144,54814,2,0,P|440:136|480:56,1,198.333333333333
40,184,55642,5,6,0:0:0:0:
256,120,56156,1,0,0:0:0:0:
106,120,56328,2,0,L|26:120,1,70,2|0,0:0|0:0,0:0:0:0:
256,120,56842,6,0,L|336:120,1,70,0|2,0:0|0:0,0:0:0:0:
152,120,57185,2,0,L|72:120,1,70
168,120,57528,1,0,0:0:0:0:
320,120,57699,2,0,L|394:120,1,70,2|0,0:0|0:0,0:0:0:0:
296,120,58042,1,0,0:0:0:0:
256,120,58128,1,0,0:0:0:0:
216,120,58214,1,0,0:0:0:0:
400,120,58385,6,0,L|488:120,1,70,2|0,0:0|0:0,0:0:0:0:
256,128,58899,1,0,0:0:0:0:
392,128,59071,2,0,L|464:128,1,70,2|0,0:0|0:0,0:0:0:0:
256,128,59414,1,0,0:0:0:0:
216,128,59499,1,0,0:0:0:0:
216,168,59585,1,0,0:0:0:0:
256,168,59671,1,0,0:0:0:0:
344,168,59756,6,0,L|424:168,1,70,2|0,0:0|0:0,0:0:0:0:
496,168,60099,2,0,L|416:168,1,70,0|0,0:0|0:0,0:0:0:0:
256,184,60442,2,0,P|248:144|288:104,1,70,2|0,0:0|0:0,0:0:0:0:
344,120,60785,1,0,0:0:0:0:
384,120,60871,1,0,0:0:0:0:
424,120,60956,1,0,0:0:0:0:
136,120,61128,6,0,L|56:120,1,70,2|0,0:0|0:0,0:0:0:0:
224,120,61471,2,0,L|296:120,1,70,8|0,0:0|0:0,0:0:0:0:
448,120,61814,2,0,L|378:120,1,70,2|0,0:0|0:0,0:0:0:0:
206,120,62156,2,0,L|110:120,1,70,8|0,0:0|0:0,0:0:0:0:
376,120,62499,6,0,L|456:120,1,70,2|0,0:0|0:0,0:0:0:0:
288,120,62842,2,0,L|216:120,1,70,8|0,0:0|0:0,0:0:0:0:
66,120,63185,2,0,L|136:120,1,70,2|0,0:0|0:0,0:0:0:0:
308,120,63528,2,0,L|404:120,1,70,8|0,0:0|0:0,0:0:0:0:
144,72,63871,5,2,0:0:0:0:
104,72,63956,1,0,0:0:0:0:
64,88,64042,1,2,0:0:0:0:
48,128,64128,1,0,0:0:0:0:
56,168,64214,1,8,0:0:0:0:
88,192,64299,1,0,0:0:0:0:
128,200,64385,1,2,0:0:0:0:
168,192,64471,1,0,0:0:0:0:
296,256,64556,5,2,0:0:0:0:
336,256,64642,1,0,0:0:0:0:
360,224,64728,1,2,0:0:0:0:
336,184,64814,1,0,0:0:0:0:
296,168,64899,1,8,0:0:0:0:
288,128,64985,1,0,0:0:0:0:
320,104,65071,1,2,0:0:0:0:
360,104,65156,1,0,0:0:0:0:
400,88,65242,5,2,0:0:0:0:
432,56,65328,1,0,0:0:0:0:
400,24,65414,1,2,0:0:0:0:
160,32,65585,2,0,L|72:32,1,70,2|0,0:0|0:0,0:0:0:0:
280,32,65928,2,0,L|376:32,1,70,2|0,0:0|0:0,0:0:0:0:
456,32,66271,1,2,0:0:0:0:
48,192,66614,6,0,P|32:240|56:272,1,70,6|0,0:0|0:0,0:0:0:0:
120,256,66956,2,0,L|216:256,1,70,8|0,0:0|0:0,0:0:0:0:
338,256,67299,2,0,L|410:256,2,70,0|2|8,0:0|0:0|0:0,0:0:0:0:
232,256,67814,1,0,0:0:0:0:
408,256,67985,6,0,L|480:256|400:256,1,140,2|8,0:0|0:0,0:0:0:0:
256,256,68499,2,0,L|160:256,1,70
272,256,68842,1,2,0:0:0:0:
120,256,69014,2,0,L|32:256,1,70,8|0,0:0|0:0,0:0:0:0:
336,264,69356,5,2,0:0:0:0:
376,264,69442,1,0,0:0:0:0:
376,224,69528,1,0,0:0:0:0:
336,224,69614,1,0,0:0:0:0:
296,224,69699,2,0,L|200:224,1,70,8|0,0:0|0:0,0:0:0:0:
376,224,70042,2,0,L|464:224,2,70,0|2|8,0:0|0:0|0:0,0:0:0:0:
288,224,70556,1,0,0:0:0:0:
96,224,70728,6,0,P|56:192|120:152,1,140,2|8,0:0|0:0,0:0:0:0:
280,144,71242,1,0,0:0:0:0:
368,144,71414,2,0,L|448:144,1,70,0|2,0:0|0:0,0:0:0:0:
256,136,71756,2,0,L|168:136,1,70,8|0,0:0|0:0,0:0:0:0:
472,192,72099,6,0,P|488:240|464:272,1,70,2|0,0:0|0:0,0:0:0:0:
392,256,72442,2,0,L|296:256,1,70,8|0,0:0|0:0,0:0:0:0:
168,256,72785,2,0,L|96:256,2,70,0|2|8,0:0|0:0|0:0,0:0:0:0:
248,256,73299,1,0,0:0:0:0:
88,256,73471,6,0,L|16:256|96:256,1,140,2|8,0:0|0:0,0:0:0:0:
264,256,73985,2,0,L|360:256,1,70
240,256,74328,1,2,0:0:0:0:
392,256,74499,2,0,L|480:256,1,70,8|0,0:0|0:0,0:0:0:0:
176,264,74842,5,2,0:0:0:0:
136,264,74928,1,0,0:0:0:0:
136,224,75014,1,0,0:0:0:0:
176,224,75099,1,0,0:0:0:0:
216,224,75185,2,0,L|312:224,1,70,8|0,0:0|0:0,0:0:0:0:
136,224,75528,2,0,L|48:224,2,70,0|2|8,0:0|0:0|0:0,0:0:0:0:
224,224,76042,1,0,0:0:0:0:
416,224,76214,6,0,P|456:192|392:152,1,140,2|8,0:0|0:0,0:0:0:0:
224,144,76728,1,0,0:0:0:0:
144,144,76899,2,0,L|64:144,1,70,0|2,0:0|0:0,0:0:0:0:
256,144,77242,1,8,0:0:0:0:
296,144,77328,1,0,0:0:0:0:
336,144,77414,1,0,0:0:0:0:
74,144,77585,6,0,L|34:145|74:144,1,70,6|0,0:0|0:0,0:0:0:0:
146,144,77928,1,8,0:0:0:0:
58,144,78099,1,0,0:0:0:0:
212,144,78271,2,0,L|308:144,1,70,0|2,0:0|0:0,0:0:0:0:
200,144,78614,1,8,0:0:0:0:
376,144,78785,6,0,L|464:144,1,70,0|2,0:0|0:0,0:0:0:0:
360,144,79128,2,0,L|280:144,1,70,0|8,0:0|0:0,0:0:0:0:
384,144,79471,1,0,0:0:0:0:
184,144,79642,2,0,L|144:144|192:144,1,70,0|2,0:0|0:0,0:0:0:0:
256,144,79985,1,8,0:0:0:0:
296,144,80071,1,0,0:0:0:0:
336,144,80156,1,0,0:0:0:0:
90,144,80328,6,0,L|50:145|90:144,1,70,2|0,0:0|0:0,0:0:0:0:
168,144,80671,1,8,0:0:0:0:
256,144,80842,1,0,0:0:0:0:
176,144,81014,2,0,L|106:144,1,70,0|2,0:0|0:0,0:0:0:0:
424,144,81356,1,8,0:0:0:0:
464,144,81442,1,0,0:0:0:0:
464,184,81528,1,0,0:0:0:0:
424,184,81614,1,0,0:0:0:0:
320,192,81699,6,0,L|240:192,1,70,2|0,0:0|0:0,0:0:0:0:
168,192,82042,2,0,L|248:192,1,70,8|0,0:0|0:0,0:0:0:0:
416,200,82385,2,0,P|424:160|384:120,1,70,0|2,0:0|0:0,0:0:0:0:
256,128,82728,1,8,0:0:0:0:
216,128,82814,1,0,0:0:0:0:
176,128,82899,1,0,0:0:0:0:
432,144,83071,6,0,L|472:145|432:144,1,70,2|0,0:0|0:0,0:0:0:0:
360,144,83414,1,8,0:0:0:0:
448,144,83585,1,0,0:0:0:0:
300,144,83756,2,0,L|204:144,1,70,0|2,0:0|0:0,0:0:0:0:
312,144,84099,1,8,0:0:0:0:
136,144,84271,6,0,L|48:144,1,70,0|2,0:0|0:0,0:0:0:0:
152,144,84614,2,0,L|232:144,1,70,0|8,0:0|0:0,0:0:0:0:
128,144,84956,1,0,0:0:0:0:
328,144,85128,2,0,L|368:144|320:144,1,70,0|2,0:0|0:0,0:0:0:0:
256,144,85471,1,8,0:0:0:0:
216,144,85556,1,0,0:0:0:0:
176,144,85642,1,0,0:0:0:0:
432,144,85814,6,0,L|472:145|432:144,1,70,2|0,0:0|0:0,0:0:0:0:
354,144,86156,1,8,0:0:0:0:
272,144,86328,1,0,0:0:0:0:
354,144,86499,2,0,L|424:144,1,70,0|2,0:0|0:0,0:0:0:0:
136,144,86842,1,8,0:0:0:0:
96,144,86928,1,0,0:0:0:0:
96,184,87014,1,0,0:0:0:0:
136,184,87099,1,0,0:0:0:0:
256,192,87185,5,2,0:0:0:0:
296,192,87271,1,0,0:0:0:0:
256,192,87356,1,0,0:0:0:0:
176,192,87528,2,0,L|80:192,1,70,2|0,0:0|0:0,0:0:0:0:
192,192,87871,2,0,L|272:192,1,70,2|0,0:0|0:0,0:0:0:0:
424,192,88214,2,0,L|494:192,1,70,8|0,0:0|0:0,0:0:0:0:
256,192,88556,6,0,L|160:192,1,70,6|0,0:0|0:0,0:0:0:0:
336,192,88899,1,8,0:0:0:0:
416,192,89071,1,0,0:0:0:0:
336,192,89242,2,0,L|266:192,1,70,0|2,0:0|0:0,0:0:0:0:
112,192,89585,2,0,L|16:192,1,70,8|0,0:0|0:0,0:0:0:0:
216,192,89928,6,0,L|312:192,1,70,2|0,0:0|0:0,0:0:0:0:
176,192,90271,1,8,0:0:0:0:
96,192,90442,1,0,0:0:0:0:
176,192,90614,2,0,L|246:192,1,70,0|2,0:0|0:0,0:0:0:0:
400,192,90956,2,0,L|496:192,1,70,8|0,0:0|0:0,0:0:0:0:
296,192,91299,6,0,L|208:192,1,70,2|0,0:0|0:0,0:0:0:0:
144,192,91642,1,8,0:0:0:0:
232,192,91814,1,0,0:0:0:0:
384,192,91985,2,0,L|480:192,1,70,0|2,0:0|0:0,0:0:0:0:
368,192,92328,1,8,0:0:0:0:
456,192,92499,1,0,0:0:0:0:
192,192,92671,6,0,L|96:192,1,70,2|0,0:0|0:0,0:0:0:0:
304,192,93014,2,0,L|400:192,1,70,8|0,0:0|0:0,0:0:0:0:
224,192,93356,2,0,L|184:192|232:192,1,70,0|2,0:0|0:0,0:0:0:0:
390,192,93699,2,0,L|486:192,1,70,8|0,0:0|0:0,0:0:0:0:
184,192,94042,6,0,L|144:192|176:192,1,70,2|0,0:0|0:0,0:0:0:0:
256,192,94385,1,8,0:0:0:0:
336,192,94556,1,0,0:0:0:0:
256,192,94728,2,0,L|186:192,1,70,0|2,0:0|0:0,0:0:0:0:
384,192,95071,2,0,L|480:192,1,70,8|0,0:0|0:0,0:0:0:0:
296,192,95414,6,0,L|200:192,1,70,2|0,0:0|0:0,0:0:0:0:
336,192,95756,1,8,0:0:0:0:
416,192,95928,1,0,0:0:0:0:
336,192,96099,2,0,L|266:192,1,70,0|2,0:0|0:0,0:0:0:0:
120,192,96442,2,0,L|24:192,1,70,8|0,0:0|0:0,0:0:0:0:
216,192,96785,6,0,L|304:192,1,70,2|0,0:0|0:0,0:0:0:0:
368,192,97128,1,8,0:0:0:0:
280,192,97299,1,0,0:0:0:0:
128,192,97471,2,0,L|32:192,1,70,0|2,0:0|0:0,0:0:0:0:
144,192,97814,1,8,0:0:0:0:
56,192,97985,1,0,0:0:0:0:
320,192,98156,6,0,L|416:192,1,70,2|0,0:0|0:0,0:0:0:0:
208,192,98499,2,0,L|112:192,1,70,8|0,0:0|0:0,0:0:0:0:
288,192,98842,2,0,L|328:192|280:192,1,70,0|2,0:0|0:0,0:0:0:0:
122,192,99185,2,0,L|26:192,1,70,8|0,0:0|0:0,0:0:0:0:
328,192,99528,6,0,L|408:192|336:192,1,140,6|8,0:0|0:0,0:0:0:0:
256,192,100042,1,0,0:0:0:0:
176,192,100214,2,0,L|106:192,1,70,0|2,0:0|0:0,0:0:0:0:
280,192,100556,1,8,0:0:0:0:
362,192,100728,1,0,0:0:0:0:
184,192,100899,6,0,L|104:192|176:192,1,140,2|8,0:0|0:0,0:0:0:0:
256,184,101414,1,0,0:0:0:0:
336,184,101585,2,0,L|406:184,1,70,0|2,0:0|0:0,0:0:0:0:
232,192,101928,1,8,0:0:0:0:
150,192,102099,1,0,0:0:0:0:
328,192,102271,6,0,L|408:192|336:192,1,140,2|8,0:0|0:0,0:0:0:0:
264,192,102785,1,0,0:0:0:0:
348,192,102956,1,0,0:0:0:0:
184,192,103128,2,0,L|104:192,1,70,2|8,0:0|0:0,0:0:0:0:
32,192,103471,1,0,0:0:0:0:
280,192,103642,6,0,L|376:192,1,70,2|0,0:0|0:0,0:0:0:0:
192,192,103985,2,0,L|122:192,1,70,8|0,0:0|0:0,0:0:0:0:
304,192,104328,2,0,L|352:192|330:192,1,70,0|2,0:0|0:0,0:0:0:0:
176,192,104671,2,0,L|128:192|150:192,1,70,8|0,0:0|0:0,0:0:0:0:
424,192,105014,6,0,P|472:168|416:128,1,140,2|8,0:0|0:0,0:0:0:0:
344,120,105528,1,0,0:0:0:0:
256,120,105699,2,0,L|168:120,1,70,0|2,0:0|0:0,0:0:0:0:
344,120,106042,1,8,0:0:0:0:
256,120,106214,1,0,0:0:0:0:
88,192,106385,6,0,P|40:168|96:128,1,140,2|8,0:0|0:0,0:0:0:0:
168,120,106899,1,0,0:0:0:0:
256,120,107071,2,0,L|344:120,1,70,0|2,0:0|0:0,0:0:0:0:
168,120,107414,1,8,0:0:0:0:
88,123,107585,1,0,0:0:0:0:
376,120,107756,5,2,0:0:0:0:
256,120,108099,1,0,0:0:0:0:
344,120,108271,2,0,L|424:120,1,70,8|0,0:0|0:0,0:0:0:0:
328,120,108614,1,0,0:0:0:0:
248,120,108785,2,0,L|152:120,1,70,8|0,0:0|0:0,0:0:0:0:
96,120,109128,6,0,L|26:120,2,70
256,120,109642,2,0,L|352:120,1,70,8|0,0:0|0:0,0:0:0:0:
240,120,109985,1,0,0:0:0:0:
376,120,110156,1,8,0:0:0:0:
456,120,110328,1,0,0:0:0:0:
149,121,110499,6,0,P|93:145|157:169,1,140,6|8,0:0|0:0,0:0:0:0:
232,184,111014,2,0,L|328:184,1,70
136,184,111356,1,2,0:0:0:0:
56,184,111528,1,8,0:0:0:0:
464,192,111871,6,0,P|480:152|400:112,1,140,2|8,0:0|0:0,0:0:0:0:
328,120,112385,1,0,0:0:0:0:
160,120,112556,2,0,L|64:120,1,70,0|2,0:0|0:0,0:0:0:0:
216,120,112899,2,0,L|146:120,1,70,8|0,0:0|0:0,0:0:0:0:
384,120,113242,6,0,L|480:120,1,70,2|0,0:0|0:0,0:0:0:0:
368,120,113585,1,8,0:0:0:0:
208,120,113756,2,0,L|160:120|208:120,1,70
256,120,114099,1,2,0:0:0:0:
424,120,114271,2,0,L|520:120,1,70,8|0,0:0|0:0,0:0:0:0:
256,120,114614,6,0,L|176:120|264:120,1,140,2|8,0:0|0:0,0:0:0:0:
320,120,115128,1,0,0:0:0:0:
280,120,115214,1,0,0:0:0:0:
236,120,115299,2,0,L|148:120,1,70,0|2,0:0|0:0,0:0:0:0:
80,120,115642,2,0,L|150:120,1,70,8|0,0:0|0:0,0:0:0:0:
384,120,115985,6,0,P|440:144|376:168,1,140,2|8,0:0|0:0,0:0:0:0:
310,184,116499,2,0,L|230:184,1,70,0|0,0:0|0:0,0:0:0:0:
328,184,116842,1,2,0:0:0:0:
408,184,117014,2,0,L|496:184,1,70,8|0,0:0|0:0,0:0:0:0:
168,200,117356,6,0,P|120:168|176:128,1,140,2|8,0:0|0:0,0:0:0:0:
256,128,117871,1,0,0:0:0:0:
408,128,118042,2,0,L|488:128,1,70,0|2,0:0|0:0,0:0:0:0:
352,128,118385,2,0,L|448:128,1,70,8|0,0:0|0:0,0:0:0:0:
144,128,118728,6,0,L|56:128,1,70,2|0,0:0|0:0,0:0:0:0:
160,128,119071,1,8,0:0:0:0:
312,136,119242,2,0,L|360:136|312:136,1,70
240,136,119585,1,2,0:0:0:0:
392,136,119756,1,8,0:0:0:0:
472,136,119928,1,0,0:0:0:0:
192,136,120099,6,0,L|112:136,1,70,2|0,0:0|0:0,0:0:0:0:
40,136,120442,1,8,0:0:0:0:
200,136,120614,2,0,L|270:136,2,70,0|0|2,0:0|0:0|0:0,0:0:0:0:
112,136,121128,2,0,L|182:136,1,70,8|0,0:0|0:0,0:0:0:0:
432,128,121471,6,0,P|480:152|424:176,1,140,6|8,0:0|0:0,0:0:0:0:
312,184,121985,2,0,L|216:184,1,70
400,184,122328,1,2,0:0:0:0:
480,184,122499,1,8,0:0:0:0:
48,192,122842,6,0,P|32:152|112:112,1,140,2|8,0:0|0:0,0:0:0:0:
184,120,123356,1,0,0:0:0:0:
352,120,123528,2,0,L|448:120,1,70,0|2,0:0|0:0,0:0:0:0:
296,120,123871,2,0,L|366:120,1,70,8|0,0:0|0:0,0:0:0:0:
128,120,124214,6,0,L|32:120,1,70,2|0,0:0|0:0,0:0:0:0:
144,120,124556,1,8,0:0:0:0:
312,120,124728,2,0,L|360:120|312:120,1,70
256,120,125071,1,2,0:0:0:0:
88,120,125242,2,0,L|-8:120,1,70,8|0,0:0|0:0,0:0:0:0:
256,120,125585,6,0,L|336:120|248:120,1,140,2|8,0:0|0:0,0:0:0:0:
192,120,126099,1,0,0:0:0:0:
232,120,126185,1,0,0:0:0:0:
276,120,126271,2,0,L|364:120,1,70,0|2,0:0|0:0,0:0:0:0:
432,120,126614,2,0,L|362:120,1,70,8|0,0:0|0:0,0:0:0:0:
128,120,126956,6,0,P|72:144|136:168,1,140,2|8,0:0|0:0,0:0:0:0:
202,184,127471,2,0,L|282:184,1,70,0|0,0:0|0:0,0:0:0:0:
184,184,127814,1,2,0:0:0:0:
104,184,127985,2,0,L|16:184,1,70,8|0,0:0|0:0,0:0:0:0:
344,200,128328,6,0,P|392:168|336:128,1,140,2|8,0:0|0:0,0:0:0:0:
256,128,128842,1,0,0:0:0:0:
104,128,129014,2,0,L|24:128,1,70,0|2,0:0|0:0,0:0:0:0:
160,128,129356,2,0,L|64:128,1,70,8|0,0:0|0:0,0:0:0:0:
368,128,129699,6,0,L|456:128,1,70,2|0,0:0|0:0,0:0:0:0:
352,128,130042,1,8,0:0:0:0:
200,136,130214,2,0,L|152:136|200:136,1,70
272,136,130556,1,2,0:0:0:0:
120,136,130728,1,8,0:0:0:0:
40,136,130899,1,0,0:0:0:0:
304,136,131071,6,0,L|384:136,1,70,2|0,0:0|0:0,0:0:0:0:
288,136,131414,1,2,0:0:0:0:
144,136,131585,1,0,0:0:0:0:
64,136,131756,1,2,0:0:0:0:
144,136,131928,1,0,0:0:0:0:
312,136,132099,1,2,0:0:0:0:
448,136,132271,1,2,0:0:0:0:
192,144,132442,6,0,P|144:176|208:200,1,140,6|8,0:0|0:0,0:0:0:0:
360,208,133128,1,0,0:0:0:0:
272,208,133299,1,2,0:0:0:0:
120,208,133471,2,0,L|40:208,1,70,8|0,0:0|0:0,0:0:0:0:
192,208,133814,6,0,P|240:192|248:104,1,140,2|8,0:0|0:0,0:0:0:0:
104,144,134328,2,0,L|16:144,1,70
120,144,134671,1,2,0:0:0:0:
304,144,134842,2,0,L|400:144,1,70,8|0,0:0|0:0,0:0:0:0:
208,144,135185,5,2,0:0:0:0:
168,144,135271,1,0,0:0:0:0:
168,184,135356,1,0,0:0:0:0:
208,184,135442,1,0,0:0:0:0:
248,184,135528,2,0,P|288:152|232:104,1,140,8|0,0:0|0:0,0:0:0:0:
152,104,136042,1,2,0:0:0:0:
312,104,136214,2,0,L|408:104,1,70,8|0,0:0|0:0,0:0:0:0:
216,104,136556,6,0,P|174:152|217:200,1,140,2|8,0:0|0:0,0:0:0:0:
384,200,137071,2,0,L|472:200,1,70
368,200,137414,1,2,0:0:0:0:
200,200,137585,2,0,L|120:200,1,70,8|0,0:0|0:0,0:0:0:0:
368,144,137928,6,0,P|416:176|352:200,1,140,2|8,0:0|0:0,0:0:0:0:
176,200,138614,1,0,0:0:0:0:
256,200,138785,1,2,0:0:0:0:
408,208,138956,2,0,L|488:208,1,70,8|0,0:0|0:0,0:0:0:0:
320,208,139299,6,0,P|272:192|264:104,1,140,2|8,0:0|0:0,0:0:0:0:
408,144,139814,2,0,L|496:144,1,70,0|0,0:0|0:0,0:0:0:0:
392,144,140156,1,2,0:0:0:0:
208,144,140328,2,0,L|112:144,1,70,8|0,0:0|0:0,0:0:0:0:
304,144,140671,5,2,0:0:0:0:
344,144,140756,1,0,0:0:0:0:
344,184,140842,1,0,0:0:0:0:
304,184,140928,1,0,0:0:0:0:
264,184,141014,2,0,P|224:152|280:104,1,140,8|0,0:0|0:0,0:0:0:0:
360,104,141528,1,2,0:0:0:0:
200,104,141699,2,0,L|104:104,1,70,8|0,0:0|0:0,0:0:0:0:
296,104,142042,6,0,P|338:152|295:200,1,140,2|8,0:0|0:0,0:0:0:0:
144,200,142556,2,0,L|56:200,1,70,0|0,0:0|0:0,0:0:0:0:
160,200,142899,1,2,0:0:0:0:
312,200,143071,2,0,L|392:200,1,70,8|0,0:0|0:0,0:0:0:0:
120,216,143414,6,0,P|64:192|104:120,1,140,6|8,0:0|0:0,0:0:0:0:
176,128,143928,1,0,0:0:0:0:
216,152,144014,1,0,0:0:0:0:
256,136,144099,1,0,0:0:0:0:
264,96,144185,1,0,0:0:0:0:
232,64,144271,1,2,0:0:0:0:
80,72,144442,2,0,L|8:72,1,70,8|0,0:0|0:0,0:0:0:0:
200,72,144785,6,0,P|256:96|216:144,1,140,2|8,0:0|0:0,0:0:0:0:
136,160,145299,1,0,0:0:0:0:
120,200,145385,1,0,0:0:0:0:
144,232,145471,1,0,0:0:0:0:
192,240,145556,1,0,0:0:0:0:
240,232,145642,1,2,0:0:0:0:
408,224,145814,2,0,L|504:224,1,70,8|0,0:0|0:0,0:0:0:0:
294,225,146156,6,0,P|236:197|255:135,1,140,2|8,0:0|0:0,0:0:0:0:
336,128,146671,1,0,0:0:0:0:
296,152,146756,1,0,0:0:0:0:
256,136,146842,1,0,0:0:0:0:
248,96,146928,1,0,0:0:0:0:
280,64,147014,1,2,0:0:0:0:
432,72,147185,2,0,L|504:72,1,70,8|0,0:0|0:0,0:0:0:0:
296,72,147528,6,0,P|240:96|280:144,1,140,2|8,0:0|0:0,0:0:0:0:
360,160,148042,1,0,0:0:0:0:
376,200,148128,1,0,0:0:0:0:
352,232,148214,1,0,0:0:0:0:
304,240,148299,1,0,0:0:0:0:
256,232,148385,1,2,0:0:0:0:
88,224,148556,2,0,L|-8:224,1,70,8|0,0:0|0:0,0:0:0:0:
256,232,148899,6,0,P|304:192|240:152,1,140,2|8,0:0|0:0,0:0:0:0:
176,152,149414,1,0,0:0:0:0:
136,136,149499,1,0,0:0:0:0:
120,96,149585,1,0,0:0:0:0:
144,64,149671,1,0,0:0:0:0:
184,48,149756,1,2,0:0:0:0:
352,48,149928,2,0,L|440:48,1,70,8|0,0:0|0:0,0:0:0:0:
256,232,150271,6,0,P|208:192|272:152,1,140,2|8,0:0|0:0,0:0:0:0:
336,152,150785,1,0,0:0:0:0:
376,136,150871,1,0,0:0:0:0:
392,96,150956,1,0,0:0:0:0:
368,64,151042,1,0,0:0:0:0:
328,48,151128,1,2,0:0:0:0:
160,48,151299,2,0,L|72:48,1,70,8|0,0:0|0:0,0:0:0:0:
256,56,151642,5,2,0:0:0:0:
256,192,151814,12,0,154385,0:0:0:0:
