osu file format v14

[General]
AudioFilename: audio.mp3
AudioLeadIn: 0
PreviewTime: 110156
Countdown: 0
SampleSet: Soft
StackLeniency: 0.7
Mode: 2
LetterboxInBreaks: 0
WidescreenStoryboard: 0

[Editor]
DistanceSpacing: 1
BeatDivisor: 12
GridSize: 8
TimelineZoom: 2.3

[Metadata]
Title:By Design
TitleUnicode:By Design
Artist:WRLD
ArtistUnicode:WRLD
Creator:WildOne94
Version:Formed
Source:
Tags:monstercat dnb dance electronic Drum Bass
BeatmapID:1422132
BeatmapSetID:672806

[Difficulty]
HPDrainRate:6.5
CircleSize:4
OverallDifficulty:9.4
ApproachRate:9.4
SliderMultiplier:1.8
SliderTickRate:1

[Events]
//Background and Video events
0,0,"1920x1080 background.png",0,0
//Break Periods
//Storyboard Layer 0 (Background)
//Storyboard Layer 1 (Fail)
//Storyboard Layer 2 (Pass)
//Storyboard Layer 3 (Foreground)
//Storyboard Sound Samples

[TimingPoints]
-586,342.857142857143,4,2,0,20,1,0
785,-100,4,2,2,30,0,0
10385,-100,4,2,2,30,0,0
11756,-100,4,2,2,50,0,0
21356,-100,4,2,2,40,0,0
22727,-100,4,2,0,25,0,0
31685,-100,4,2,0,5,0,0
31706,-100,4,2,0,25,0,0
33699,-100,4,2,2,30,0,0
34385,-100,4,2,0,25,0,0
41028,-100,4,2,0,5,0,0
41071,-100,4,2,0,25,0,0
44670,-100,4,2,2,50,0,0
54785,-100,4,2,2,20,0,0
55642,-100,4,2,2,50,0,0
61127,-100,4,2,2,55,0,0
63870,-100,4,2,2,60,0,0
65585,-100,4,2,2,30,0,0
66270,-100,4,2,2,20,0,0
66614,-76.9230769230769,4,2,1,70,0,1
66785,-100,4,2,1,70,0,1
68499,-76.9230769230769,4,2,1,70,0,1
68670,-100,4,2,1,70,0,1
71242,-76.9230769230769,4,2,1,70,0,1
71413,-100,4,2,1,70,0,1
72099,-76.9230769230769,4,2,1,70,0,1
72270,-100,4,2,1,70,0,1
73985,-76.9230769230769,4,2,1,70,0,1
74156,-100,4,2,1,70,0,1
76727,-76.9230769230769,4,2,1,70,0,1
76899,-100,4,2,1,70,0,1
77585,-76.9230769230769,4,2,1,70,0,1
77756,-100,4,2,1,70,0,1
83070,-76.9230769230769,4,2,1,70,0,1
83242,-100,4,2,1,70,0,1
87185,-100,4,2,1,40,0,0
87356,-100,4,2,0,40,0,0
88213,-100,4,2,1,40,0,0
88556,-100,4,2,1,70,0,1
107756,-100,4,2,1,40,0,0
108270,-100,4,2,1,45,0,0
108785,-100,4,2,1,50,0,0
109642,-100,4,2,1,60,0,0
110156,-100,4,2,1,40,0,0
110499,-76.9230769230769,4,2,1,70,0,1
110842,-100,4,2,1,70,0,1
111870,-76.9230769230769,4,2,1,70,0,1
112213,-100,4,2,1,70,0,1
113756,-71.4285714285714,4,2,1,70,0,1
113927,-100,4,2,1,70,0,1
114613,-76.9230769230769,4,2,1,70,0,1
114956,-100,4,2,1,70,0,1
115985,-76.9230769230769,4,2,1,70,0,1
116156,-100,4,2,1,70,0,1
117356,-76.9230769230769,4,2,1,70,0,1
117699,-100,4,2,1,70,0,1
119242,-71.4285714285714,4,2,1,70,0,1
119413,-100,4,2,1,70,0,1
121470,-76.9230769230769,4,2,1,70,0,1
121642,-100,4,2,1,70,0,1
122842,-76.9230769230769,4,2,1,70,0,1
123185,-100,4,2,1,70,0,1
124727,-71.4285714285714,4,2,1,70,0,1
124899,-100,4,2,1,70,0,1
125585,-76.9230769230769,4,2,1,70,0,1
125927,-100,4,2,1,70,0,1
126956,-76.9230769230769,4,2,1,70,0,1
127127,-100,4,2,1,70,0,1
128327,-76.9230769230769,4,2,1,70,0,1
128670,-100,4,2,1,70,0,1
130213,-71.4285714285714,4,2,1,70,0,1
130385,-100,4,2,1,70,0,1
131071,-100,4,2,1,40,0,0
131413,-100,4,2,0,40,0,0
132442,-100,4,2,1,60,0,0
133813,-100,4,2,2,55,0,0
135185,-100,4,2,2,50,0,0
143413,-100,4,2,2,40,0,0
144785,-100,4,2,2,30,0,0
151813,-100,4,2,2,20,0,0
152327,-100,4,2,2,15,0,0
153013,-100,4,2,2,10,0,0
153699,-100,4,2,2,5,0,0

[Colours]
Combo1 : 231,10,148
Combo2 : 255,255,102
Combo3 : 72,154,255
Combo4 : 255,125,255
Combo5 : 255,207,64

[HitObjects]
256,192,99,5,2,0:0:0:0:
304,192,185,1,2,0:0:0:0:
256,192,271,1,2,0:0:0:0:
166,192,442,1,2,0:0:0:0:
432,192,614,2,0,L|496:192,1,45,0|0,0:0|0:0,0:0:0:0:
256,192,785,6,0,L|128:192,1,90,6|0,0:0|0:0,0:0:0:0:
256,192,1128,2,0,L|376:192,2,90,8|0|0,0:0|0:0|0:0,0:0:0:0:
88,192,1642,1,2,0:0:0:0:
344,192,1814,2,0,L|472:192,1,90,8|0,0:0|0:0,0:0:0:0:
160,120,2156,5,2,0:0:0:0:
112,128,2242,1,0,0:0:0:0:
112,176,2328,1,0,0:0:0:0:
160,184,2414,1,0,0:0:0:0:
360,104,2499,1,8,0:0:0:0:
400,112,2585,1,0,0:0:0:0:
440,136,2671,1,0,0:0:0:0:
456,176,2756,1,0,0:0:0:0:
440,216,2842,5,0,0:0:0:0:
400,232,2928,1,0,0:0:0:0:
208,248,3014,1,2,0:0:0:0:
160,248,3099,1,0,0:0:0:0:
352,120,3185,1,8,0:0:0:0:
400,128,3271,1,0,0:0:0:0:
400,176,3356,1,0,0:0:0:0:
352,184,3442,1,0,0:0:0:0:
200,216,3528,5,2,0:0:0:0:
152,224,3614,1,0,0:0:0:0:
152,272,3699,1,0,0:0:0:0:
200,280,3785,1,0,0:0:0:0:
352,280,3871,1,8,0:0:0:0:
392,264,3956,1,0,0:0:0:0:
408,224,4042,1,0,0:0:0:0:
376,192,4128,1,0,0:0:0:0:
336,168,4214,5,0,0:0:0:0:
296,152,4299,1,0,0:0:0:0:
120,152,4385,1,2,0:0:0:0:
72,152,4471,1,0,0:0:0:0:
256,144,4556,1,8,0:0:0:0:
304,144,4642,1,0,0:0:0:0:
96,152,4728,1,0,0:0:0:0:
48,152,4814,1,0,0:0:0:0:
320,160,4899,5,2,0:0:0:0:
368,160,4985,1,0,0:0:0:0:
368,208,5071,1,0,0:0:0:0:
320,208,5156,1,0,0:0:0:0:
176,232,5242,1,8,0:0:0:0:
136,216,5328,1,0,0:0:0:0:
112,176,5414,1,0,0:0:0:0:
120,128,5499,1,0,0:0:0:0:
152,96,5585,5,0,0:0:0:0:
200,88,5671,1,0,0:0:0:0:
440,200,5756,1,2,0:0:0:0:
488,200,5842,1,0,0:0:0:0:
256,120,5928,1,8,0:0:0:0:
208,128,6014,1,0,0:0:0:0:
208,176,6099,1,0,0:0:0:0:
256,184,6185,1,0,0:0:0:0:
408,184,6271,6,0,L|520:184,1,90,2|0,0:0|0:0,0:0:0:0:
256,192,6614,2,0,L|136:192,2,90,8|0|0,0:0|0:0|0:0,0:0:0:0:
424,192,7128,1,2,0:0:0:0:
168,192,7299,2,0,L|40:192,1,90,8|0,0:0|0:0,0:0:0:0:
352,120,7642,5,2,0:0:0:0:
400,128,7728,1,0,0:0:0:0:
400,176,7814,1,0,0:0:0:0:
352,184,7899,1,0,0:0:0:0:
152,104,7985,1,8,0:0:0:0:
112,112,8071,1,0,0:0:0:0:
72,136,8156,1,0,0:0:0:0:
56,176,8242,1,0,0:0:0:0:
72,216,8328,5,0,0:0:0:0:
112,232,8414,1,0,0:0:0:0:
304,248,8499,1,2,0:0:0:0:
352,248,8585,1,0,0:0:0:0:
160,120,8671,1,8,0:0:0:0:
112,128,8756,1,0,0:0:0:0:
112,176,8842,1,0,0:0:0:0:
160,184,8928,1,0,0:0:0:0:
312,216,9014,5,2,0:0:0:0:
360,224,9099,1,0,0:0:0:0:
360,272,9185,1,0,0:0:0:0:
312,280,9271,1,0,0:0:0:0:
160,280,9356,1,8,0:0:0:0:
112,280,9442,1,0,0:0:0:0:
112,232,9528,1,0,0:0:0:0:
160,232,9614,1,0,0:0:0:0:
312,176,9699,5,0,0:0:0:0:
360,176,9785,1,0,0:0:0:0:
120,152,9871,1,2,0:0:0:0:
72,152,9956,1,0,0:0:0:0:
256,144,10042,1,8,0:0:0:0:
304,144,10128,1,0,0:0:0:0:
96,152,10214,1,0,0:0:0:0:
48,152,10299,1,0,0:0:0:0:
256,144,10385,5,2,0:0:0:0:
312,208,10728,1,2,0:0:0:0:
368,208,10814,1,2,0:0:0:0:
416,192,10899,1,2,0:0:0:0:
432,136,10985,1,2,0:0:0:0:
200,208,11071,1,2,0:0:0:0:
144,208,11156,1,2,0:0:0:0:
96,192,11242,1,2,0:0:0:0:
80,136,11328,1,2,0:0:0:0:
256,128,11414,1,8,0:0:0:0:
256,128,11628,2,0,L|216:128,1,22.5,0|0,0:0|0:0,0:0:0:0:
72,280,11756,6,0,P|16:216|96:168,1,180,6|8,0:0|0:0,0:0:0:0:
208,168,12271,1,0,0:0:0:0:
304,168,12442,1,0,0:0:0:0:
128,168,12614,1,2,0:0:0:0:
400,168,12785,2,0,L|512:168,1,90,8|0,0:0|0:0,0:0:0:0:
256,160,13128,6,0,L|136:160,1,90,2|0,0:0|0:0,0:0:0:0:
464,160,13471,1,8,0:0:0:0:
168,160,13642,2,0,L|56:160,1,90,0|0,0:0|0:0,0:0:0:0:
352,160,13985,1,2,0:0:0:0:
256,160,14156,2,0,L|166:160,1,90,8|0,0:0|0:0,0:0:0:0:
400,152,14499,5,2,0:0:0:0:
448,160,14585,1,0,0:0:0:0:
448,208,14671,1,0,0:0:0:0:
400,216,14756,1,0,0:0:0:0:
208,192,14842,1,8,0:0:0:0:
160,192,14928,1,0,0:0:0:0:
120,216,15014,1,0,0:0:0:0:
96,256,15099,1,0,0:0:0:0:
112,296,15185,1,0,0:0:0:0:
152,320,15271,1,0,0:0:0:0:
200,320,15356,1,2,0:0:0:0:
432,320,15528,2,0,L|480:320|424:320,1,90,8|0,0:0|0:0,0:0:0:0:
200,200,15871,6,0,L|72:200,2,90,2|0|8,0:0|0:0|0:0,0:0:0:0:
456,192,16385,2,0,P|472:240|448:280,1,90,0|0,0:0|0:0,0:0:0:0:
128,280,16728,1,2,0:0:0:0:
358,280,16899,2,0,L|448:280,1,90,8|0,0:0|0:0,0:0:0:0:
104,288,17242,6,0,P|48:272|120:208,1,180,2|8,0:0|0:0,0:0:0:0:
216,192,17756,1,0,0:0:0:0:
104,192,17928,1,0,0:0:0:0:
296,128,18099,1,2,0:0:0:0:
56,128,18271,2,0,L|176:128,1,90,8|0,0:0|0:0,0:0:0:0:
432,128,18614,6,0,P|464:160|416:176,1,90,2|0,0:0|0:0,0:0:0:0:
352,184,18956,1,8,0:0:0:0:
120,192,19128,2,0,L|0:192,1,90,0|0,0:0|0:0,0:0:0:0:
120,192,19471,1,2,0:0:0:0:
368,192,19642,2,0,L|480:192,1,90,8|0,0:0|0:0,0:0:0:0:
112,152,19985,5,2,0:0:0:0:
64,160,20071,1,0,0:0:0:0:
64,208,20156,1,0,0:0:0:0:
112,216,20242,1,0,0:0:0:0:
304,192,20328,1,8,0:0:0:0:
352,192,20414,1,0,0:0:0:0:
392,216,20499,1,0,0:0:0:0:
416,256,20585,1,0,0:0:0:0:
400,296,20671,1,0,0:0:0:0:
360,320,20756,1,0,0:0:0:0:
312,320,20842,1,2,0:0:0:0:
80,320,21014,2,0,L|32:320|88:320,1,90,8|0,0:0|0:0,0:0:0:0:
328,272,21356,6,0,L|424:272,1,90,2|0,0:0|0:0,0:0:0:0:
440,224,21614,1,0,0:0:0:0:
408,184,21699,1,0,0:0:0:0:
352,184,21785,1,0,0:0:0:0:
88,272,21871,2,0,L|24:272|80:272,1,90,2|0,0:0|0:0,0:0:0:0:
160,272,22214,1,0,0:0:0:0:
392,272,22385,1,2,0:0:0:0:
160,272,22556,1,2,0:0:0:0:
432,272,22728,6,0,P|480:240|408:152,1,180,6|0,0:0|0:0,0:0:0:0:
256,192,23414,2,0,P|164:155|151:95,1,157.5,2|0,0:0|0:0,0:0:0:0:
256,96,23899,1,0,0:0:0:0:
376,144,24242,6,0,P|472:160|376:240,1,285,2|0,0:0|0:0,0:0:0:0:
176,240,25128,1,2,0:0:0:0:
336,240,25299,6,0,P|392:224|336:144,1,180,2|0,0:0|0:0,0:0:0:0:
96,176,26156,2,0,P|24:192|80:240,1,180,2|0,0:0|0:0,0:0:0:0:
176,248,26699,6,0,L|265:248|352:248,1,165,2|0,0:0|0:0,0:0:0:0:
48,248,27528,1,2,0:0:0:0:
232,248,27871,2,0,L|104:248,1,90,2|2,0:0|0:0,0:0:0:0:
312,248,28214,6,0,P|400:232|352:152,1,180
104,168,28899,2,0,P|40:144|120:80,1,180,2|0,0:0|0:0,0:0:0:0:
176,72,29414,6,0,L|304:72,1,90,2|0,0:0|0:0,0:0:0:0:
424,72,29756,2,0,P|456:120|360:160,1,180,2|0,0:0|0:0,0:0:0:0:
256,136,30271,1,2,0:0:0:0:
376,136,30614,1,2,0:0:0:0:
192,56,30785,6,0,L|96:56,1,90,2|0,0:0|0:0,0:0:0:0:
352,56,31342,2,0,P|416:104|352:168,1,191.25,2|2,0:0|0:0,0:0:0:0:
208,184,32028,1,2,0:0:0:0:
408,192,32185,6,0,P|480:152|360:56,1,300,2|0,0:0|0:0,0:0:0:0:
232,64,32885,2,0,P|160:80|232:184,1,247.5,2|0,0:0|0:0,0:0:0:0:
360,184,33571,2,0,L|320:184,1,22.5,0|0,0:0|0:0,0:0:0:0:
168,184,33699,6,0,P|80:184|184:304,1,360,6|2,0:0|0:0,0:0:0:0:
312,304,34685,1,2,0:0:0:0:
216,304,34856,6,0,L|336:304,1,112.5,2|0,0:0|0:0,0:0:0:0:
408,304,35214,2,0,P|488:256|376:176,1,285,2|2,0:0|0:0,0:0:0:0:
200,168,36099,1,2,0:0:0:0:
376,168,36271,6,0,P|448:160|368:88,1,247.5,2|0,0:0|0:0,0:0:0:0:
168,88,37128,2,0,L|352:88,1,180,2|0,0:0|0:0,0:0:0:0:
392,88,37556,1,0,0:0:0:0:
438,88,37642,2,0,L|342:88,1,90,2|0,0:0|0:0,0:0:0:0:
184,88,37985,6,0,P|120:96|200:200,1,270,2|2,0:0|0:0,0:0:0:0:
376,208,38842,2,0,L|272:208,1,90,2|2,0:0|0:0,0:0:0:0:
120,224,39185,6,0,P|56:200|152:112,1,247.5,0|2,0:0|0:0,0:0:0:0:
296,104,39871,2,0,L|456:104,1,157.5,2|0,0:0|0:0,0:0:0:0:
360,104,40342,1,2,0:0:0:0:
168,104,40685,6,0,P|112:120|176:200,1,202.5,2|0,0:0|0:0,0:0:0:0:
256,192,41242,1,2,0:0:0:0:
80,192,41542,1,2,0:0:0:0:
256,192,41714,6,0,P|360:144|240:80,1,315,2|2,0:0|0:0,0:0:0:0:
64,96,42656,2,0,L|248:96,1,180,2|2,0:0|0:0,0:0:0:0:
424,96,43171,6,0,P|472:168|336:224,1,270,2|0,0:0|0:0,0:0:0:0:
152,224,43856,2,0,P|40:200|81:96,1,247.5,2|0,0:0|0:0,0:0:0:0:
488,112,44671,5,6,0:0:0:0:
256,128,45185,1,0,0:0:0:0:
360,128,45356,2,0,L|464:128,1,90,8|0,0:0|0:0,0:0:0:0:
38,136,45871,6,0,P|40:184|104:208,1,90,0|2,0:0|0:0,0:0:0:0:
240,192,46214,2,0,L|344:192,1,90
168,192,46556,1,0,0:0:0:0:
400,144,46728,2,0,L|504:144,1,90,8|0,0:0|0:0,0:0:0:0:
256,152,47071,1,0,0:0:0:0:
112,152,47156,1,0,0:0:0:0:
256,152,47242,1,0,0:0:0:0:
490,144,47414,6,0,P|480:192|424:216,1,90,2|0,0:0|0:0,0:0:0:0:
256,192,47928,1,0,0:0:0:0:
368,192,48099,2,0,L|488:192,1,90,8|0,0:0|0:0,0:0:0:0:
72,192,48442,1,0,0:0:0:0:
16,184,48528,1,0,0:0:0:0:
16,128,48614,1,0,0:0:0:0:
72,120,48699,1,0,0:0:0:0:
256,128,48785,5,2,0:0:0:0:
312,128,48871,1,0,0:0:0:0:
120,136,48956,2,0,L|8:136,1,90,0|0,0:0|0:0,0:0:0:0:
136,136,49299,1,0,0:0:0:0:
373,130,49471,2,0,P|440:136|392:216,1,180,8|0,0:0|0:0,0:0:0:0:
352,216,49899,1,0,0:0:0:0:
296,216,49985,1,0,0:0:0:0:
32,112,50156,5,2,0:0:0:0:
256,120,50671,1,0,0:0:0:0:
120,128,50842,2,0,L|16:128,1,90,8|0,0:0|0:0,0:0:0:0:
474,136,51356,6,0,P|472:184|408:208,1,90,0|2,0:0|0:0,0:0:0:0:
272,192,51699,2,0,L|168:192,1,90
344,192,52041,1,0,0:0:0:0:
112,144,52214,2,0,L|8:144,1,90,8|0,0:0|0:0,0:0:0:0:
256,152,52556,1,0,0:0:0:0:
400,152,52642,1,0,0:0:0:0:
256,152,52728,1,0,0:0:0:0:
24,136,52899,6,0,P|32:184|90:208,1,90,2|0,0:0|0:0,0:0:0:0:
256,184,53285,2,0,P|296:168|248:88,1,157.5,0|8,0:0|0:0,0:0:0:0:
48,112,53928,1,0,0:0:0:0:
176,112,54128,1,0,0:0:0:0:
440,112,54271,6,0,P|472:144|392:208,1,180,2|0,0:0|0:0,0:0:0:0:
256,192,54814,2,0,P|360:192|416:56,1,255,0|0,0:0|0:0,0:0:0:0:
16,184,55642,5,6,0:0:0:0:
344,192,56156,1,0,0:0:0:0:
112,192,56328,2,0,L|8:192,1,90,2|0,0:0|0:0,0:0:0:0:
472,136,56842,6,0,P|470:184|406:208,1,90,0|2,0:0|0:0,0:0:0:0:
256,192,57185,2,0,L|152:192,1,90
56,192,57527,1,0,0:0:0:0:
400,144,57699,2,0,L|504:144,1,90,2|0,0:0|0:0,0:0:0:0:
256,152,58042,1,0,0:0:0:0:
112,152,58128,1,0,0:0:0:0:
256,152,58214,1,0,0:0:0:0:
488,136,58385,6,0,P|480:184|422:208,1,90,2|0,0:0|0:0,0:0:0:0:
256,192,58899,1,0,0:0:0:0:
24,192,59071,2,0,P|16:136|48:112,1,90,2|0,0:0|0:0,0:0:0:0:
272,192,59414,1,0,0:0:0:0:
328,184,59499,1,0,0:0:0:0:
328,128,59585,1,0,0:0:0:0:
272,120,59671,1,0,0:0:0:0:
90,120,59756,5,2,0:0:0:0:
34,120,59842,1,0,0:0:0:0:
256,112,59928,2,0,L|368:112,1,90
440,112,60271,1,0,0:0:0:0:
64,128,60442,2,0,P|24:152|72:256,1,180,2|0,0:0|0:0,0:0:0:0:
112,256,60871,1,0,0:0:0:0:
168,256,60956,1,0,0:0:0:0:
400,248,61128,6,0,L|528:248,1,90,2|0,0:0|0:0,0:0:0:0:
168,224,61471,2,0,L|40:224,1,90,8|0,0:0|0:0,0:0:0:0:
400,224,61814,2,0,L|528:224,1,90,2|0,0:0|0:0,0:0:0:0:
216,192,62156,2,0,L|320:256,1,90,8|0,0:0|0:0,0:0:0:0:
24,128,62499,6,0,L|120:184,1,90,2|0,0:0|0:0,0:0:0:0:
408,144,62842,2,0,L|504:144,1,90,8|0,0:0|0:0,0:0:0:0:
256,192,63185,2,0,L|144:192,1,90,2|0,0:0|0:0,0:0:0:0:
432,192,63528,2,0,L|504:192,2,45,8|0|0,0:0|0:0|0:0,0:0:0:0:
168,184,63871,5,2,0:0:0:0:
112,192,63956,1,0,0:0:0:0:
112,248,64042,1,2,0:0:0:0:
168,264,64128,1,0,0:0:0:0:
344,184,64214,1,8,0:0:0:0:
400,192,64299,1,0,0:0:0:0:
400,248,64385,1,2,0:0:0:0:
344,264,64471,1,0,0:0:0:0:
168,264,64556,5,2,0:0:0:0:
112,264,64642,1,0,0:0:0:0:
64,240,64728,1,2,0:0:0:0:
32,192,64814,1,0,0:0:0:0:
32,136,64899,1,8,0:0:0:0:
72,96,64985,1,0,0:0:0:0:
120,80,65071,1,2,0:0:0:0:
176,80,65156,1,0,0:0:0:0:
392,96,65242,5,2,0:0:0:0:
448,104,65328,1,0,0:0:0:0:
448,160,65414,1,2,0:0:0:0:
392,176,65499,1,0,0:0:0:0:
208,192,65585,2,0,L|163:192,1,45,2|0,0:0|0:0,0:0:0:0:
440,192,65756,2,0,L|485:192,1,45
224,192,65928,1,2,0:0:0:0:
80,192,66014,1,0,0:0:0:0:
224,192,66099,1,0,0:0:0:0:
456,192,66271,1,2,0:0:0:0:
32,184,66614,6,0,P|32:256|80:272,1,116.999994644165,6|0,0:0|0:0,0:0:0:0:
464,232,66956,1,8,0:0:0:0:
360,232,67128,1,0,0:0:0:0:
120,240,67299,2,0,L|16:240,1,90,0|2,0:0|0:0,0:0:0:0:
392,296,67642,2,0,L|496:296,1,90,8|0,0:0|0:0,0:0:0:0:
224,296,67985,6,0,L|128:296,2,90,2|0|8,0:0|0:0|0:0,0:0:0:0:
464,296,68499,2,0,P|480:232|440:208,1,116.999994644165,0|0,0:0|0:0,0:0:0:0:
344,200,68842,1,2,0:0:0:0:
112,208,69014,2,0,L|16:208,1,90,8|0,0:0|0:0,0:0:0:0:
256,152,69356,5,2,0:0:0:0:
304,160,69442,1,0,0:0:0:0:
304,208,69528,1,0,0:0:0:0:
256,216,69614,1,0,0:0:0:0:
72,144,69699,1,8,0:0:0:0:
24,152,69785,1,0,0:0:0:0:
24,200,69871,1,0,0:0:0:0:
72,208,69956,1,0,0:0:0:0:
256,192,70042,2,0,L|376:192,1,90,0|2,0:0|0:0,0:0:0:0:
64,184,70385,2,0,P|40:232|64:240,1,90,8|0,0:0|0:0,0:0:0:0:
392,240,70728,6,0,L|496:240,2,90,2|0|8,0:0|0:0|0:0,0:0:0:0:
152,248,71242,2,0,P|80:240|56:176,1,116.999994644165,0|0,0:0|0:0,0:0:0:0:
152,200,71585,1,2,0:0:0:0:
400,192,71756,2,0,L|496:192,1,90,8|0,0:0|0:0,0:0:0:0:
256,192,72099,6,0,L|352:120,1,116.999994644165,2|0,0:0|0:0,0:0:0:0:
16,192,72442,1,8,0:0:0:0:
120,192,72614,1,0,0:0:0:0:
376,240,72785,2,0,L|480:240,1,90,0|2,0:0|0:0,0:0:0:0:
120,296,73128,2,0,L|16:296,1,90,8|0,0:0|0:0,0:0:0:0:
288,296,73471,6,0,L|384:296,2,90,2|0|8,0:0|0:0|0:0,0:0:0:0:
48,296,73985,2,0,P|32:232|72:200,1,116.999994644165,0|0,0:0|0:0,0:0:0:0:
160,200,74328,1,2,0:0:0:0:
400,208,74499,2,0,L|496:208,1,90,8|0,0:0|0:0,0:0:0:0:
256,152,74842,5,2,0:0:0:0:
208,160,74928,1,0,0:0:0:0:
208,208,75014,1,0,0:0:0:0:
256,216,75099,1,0,0:0:0:0:
440,144,75185,1,8,0:0:0:0:
488,152,75271,1,0,0:0:0:0:
488,200,75356,1,0,0:0:0:0:
440,208,75442,1,0,0:0:0:0:
256,192,75528,2,0,L|136:192,1,90,0|2,0:0|0:0,0:0:0:0:
448,184,75871,2,0,P|472:232|448:240,1,90,8|0,0:0|0:0,0:0:0:0:
120,240,76214,6,0,L|16:240,2,90,2|0|8,0:0|0:0|0:0,0:0:0:0:
368,248,76728,2,0,P|440:240|464:176,1,116.999994644165,0|0,0:0|0:0,0:0:0:0:
360,240,77071,1,2,0:0:0:0:
24,248,77242,1,8,0:0:0:0:
24,200,77328,1,0,0:0:0:0:
24,248,77414,1,0,0:0:0:0:
256,248,77585,6,0,L|384:248,1,116.999994644165,6|0,0:0|0:0,0:0:0:0:
256,248,77928,1,8,0:0:0:0:
488,248,78099,1,0,0:0:0:0:
160,248,78271,2,0,L|40:248,1,90,0|2,0:0|0:0,0:0:0:0:
160,248,78614,1,8,0:0:0:0:
400,248,78785,6,0,L|512:248,1,90,0|2,0:0|0:0,0:0:0:0:
256,256,79128,2,0,L|200:256|272:256,1,90,0|8,0:0|0:0,0:0:0:0:
488,256,79471,1,0,0:0:0:0:
208,256,79642,2,0,L|152:256|224:256,1,90,0|2,0:0|0:0,0:0:0:0:
328,256,79985,1,8,0:0:0:0:
376,256,80071,1,0,0:0:0:0:
328,256,80156,1,0,0:0:0:0:
56,256,80328,6,0,P|24:208|56:184,1,90,2|0,0:0|0:0,0:0:0:0:
128,184,80671,1,8,0:0:0:0:
432,184,80842,1,0,0:0:0:0:
192,184,81014,2,0,L|72:184,1,90,0|2,0:0|0:0,0:0:0:0:
440,200,81356,1,8,0:0:0:0:
488,192,81442,1,0,0:0:0:0:
488,144,81528,1,0,0:0:0:0:
440,136,81614,1,0,0:0:0:0:
296,144,81699,5,2,0:0:0:0:
144,144,81785,1,0,0:0:0:0:
296,144,81871,2,0,L|408:144,2,90,0|8|0,0:0|0:0|0:0,0:0:0:0:
16,144,82385,1,0,0:0:0:0:
104,152,82556,1,2,0:0:0:0:
488,248,82728,1,8,0:0:0:0:
488,200,82814,1,0,0:0:0:0:
488,248,82899,1,0,0:0:0:0:
256,248,83071,6,0,L|112:248,1,116.999994644165,2|0,0:0|0:0,0:0:0:0:
256,248,83414,1,8,0:0:0:0:
24,248,83585,1,0,0:0:0:0:
352,248,83756,2,0,L|472:248,1,90,0|2,0:0|0:0,0:0:0:0:
352,248,84099,1,8,0:0:0:0:
112,248,84271,6,0,L|0:248,1,90,0|2,0:0|0:0,0:0:0:0:
256,256,84614,2,0,L|312:256|240:256,1,90,0|8,0:0|0:0,0:0:0:0:
24,256,84956,1,0,0:0:0:0:
304,256,85128,2,0,L|360:256|288:256,1,90,0|2,0:0|0:0,0:0:0:0:
184,256,85471,1,8,0:0:0:0:
136,256,85556,1,0,0:0:0:0:
184,256,85642,1,0,0:0:0:0:
456,256,85814,6,0,P|488:208|456:184,1,90,2|0,0:0|0:0,0:0:0:0:
368,184,86156,1,8,0:0:0:0:
80,184,86328,1,0,0:0:0:0:
320,184,86499,2,0,L|440:184,1,90,0|2,0:0|0:0,0:0:0:0:
72,200,86842,1,8,0:0:0:0:
24,192,86928,1,0,0:0:0:0:
24,144,87014,1,0,0:0:0:0:
72,136,87099,1,0,0:0:0:0:
216,144,87185,5,2,0:0:0:0:
368,144,87271,1,0,0:0:0:0:
216,144,87356,2,0,L|104:144,2,90,0|2|0,0:0|0:0|0:0,0:0:0:0:
480,144,87871,1,2,0:0:0:0:
376,144,88042,1,0,0:0:0:0:
112,184,88214,2,0,L|8:184,1,90,8|0,0:0|0:0,0:0:0:0:
400,192,88556,6,0,L|504:192,1,90,6|0,0:0|0:0,0:0:0:0:
248,192,88899,1,8,0:0:0:0:
408,192,89071,1,0,0:0:0:0:
168,192,89242,2,0,L|56:192,1,90,0|2,0:0|0:0,0:0:0:0:
256,192,89585,1,8,0:0:0:0:
24,192,89756,1,0,0:0:0:0:
256,192,89928,6,0,L|368:192,1,90,2|0,0:0|0:0,0:0:0:0:
32,192,90271,1,8,0:0:0:0:
176,192,90442,1,0,0:0:0:0:
472,192,90614,2,0,P|496:232|464:272,1,90,0|2,0:0|0:0,0:0:0:0:
248,192,90956,1,8,0:0:0:0:
488,192,91128,1,0,0:0:0:0:
208,192,91299,6,0,L|96:192,1,90,2|0,0:0|0:0,0:0:0:0:
360,192,91642,2,0,L|472:192,2,90,8|0|0,0:0|0:0|0:0,0:0:0:0:
256,192,92156,1,2,0:0:0:0:
496,192,92328,1,8,0:0:0:0:
72,240,92499,2,0,L|117:240,1,45
392,232,92671,6,0,L|482:232,1,90,2|0,0:0|0:0,0:0:0:0:
168,232,93014,2,0,L|78:232,1,90,8|0,0:0|0:0,0:0:0:0:
384,224,93356,2,0,B|432:224|432:224|390:224,1,90,0|2,0:0|0:0,0:0:0:0:
160,224,93699,2,0,L|70:224,1,90,8|0,0:0|0:0,0:0:0:0:
400,224,94042,6,0,L|504:224,1,90,2|0,0:0|0:0,0:0:0:0:
256,192,94385,1,8,0:0:0:0:
88,192,94556,1,0,0:0:0:0:
360,192,94728,2,0,L|472:192,1,90,0|2,0:0|0:0,0:0:0:0:
256,192,95071,1,8,0:0:0:0:
488,192,95242,1,0,0:0:0:0:
256,192,95414,6,0,L|144:192,1,90,2|0,0:0|0:0,0:0:0:0:
480,192,95756,1,8,0:0:0:0:
344,192,95928,1,0,0:0:0:0:
56,192,96099,2,0,P|40:240|96:248,1,90,0|2,0:0|0:0,0:0:0:0:
256,192,96442,1,8,0:0:0:0:
24,192,96614,1,0,0:0:0:0:
304,192,96785,6,0,L|416:192,1,90,2|0,0:0|0:0,0:0:0:0:
152,192,97128,2,0,L|40:192,2,90,8|0|0,0:0|0:0|0:0,0:0:0:0:
256,192,97642,1,2,0:0:0:0:
16,192,97814,1,8,0:0:0:0:
440,240,97985,2,0,L|395:240,1,45
120,232,98156,6,0,L|30:232,1,90,2|0,0:0|0:0,0:0:0:0:
344,232,98499,2,0,L|434:232,1,90,8|0,0:0|0:0,0:0:0:0:
128,224,98842,2,0,B|80:224|80:224|122:224,1,90,0|2,0:0|0:0,0:0:0:0:
352,224,99185,2,0,L|442:224,1,90,8|0,0:0|0:0,0:0:0:0:
168,232,99528,6,0,P|104:192|184:160,1,180,6|8,0:0|0:0,0:0:0:0:
256,152,100042,1,0,0:0:0:0:
96,152,100214,2,0,L|-8:152,1,90,0|2,0:0|0:0,0:0:0:0:
256,152,100556,1,8,0:0:0:0:
504,160,100728,1,0,0:0:0:0:
216,152,100899,6,0,L|88:152,1,90,2|0,0:0|0:0,0:0:0:0:
368,144,101242,1,8,0:0:0:0:
256,144,101414,1,0,0:0:0:0:
408,152,101585,2,0,L|512:152,1,90,0|2,0:0|0:0,0:0:0:0:
256,152,101928,1,8,0:0:0:0:
8,160,102099,1,0,0:0:0:0:
336,152,102271,6,0,L|456:152,1,90,2|0,0:0|0:0,0:0:0:0:
168,152,102614,1,8,0:0:0:0:
24,152,102785,1,0,0:0:0:0:
256,152,102956,2,0,L|368:152,1,90,0|2,0:0|0:0,0:0:0:0:
80,152,103299,1,8,0:0:0:0:
336,152,103471,2,0,L|408:152,1,45
128,232,103642,6,0,L|38:232,1,90,2|0,0:0|0:0,0:0:0:0:
384,232,103985,2,0,L|474:232,1,90,8|0,0:0|0:0,0:0:0:0:
112,224,104328,2,0,B|64:224|64:224|106:224,1,90,0|2,0:0|0:0,0:0:0:0:
360,224,104671,2,0,B|408:224|408:224|366:224,1,90,8|0,0:0|0:0,0:0:0:0:
80,232,105014,6,0,P|56:192|96:152,1,90,2|0,0:0|0:0,0:0:0:0:
256,160,105356,1,8,0:0:0:0:
344,160,105528,1,0,0:0:0:0:
112,160,105699,2,0,L|16:160,1,90,0|2,0:0|0:0,0:0:0:0:
256,160,106042,1,8,0:0:0:0:
344,160,106214,1,0,0:0:0:0:
56,168,106385,6,0,P|56:224|120:240,1,90,2|0,0:0|0:0,0:0:0:0:
400,256,106728,2,0,L|520:256,1,90,8|0,0:0|0:0,0:0:0:0:
256,272,107071,2,0,L|160:272,1,90,0|2,0:0|0:0,0:0:0:0:
400,280,107414,2,0,L|504:280,1,90,8|0,0:0|0:0,0:0:0:0:
256,280,107756,5,2,0:0:0:0:
166,280,107928,1,0,0:0:0:0:
256,280,108099,1,0,0:0:0:0:
400,280,108271,1,8,0:0:0:0:
490,280,108442,1,0,0:0:0:0:
400,280,108614,1,0,0:0:0:0:
232,288,108785,1,8,0:0:0:0:
144,288,108956,1,0,0:0:0:0:
232,288,109128,6,0,L|322:288,1,90
416,288,109471,1,0,0:0:0:0:
112,280,109642,1,8,0:0:0:0:
24,280,109814,2,0,L|114:280,1,90
344,192,110156,2,0,L|389:192,1,45,8|0,0:0|0:0,0:0:0:0:
112,192,110328,2,0,L|67:192,1,45,0|0,0:0|0:0,0:0:0:0:
259,192,110499,6,0,B|315:192|315:192|235:192,1,116.999994644165,6|0,0:0|0:0,0:0:0:0:
112,192,110842,1,8,0:0:0:0:
368,88,111014,2,0,L|480:88,1,90,0|0,0:0|0:0,0:0:0:0:
352,88,111356,1,2,0:0:0:0:
104,88,111528,2,0,L|14:88,1,90,8|0,0:0|0:0,0:0:0:0:
256,88,111871,6,0,P|328:120|232:176,1,233.999989288331,2|8,0:0|0:0,0:0:0:0:
408,192,112385,1,0,0:0:0:0:
256,192,112556,2,0,L|211:192,1,45,0|0,0:0|0:0,0:0:0:0:
56,192,112728,2,0,L|101:192,1,45,2|0,0:0|0:0,0:0:0:0:
336,192,112899,2,0,L|432:192,1,90,8|0,0:0|0:0,0:0:0:0:
128,192,113242,6,0,L|8:192,1,90,2|0,0:0|0:0,0:0:0:0:
128,192,113585,1,8,0:0:0:0:
408,112,113756,2,0,L|480:112|392:112,1,125.999996154785
320,112,114099,1,2,0:0:0:0:
176,112,114271,1,8,0:0:0:0:
488,112,114442,1,0,0:0:0:0:
256,192,114614,6,0,P|176:240|272:296,1,233.999989288331,2|8,0:0|0:0,0:0:0:0:
112,288,115128,1,0,0:0:0:0:
264,288,115214,1,0,0:0:0:0:
408,288,115299,2,0,L|528:288,1,90,0|2,0:0|0:0,0:0:0:0:
312,296,115642,2,0,L|440:296,1,90,8|0,0:0|0:0,0:0:0:0:
96,192,115985,6,0,B|40:192|40:192|120:192,1,116.999994644165,2|0,0:0|0:0,0:0:0:0:
416,88,116328,1,8,0:0:0:0:
144,88,116499,2,0,L|32:88,1,90,0|0,0:0|0:0,0:0:0:0:
144,88,116842,1,2,0:0:0:0:
408,88,117014,2,0,L|498:88,1,90,8|0,0:0|0:0,0:0:0:0:
256,80,117356,6,0,P|176:112|264:192,1,233.999989288331,2|8,0:0|0:0,0:0:0:0:
336,200,117871,1,0,0:0:0:0:
184,192,118042,2,0,L|139:192,1,45,0|0,0:0|0:0,0:0:0:0:
336,200,118214,2,0,L|381:200,1,45,2|0,0:0|0:0,0:0:0:0:
176,192,118385,2,0,L|80:192,1,90,8|0,0:0|0:0,0:0:0:0:
392,192,118728,6,0,L|512:192,1,90,2|0,0:0|0:0,0:0:0:0:
368,192,119071,1,8,0:0:0:0:
136,184,119242,2,0,L|74:184|154:184,1,125.999996154785
296,176,119585,1,2,0:0:0:0:
128,184,119756,1,8,0:0:0:0:
16,184,119928,1,0,0:0:0:0:
488,192,120099,5,2,0:0:0:0:
208,192,120271,2,0,L|96:192,1,90,0|8,0:0|0:0,0:0:0:0:
392,192,120614,2,0,L|496:192,2,90,0|0|2,0:0|0:0|0:0,0:0:0:0:
256,192,121128,2,0,L|376:192,1,90,8|0,0:0|0:0,0:0:0:0:
72,192,121471,6,0,L|16:192|88:192,1,116.999994644165,6|0,0:0|0:0,0:0:0:0:
184,192,121814,1,8,0:0:0:0:
416,192,121985,2,0,L|506:192,1,90,0|0,0:0|0:0,0:0:0:0:
144,88,122328,1,2,0:0:0:0:
408,88,122499,2,0,L|498:88,1,90,8|0,0:0|0:0,0:0:0:0:
256,88,122842,6,0,P|168:136|256:176,1,233.999989288331,2|8,0:0|0:0,0:0:0:0:
104,192,123356,1,0,0:0:0:0:
256,192,123528,2,0,L|301:192,1,45,0|0,0:0|0:0,0:0:0:0:
456,192,123699,2,0,L|400:192,1,45,2|0,0:0|0:0,0:0:0:0:
176,192,123871,2,0,L|80:192,1,90,8|0,0:0|0:0,0:0:0:0:
384,192,124214,6,0,L|504:192,1,90,2|0,0:0|0:0,0:0:0:0:
384,192,124556,1,8,0:0:0:0:
104,112,124728,2,0,L|32:112|120:112,1,125.999996154785
192,112,125071,1,2,0:0:0:0:
336,112,125242,1,8,0:0:0:0:
24,112,125414,1,0,0:0:0:0:
256,192,125585,6,0,P|344:232|248:256,1,233.999989288331,2|8,0:0|0:0,0:0:0:0:
400,288,126099,1,0,0:0:0:0:
248,288,126185,1,0,0:0:0:0:
104,288,126271,2,0,L|-16:288,1,90,0|2,0:0|0:0,0:0:0:0:
200,296,126614,2,0,L|72:296,1,90,8|0,0:0|0:0,0:0:0:0:
416,192,126956,6,0,B|472:192|472:192|392:192,1,116.999994644165,2|0,0:0|0:0,0:0:0:0:
96,88,127299,1,8,0:0:0:0:
368,88,127471,2,0,L|480:88,1,90,0|0,0:0|0:0,0:0:0:0:
368,88,127814,1,2,0:0:0:0:
104,88,127985,2,0,L|14:88,1,90,8|0,0:0|0:0,0:0:0:0:
256,88,128328,6,0,P|328:120|232:176,1,233.999989288331,2|8,0:0|0:0,0:0:0:0:
160,192,128842,1,0,0:0:0:0:
328,192,129014,2,0,L|373:192,1,45,0|0,0:0|0:0,0:0:0:0:
176,200,129185,2,0,L|131:200,1,45,2|0,0:0|0:0,0:0:0:0:
336,192,129356,2,0,L|432:192,1,90,8|0,0:0|0:0,0:0:0:0:
120,192,129699,6,0,L|0:192,1,90,2|0,0:0|0:0,0:0:0:0:
144,192,130042,1,8,0:0:0:0:
376,184,130213,2,0,L|438:184|358:184,1,125.999996154785
216,176,130556,1,2,0:0:0:0:
384,184,130727,1,8,0:0:0:0:
496,184,130899,1,0,0:0:0:0:
24,192,131071,5,2,0:0:0:0:
168,192,131242,1,0,0:0:0:0:
280,192,131414,2,0,L|235:192,1,45,2|0,0:0|0:0,0:0:0:0:
424,192,131585,2,0,P|459:184|451:120,1,90,0|2,0:0|0:0,0:0:0:0:
440,104,131842,1,0,0:0:0:0:
400,80,131928,1,0,0:0:0:0:
352,80,132014,1,0,0:0:0:0:
184,192,132099,2,0,L|128:192,1,45,2|0,0:0|0:0,0:0:0:0:
331,192,132271,2,0,L|403:192,1,45,2|0,0:0|0:0,0:0:0:0:
88,208,132442,6,0,P|39:148|111:119,1,180,6|8,0:0|0:0,0:0:0:0:
200,128,132956,1,0,0:0:0:0:
112,128,133128,1,0,0:0:0:0:
296,128,133299,1,2,0:0:0:0:
56,128,133471,2,0,L|176:128,1,90,8|0,0:0|0:0,0:0:0:0:
448,128,133814,6,0,P|480:160|432:176,1,90,2|0,0:0|0:0,0:0:0:0:
368,184,134156,1,8,0:0:0:0:
136,192,134328,2,0,L|32:192,1,90,0|0,0:0|0:0,0:0:0:0:
136,192,134671,1,2,0:0:0:0:
376,192,134842,2,0,L|488:192,1,90,8|0,0:0|0:0,0:0:0:0:
160,120,135185,5,2,0:0:0:0:
112,128,135271,1,0,0:0:0:0:
112,176,135356,1,0,0:0:0:0:
160,184,135442,1,0,0:0:0:0:
360,64,135528,1,8,0:0:0:0:
408,64,135614,1,0,0:0:0:0:
448,88,135699,1,0,0:0:0:0:
472,128,135785,1,0,0:0:0:0:
456,168,135871,1,0,0:0:0:0:
416,192,135956,1,0,0:0:0:0:
368,192,136042,1,2,0:0:0:0:
136,200,136214,2,0,L|16:200,1,90,8|0,0:0|0:0,0:0:0:0:
296,200,136556,6,0,L|424:200,2,90,2|0|8,0:0|0:0|0:0,0:0:0:0:
56,192,137071,2,0,P|40:240|64:280,1,90,0|0,0:0|0:0,0:0:0:0:
376,288,137414,1,2,0:0:0:0:
146,288,137585,2,0,L|56:288,1,90,8|0,0:0|0:0,0:0:0:0:
416,288,137928,6,0,P|472:272|400:208,1,180,2|8,0:0|0:0,0:0:0:0:
312,128,138442,1,0,0:0:0:0:
400,128,138614,1,0,0:0:0:0:
216,128,138785,1,2,0:0:0:0:
456,128,138956,2,0,L|336:128,1,90,8|0,0:0|0:0,0:0:0:0:
80,128,139299,6,0,P|48:160|96:176,1,90,2|0,0:0|0:0,0:0:0:0:
160,184,139642,1,8,0:0:0:0:
392,192,139814,2,0,L|512:192,1,90,0|0,0:0|0:0,0:0:0:0:
392,192,140156,1,2,0:0:0:0:
144,192,140328,2,0,L|32:192,1,90,8|0,0:0|0:0,0:0:0:0:
352,120,140671,5,2,0:0:0:0:
400,128,140756,1,0,0:0:0:0:
400,176,140842,1,0,0:0:0:0:
352,184,140928,1,0,0:0:0:0:
152,64,141014,1,8,0:0:0:0:
104,64,141099,1,0,0:0:0:0:
64,88,141185,1,0,0:0:0:0:
40,128,141271,1,0,0:0:0:0:
56,168,141356,1,0,0:0:0:0:
96,192,141442,1,0,0:0:0:0:
144,192,141528,1,2,0:0:0:0:
376,200,141699,2,0,L|496:200,1,90,8|0,0:0|0:0,0:0:0:0:
216,200,142042,6,0,L|88:200,2,90,2|0|8,0:0|0:0|0:0,0:0:0:0:
456,192,142556,2,0,P|472:240|448:280,1,90,0|0,0:0|0:0,0:0:0:0:
136,288,142899,1,2,0:0:0:0:
366,288,143071,2,0,L|456:288,1,90,8|0,0:0|0:0,0:0:0:0:
96,288,143414,6,0,P|40:272|112:208,1,180,6|8,0:0|0:0,0:0:0:0:
256,192,143928,1,0,0:0:0:0:
304,184,144014,1,0,0:0:0:0:
336,152,144099,1,0,0:0:0:0:
344,104,144185,1,0,0:0:0:0:
312,72,144271,1,2,0:0:0:0:
48,144,144442,2,0,P|48:224|80:240,1,90,8|0,0:0|0:0,0:0:0:0:
408,200,144785,5,2,0:0:0:0:
456,208,144871,1,0,0:0:0:0:
456,256,144956,1,0,0:0:0:0:
408,264,145042,1,0,0:0:0:0:
256,248,145128,1,8,0:0:0:0:
208,256,145214,1,0,0:0:0:0:
192,296,145299,1,0,0:0:0:0:
216,336,145385,1,0,0:0:0:0:
264,336,145471,5,0,0:0:0:0:
296,304,145556,1,0,0:0:0:0:
96,296,145642,1,2,0:0:0:0:
48,296,145728,1,0,0:0:0:0:
336,288,145814,1,8,0:0:0:0:
384,280,145899,1,0,0:0:0:0:
384,232,145985,1,0,0:0:0:0:
336,224,146071,1,0,0:0:0:0:
104,200,146156,5,2,0:0:0:0:
56,208,146242,1,0,0:0:0:0:
56,256,146328,1,0,0:0:0:0:
104,264,146414,1,0,0:0:0:0:
256,248,146499,1,8,0:0:0:0:
304,256,146585,1,0,0:0:0:0:
320,296,146671,1,0,0:0:0:0:
296,336,146756,1,0,0:0:0:0:
248,336,146842,5,0,0:0:0:0:
216,304,146928,1,0,0:0:0:0:
416,296,147014,1,2,0:0:0:0:
464,296,147099,1,0,0:0:0:0:
176,288,147185,1,8,0:0:0:0:
128,280,147271,1,0,0:0:0:0:
128,232,147356,1,0,0:0:0:0:
176,224,147442,1,0,0:0:0:0:
368,240,147528,5,2,0:0:0:0:
416,232,147614,1,0,0:0:0:0:
416,184,147699,1,0,0:0:0:0:
368,176,147785,1,0,0:0:0:0:
192,184,147871,2,0,L|104:184,1,45,8|0,0:0|0:0,0:0:0:0:
312,184,148042,2,0,L|384:184,1,45,0|0,0:0|0:0,0:0:0:0:
112,184,148214,6,0,L|48:184,1,45,0|0,0:0|0:0,0:0:0:0:
400,184,148385,2,0,L|464:184,1,45,2|0,0:0|0:0,0:0:0:0:
256,200,148556,1,8,0:0:0:0:
208,192,148642,1,0,0:0:0:0:
208,144,148728,1,0,0:0:0:0:
256,136,148814,1,0,0:0:0:0:
416,288,148899,6,0,P|472:272|400:208,1,180,2|8,0:0|0:0,0:0:0:0:
256,192,149414,1,0,0:0:0:0:
208,184,149499,1,0,0:0:0:0:
176,152,149585,1,0,0:0:0:0:
168,104,149671,1,0,0:0:0:0:
200,72,149756,1,2,0:0:0:0:
464,144,149928,2,0,P|464:224|432:240,1,90,8|0,0:0|0:0,0:0:0:0:
224,112,150271,5,2,0:0:0:0:
176,120,150356,1,0,0:0:0:0:
176,168,150442,1,0,0:0:0:0:
224,176,150528,1,0,0:0:0:0:
392,280,150614,1,8,0:0:0:0:
440,280,150700,1,0,0:0:0:0:
440,232,150786,1,0,0:0:0:0:
392,232,150872,1,0,0:0:0:0:
200,176,150957,5,0,0:0:0:0:
152,176,151043,1,0,0:0:0:0:
312,176,151129,1,2,0:0:0:0:
360,176,151214,1,0,0:0:0:0:
176,176,151300,1,8,0:0:0:0:
128,176,151386,1,0,0:0:0:0:
408,192,151471,1,0,0:0:0:0:
456,192,151557,1,0,0:0:0:0:
256,192,151642,5,2,0:0:0:0:
256,192,151814,12,0,154385,0:0:0:0:
