osu file format v14

[General]
AudioFilename: audio.mp3
AudioLeadIn: 0
PreviewTime: -1
Countdown: 1
SampleSet: None
StackLeniency: 0.5
Mode: 0
LetterboxInBreaks: 0
WidescreenStoryboard: 0

[Editor]
DistanceSpacing: 1.3
BeatDivisor: 4
GridSize: 4
TimelineZoom: 1.800006

[Metadata]
Title:By Design
TitleUnicode:By Design
Artist:WRLD
ArtistUnicode:WRLD
Creator:MaddaFakka-sama
Version:xd
Source:
Tags:
BeatmapID:1840512
BeatmapSetID:880138

[Difficulty]
HPDrainRate:5.5
CircleSize:4
OverallDifficulty:7
ApproachRate:9
SliderMultiplier:2
SliderTickRate:1

[Events]
//Background and Video events
0,0,"q7tj3Zj.png",0,0
//Break Periods
//Storyboard Layer 0 (Background)
//Storyboard Layer 1 (Fail)
//Storyboard Layer 2 (Pass)
//Storyboard Layer 3 (Foreground)
//Storyboard Sound Samples

[TimingPoints]
25,342.857142857143,4,2,1,75,1,0
32253,-117.647058823529,4,2,1,75,0,0
44596,-100,4,2,1,75,0,0
62425,-92.5925925925926,4,2,1,75,0,0
66539,-100,4,2,1,75,0,1
88482,-100,4,2,1,75,0,0
112567,-100,4,2,1,20,0,0
112653,-100,4,2,1,75,0,0
112739,-100,4,2,1,20,0,0
112825,-100,4,2,1,75,0,0
112910,-100,4,2,1,20,0,0
112996,-100,4,2,1,75,0,0
118053,-100,4,2,1,20,0,0
118139,-100,4,2,1,75,0,0
118225,-100,4,2,1,20,0,0
118310,-100,4,2,1,75,0,0
118396,-100,4,2,1,20,0,0
118482,-100,4,2,1,75,0,0
129025,-100,4,2,1,20,0,0
129110,-100,4,2,1,75,0,0
129196,-100,4,2,1,20,0,0
129282,-100,4,2,1,75,0,0
129367,-100,4,2,1,20,0,0
129453,-100,4,2,1,75,0,0

[Colours]
Combo1 : 255,206,255
Combo2 : 255,0,255
Combo3 : 255,128,255
Combo4 : 255,168,255

[HitObjects]
104,96,25,6,0,P|128:64|148:52,2,50
96,200,367,1,0,0:0:0:0:
156,272,539,1,0,0:0:0:0:
256,284,710,2,0,P|328:252|352:196,1,100
332,136,1053,2,0,P|260:168|236:224,1,100
172,120,1396,1,0,0:0:0:0:
96,200,1567,1,0,0:0:0:0:
80,220,1653,1,0,0:0:0:0:
64,240,1739,5,0,0:0:0:0:
0,324,1910,1,0,0:0:0:0:
112,352,2082,2,0,L|232:372,1,100
340,236,2425,2,0,L|254:286,1,100
432,172,2767,1,0,0:0:0:0:
328,132,2939,1,0,0:0:0:0:
328,132,3025,1,0,0:0:0:0:
328,132,3110,5,0,0:0:0:0:
341,236,3282,1,0,0:0:0:0:
432,172,3453,1,0,0:0:0:0:
416,64,3625,1,0,0:0:0:0:
332,136,3796,1,0,0:0:0:0:
248,208,3967,1,0,0:0:0:0:
164,280,4139,1,0,0:0:0:0:
144,172,4310,1,0,0:0:0:0:
144,172,4396,1,0,0:0:0:0:
144,172,4482,5,0,0:0:0:0:
248,208,4653,1,0,0:0:0:0:
272,316,4825,2,0,P|336:336|376:328,1,100
436,251,5167,2,0,P|372:231|332:239,1,100
248,208,5510,1,0,0:0:0:0:
144,172,5682,2,0,P|176:128|200:112,2,50
128,280,6025,1,0,0:0:0:0:
128,280,6196,6,0,P|180:332|228:340,1,100
312,348,6539,1,0,0:0:0:0:
388,272,6710,1,0,0:0:0:0:
280,244,6882,2,0,L|244:140,1,100
236,116,7139,1,0,0:0:0:0:
224,84,7225,1,0,0:0:0:0:
148,160,7396,1,0,0:0:0:0:
247,149,7567,2,0,L|368:136,1,100
280,244,7910,2,0,L|180:254,1,100
80,324,8253,6,0,P|60:264|64:204,1,100
64,192,8510,1,0,0:0:0:0:
72,160,8596,1,0,0:0:0:0:
116,56,8767,1,0,0:0:0:0:
224,84,8939,2,0,L|336:108,1,100
440,132,9282,5,0,0:0:0:0:
321,104,9453,1,0,0:0:0:0:
388,208,9625,5,0,0:0:0:0:
269,180,9796,1,0,0:0:0:0:
336,284,9967,5,0,0:0:0:0:
217,256,10138,1,0,0:0:0:0:
284,360,10310,1,0,0:0:0:0:
217,256,10653,5,0,0:0:0:0:
180,268,10739,1,0,0:0:0:0:
140,268,10825,1,0,0:0:0:0:
104,252,10910,1,0,0:0:0:0:
80,220,10996,1,0,0:0:0:0:
76,180,11082,1,0,0:0:0:0:
88,144,11167,1,0,0:0:0:0:
120,120,11253,1,0,0:0:0:0:
160,120,11339,1,0,0:0:0:0:
284,180,11510,6,0,L|332:204,2,50
160,120,11853,1,0,0:0:0:0:
180,268,12025,2,0,P|208:328|260:360,1,100
284,180,12367,2,0,P|256:120|204:88,1,100
68,32,12710,1,0,0:0:0:0:
88,144,12882,1,0,0:0:0:0:
88,144,13053,2,0,P|98:209|72:264,1,100
48,360,13396,1,0,0:0:0:0:
164,340,13567,6,0,P|256:296|352:340,1,200
256,192,14082,1,0,0:0:0:0:
256,192,14253,1,0,0:0:0:0:
320,84,14425,6,0,L|264:128,3,50
216,161,14767,2,0,L|272:205,3,50
320,238,15110,2,0,L|264:282,3,50
216,315,15453,2,0,L|272:359,3,50
92,320,15796,6,0,P|100:240|56:124,1,200
8,24,16310,2,0,P|88:16|204:60,1,200
288,124,16825,1,0,0:0:0:0:
288,124,16996,1,0,0:0:0:0:
380,76,17167,6,0,P|392:123|382:172,1,100
468,220,17510,2,0,P|456:267|466:316,1,100
380,364,17853,1,0,0:0:0:0:
316,188,18025,1,0,0:0:0:0:
466,316,18196,5,0,0:0:0:0:
280,264,18368,1,0,0:0:0:0:
317,187,18539,6,0,P|377:265|380:364,1,200
184,264,19053,1,0,0:0:0:0:
24,32,19396,5,0,0:0:0:0:
40,132,19567,1,0,0:0:0:0:
96,216,19739,1,0,0:0:0:0:
184,264,19910,2,0,L|240:292,1,50
256,194,20082,2,0,L|300:216,1,50
342,121,20253,6,0,P|250:88|164:132,2,200
96,216,21110,1,0,0:0:0:0:
164,288,21282,1,0,0:0:0:0:
256,332,21453,1,0,0:0:0:0:
348,288,21625,1,0,0:0:0:0:
416,216,21796,2,0,B|488:188|488:188|472:120|380:112|380:112|392:68|452:32,1,300
256,192,22482,1,0,0:0:0:0:
256,192,22653,12,0,25396,0:0:0:0:
256,192,25567,12,0,28139,0:0:0:0:
256,192,28310,12,0,30882,0:0:0:0:
164,192,31225,5,0,0:0:0:0:
256,64,31567,1,0,0:0:0:0:
348,192,31910,1,0,0:0:0:0:
256,192,32082,1,0,0:0:0:0:
212,260,32253,6,0,P|256:272|300:260,1,85.0000016212464
344,344,32596,6,0,P|385:335|425:347,1,85.0000016212464
468,268,32939,1,0,0:0:0:0:
380,268,33110,1,0,0:0:0:0:
380,268,33196,1,0,0:0:0:0:
380,268,33282,1,0,0:0:0:0:
424,188,33453,1,0,0:0:0:0:
468,268,33625,6,0,B|424:188|424:188|464:112|464:112|324:80|324:80|364:200|244:232,1,510.000009727478
252,140,34996,6,0,B|168:64|168:64|136:176|16:240|16:240|68:276|68:276|180:231,1,510.000009727478
68,276,36367,6,0,B|164:344|164:344|266:207|415:269|415:269|321:326,1,510.000009727478
164,344,37567,2,0,B|68:276|68:276|65:185,1,170.000003242493
64,112,38082,6,0,P|160:80|224:108,2,170.000003242493
66,223,38939,1,0,0:0:0:0:
448,191,39624,5,0,0:0:0:0:
447,292,39796,2,0,P|351:324|287:296,1,170.000003242493
248,384,40310,2,0,P|199:295|216:227,1,170.000003242493
280,140,40825,1,0,0:0:0:0:
116,164,41167,1,0,0:0:0:0:
288,136,41510,5,0,0:0:0:0:
104,168,41682,1,0,0:0:0:0:
256,192,42025,12,0,44425,0:0:0:0:
192,152,44596,5,0,0:0:0:0:
188,180,45282,5,0,0:0:0:0:
196,208,45967,5,0,0:0:0:0:
196,236,46653,5,0,0:0:0:0:
248,320,46996,1,0,0:0:0:0:
260,320,47081,1,0,0:0:0:0:
272,320,47167,1,0,0:0:0:0:
320,232,47339,5,0,0:0:0:0:
324,204,48025,5,0,0:0:0:0:
316,176,48710,5,0,0:0:0:0:
316,148,49396,5,0,0:0:0:0:
264,64,49739,1,0,0:0:0:0:
252,64,49824,1,0,0:0:0:0:
240,64,49910,1,0,0:0:0:0:
192,152,50082,5,0,0:0:0:0:
320,232,50425,1,0,0:0:0:0:
188,180,50767,5,0,0:0:0:0:
324,204,51110,1,0,0:0:0:0:
196,208,51453,5,0,0:0:0:0:
316,176,51796,1,0,0:0:0:0:
196,236,52139,5,0,0:0:0:0:
316,148,52482,1,0,0:0:0:0:
316,136,52567,1,0,0:0:0:0:
312,124,52653,1,0,0:0:0:0:
236,64,52825,2,0,P|228:113|200:153,1,100
76,248,53167,2,0,P|83:198|111:158,1,100
192,240,53510,2,0,P|220:280|227:329,1,100
124,320,53853,1,0,0:0:0:0:
192,240,54025,6,0,B|200:152|200:152|352:226|433:178|433:178|380:128,1,400
384,132,54882,1,0,0:0:0:0:
128,244,55567,5,0,0:0:0:0:
388,136,56253,1,0,0:0:0:0:
112,92,56939,1,0,0:0:0:0:
304,296,57625,1,0,0:0:0:0:
412,36,58310,5,0,0:0:0:0:
180,192,58996,1,0,0:0:0:0:
396,368,59682,1,0,0:0:0:0:
256,128,60367,1,0,0:0:0:0:
144,64,60710,2,0,P|124:120|136:180,1,100
168,264,61053,5,0,0:0:0:0:
256,208,61224,1,0,0:0:0:0:
256,308,61396,1,0,0:0:0:0:
344,252,61568,1,0,0:0:0:0:
148,264,61739,5,0,0:0:0:0:
256,184,61910,1,0,0:0:0:0:
256,336,62082,1,0,0:0:0:0:
364,252,62254,1,0,0:0:0:0:
148,264,62425,6,0,P|202:267|256:260,1,108.000002636719
256,368,62767,2,0,L|256:260,1,108.000002636719
364,252,63110,2,0,P|310:248|243:267,1,108.000002636719
256,152,63453,2,0,L|256:260,1,108.000002636719
316,324,63796,5,0,0:0:0:0:
348,356,63882,1,0,0:0:0:0:
392,360,63967,1,0,0:0:0:0:
432,340,64053,1,0,0:0:0:0:
448,300,64139,1,0,0:0:0:0:
432,260,64225,1,0,0:0:0:0:
396,236,64310,1,0,0:0:0:0:
356,220,64396,1,0,0:0:0:0:
324,192,64482,5,0,0:0:0:0:
304,156,64567,1,0,0:0:0:0:
304,112,64653,1,0,0:0:0:0:
328,76,64739,1,0,0:0:0:0:
368,64,64825,6,0,L|376:136,3,54.0000013183594
256,56,65167,2,0,L|248:-16,3,54.0000013183594
144,16,65510,5,0,0:0:0:0:
116,48,65596,1,0,0:0:0:0:
104,88,65682,1,0,0:0:0:0:
96,132,65767,1,0,0:0:0:0:
108,172,65853,5,0,0:0:0:0:
132,208,65939,1,0,0:0:0:0:
140,252,66025,1,0,0:0:0:0:
128,292,66110,1,0,0:0:0:0:
104,328,66196,1,0,0:0:0:0:
104,328,66539,6,0,P|170:310|233:314,1,100
328,192,66882,2,0,P|262:210|199:206,1,100
132,208,67225,1,0,0:0:0:0:
210,312,67396,1,0,0:0:0:0:
260,128,67567,1,0,0:0:0:0:
132,49,67739,2,0,P|80:133|136:209,1,200
384,56,68425,5,0,0:0:0:0:
260,128,68596,1,0,0:0:0:0:
276,20,68767,5,0,0:0:0:0:
372,176,68939,2,0,P|374:216|345:275,1,100
256,344,69282,5,0,0:0:0:0:
220,332,69367,1,0,0:0:0:0:
180,328,69453,1,0,0:0:0:0:
140,332,69539,1,0,0:0:0:0:
100,344,69625,5,0,0:0:0:0:
60,336,69710,1,0,0:0:0:0:
24,320,69796,1,0,0:0:0:0:
0,288,69882,1,0,0:0:0:0:
0,248,69967,5,0,0:0:0:0:
20,212,70053,1,0,0:0:0:0:
52,184,70139,1,0,0:0:0:0:
92,176,70225,1,0,0:0:0:0:
132,184,70310,5,0,0:0:0:0:
164,208,70396,1,0,0:0:0:0:
200,228,70482,1,0,0:0:0:0:
240,236,70567,1,0,0:0:0:0:
280,228,70653,1,0,0:0:0:0:
176,72,70996,5,0,0:0:0:0:
176,72,71167,2,0,P|270:93|351:39,1,200
452,88,71682,2,0,P|428:125|432:186,1,100
476,296,72025,5,0,0:0:0:0:
328,244,72196,1,0,0:0:0:0:
380,344,72367,5,0,0:0:0:0:
433,167,72539,1,0,0:0:0:0:
200,92,72710,5,0,0:0:0:0:
348,144,72881,1,0,0:0:0:0:
296,44,73052,5,0,0:0:0:0:
243,221,73225,2,0,P|145:221|79:150,2,200
348,144,74082,1,0,0:0:0:0:
408,28,74253,1,0,0:0:0:0:
478,137,74425,1,0,0:0:0:0:
328,64,74596,1,0,0:0:0:0:
328,64,74767,6,0,L|279:76,1,50
156,68,74939,2,0,L|204:80,1,50
348,144,75110,6,0,L|299:156,1,50
136,148,75282,2,0,L|184:160,1,50
368,224,75453,6,0,L|319:236,1,50
116,228,75625,2,0,L|164:240,1,50
388,304,75796,6,0,L|339:316,1,50
96,308,75967,2,0,L|144:320,1,50
388,304,76139,6,0,P|425:232|425:108,1,200
504,24,76653,2,0,P|424:16|308:60,1,200
204,140,77167,1,0,0:0:0:0:
344,128,77339,1,0,0:0:0:0:
184,68,77510,2,0,P|198:27|248:-16,1,100
272,72,77853,1,0,0:0:0:0:
344,128,78025,1,0,0:0:0:0:
436,136,78196,6,0,P|421:176|372:220,1,100
296,252,78539,1,0,0:0:0:0:
176,276,78710,1,0,0:0:0:0:
215,160,78882,5,0,0:0:0:0:
248,316,79053,1,0,0:0:0:0:
96,266,79225,1,0,0:0:0:0:
296,252,79396,1,0,0:0:0:0:
435,136,79567,6,0,P|417:181|380:215,1,100
336,128,79910,1,0,0:0:0:0:
256,72,80082,1,0,0:0:0:0:
256,172,80253,1,0,0:0:0:0:
256,184,80339,1,0,0:0:0:0:
256,196,80425,1,0,0:0:0:0:
88,248,80596,5,0,0:0:0:0:
168,304,80768,1,0,0:0:0:0:
168,196,80939,1,0,0:0:0:0:
168,184,81025,1,0,0:0:0:0:
168,172,81111,1,0,0:0:0:0:
168,80,81282,1,0,0:0:0:0:
0,116,81453,2,0,P|80:40|24:-12,2,200
88,248,82310,2,0,P|120:284|166:303,1,100
188,204,82653,6,0,P|235:214|284:202,1,100
416,136,82996,1,0,0:0:0:0:
284,202,83167,1,0,0:0:0:0:
336,104,83339,2,0,P|287:93|239:105,1,100
107,171,83682,1,0,0:0:0:0:
239,105,83853,1,0,0:0:0:0:
284,202,84025,5,0,0:0:0:0:
107,171,84196,1,0,0:0:0:0:
239,105,84367,5,0,0:0:0:0:
204,276,84539,1,0,0:0:0:0:
144,96,84710,5,0,0:0:0:0:
328,128,84882,1,0,0:0:0:0:
174,188,85053,2,0,P|146:128|146:72,1,100
338,196,85396,2,0,P|366:256|366:312,1,100
174,188,85739,5,0,0:0:0:0:
338,198,85910,1,0,0:0:0:0:
246,335,86082,1,0,0:0:0:0:
256,148,86253,5,0,0:0:0:0:
328,295,86425,1,0,0:0:0:0:
163,284,86596,1,0,0:0:0:0:
328,128,86767,5,0,0:0:0:0:
396,248,86939,1,0,0:0:0:0:
396,248,87025,1,0,0:0:0:0:
396,248,87110,2,0,L|448:344,2,100
328,124,87625,1,0,0:0:0:0:
260,4,87796,2,0,P|170:41|82:0,2,200
148,192,88825,5,0,0:0:0:0:
256,80,88996,1,0,0:0:0:0:
364,192,89167,1,0,0:0:0:0:
256,300,89339,1,0,0:0:0:0:
264,200,89510,5,0,0:0:0:0:
264,200,89682,1,0,0:0:0:0:
264,200,89853,2,0,P|252:152|260:88,1,100
364,192,90196,2,0,P|374:240|366:289,1,100
256,284,90539,1,0,0:0:0:0:
253,94,90710,1,0,0:0:0:0:
148,192,90882,1,0,0:0:0:0:
364,192,91053,1,0,0:0:0:0:
253,94,91225,2,0,P|204:83|155:91,1,100
148,284,91567,5,0,0:0:0:0:
364,284,91739,1,0,0:0:0:0:
364,100,91910,1,0,0:0:0:0:
148,100,92082,1,0,0:0:0:0:
256,192,92253,1,0,0:0:0:0:
364,284,92425,1,0,0:0:0:0:
380,300,92510,1,0,0:0:0:0:
396,316,92596,5,0,0:0:0:0:
472,200,92767,1,0,0:0:0:0:
328,188,92939,1,0,0:0:0:0:
396,316,93110,1,0,0:0:0:0:
472,200,93282,2,0,P|479:150|468:102,1,100
328,188,93625,2,0,P|320:237|331:285,1,100
468,102,93967,1,0,0:0:0:0:
144,120,94310,5,0,0:0:0:0:
232,72,94482,1,0,0:0:0:0:
136,120,94653,1,0,0:0:0:0:
252,216,94825,1,0,0:0:0:0:
128,120,94996,1,0,0:0:0:0:
312,40,95167,1,0,0:0:0:0:
120,120,95339,2,0,P|112:169|123:217,1,100
200,352,95682,5,0,0:0:0:0:
308,252,95853,1,0,0:0:0:0:
144,328,96025,1,0,0:0:0:0:
324,308,96196,1,0,0:0:0:0:
116,276,96367,1,0,0:0:0:0:
308,364,96539,1,0,0:0:0:0:
116,220,96710,2,0,P|124:171|151:129,1,100
384,64,97053,6,0,B|420:116|420:116|328:120|288:208,2,200
400,208,97910,2,0,P|320:276|288:84,2,400
304,178,99453,1,0,0:0:0:0:
112,220,99796,5,0,0:0:0:0:
60,76,99967,1,0,0:0:0:0:
208,188,100139,1,0,0:0:0:0:
248,24,100310,1,0,0:0:0:0:
96,248,100482,5,0,0:0:0:0:
28,56,100653,1,0,0:0:0:0:
228,93,100825,1,0,0:0:0:0:
224,100,101167,5,0,0:0:0:0:
372,231,101339,1,0,0:0:0:0:
300,79,101510,5,0,0:0:0:0:
296,255,101682,1,0,0:0:0:0:
372,111,101853,5,0,0:0:0:0:
224,227,102025,1,0,0:0:0:0:
296,84,102196,1,0,0:0:0:0:
292,88,102539,5,0,0:0:0:0:
132,104,102710,1,0,0:0:0:0:
208,64,102882,5,0,0:0:0:0:
112,188,103053,1,0,0:0:0:0:
132,104,103225,5,0,0:0:0:0:
151,259,103396,1,0,0:0:0:0:
164,276,103482,1,0,0:0:0:0:
176,288,103568,1,0,0:0:0:0:
316,364,103739,2,0,P|364:373|413:362,1,100
273,286,104082,2,0,P|224:276|175:287,1,100
364,292,104425,2,0,P|373:243|362:194,1,100
300,84,104767,1,0,0:0:0:0:
273,286,104939,1,0,0:0:0:0:
272,292,105282,6,0,P|188:304|160:292,1,100
140,280,105539,1,0,0:0:0:0:
108,256,105625,1,0,0:0:0:0:
56,356,105796,1,0,0:0:0:0:
12,264,105967,2,0,P|43:185|67:167,1,100
176,72,106310,1,0,0:0:0:0:
172,76,106653,5,0,0:0:0:0:
152,196,106825,1,0,0:0:0:0:
184,220,106910,1,0,0:0:0:0:
216,244,106996,1,0,0:0:0:0:
248,268,107081,1,0,0:0:0:0:
280,292,107167,1,0,0:0:0:0:
256,136,107339,1,0,0:0:0:0:
140,280,107510,1,0,0:0:0:0:
256,192,107682,12,0,109739,0:0:0:0:
156,168,110082,5,0,0:0:0:0:
256,88,110253,1,0,0:0:0:0:
356,168,110425,2,0,P|256:180|152:168,1,200
156,268,110939,2,0,P|255:278|354:266,1,200
460,232,111453,1,0,0:0:0:0:
108,352,111796,2,0,P|256:372|416:348,1,300
203,251,112482,2,0,L|135:275,1,50
203,179,112653,2,0,L|135:203,1,50
200,108,112825,2,0,L|132:132,1,50
351,122,113167,6,0,P|256:104|153:124,1,200
156,228,113682,2,0,P|260:204|351:227,1,200
460,184,114195,1,0,0:0:0:0:
351,122,114367,1,0,0:0:0:0:
108,32,114539,2,0,P|256:12|416:36,1,300
399,133,115225,6,0,P|356:122|331:121,2,50
256,192,115567,2,0,P|299:203|324:204,2,50
124,108,115910,6,0,P|88:200|140:300,1,200
256,192,116425,2,0,P|292:100|240:0,1,200
88,196,116939,2,0,P|96:240|129:291,1,100
292,100,117282,2,0,P|284:56|251:5,1,100
124,108,117625,1,0,0:0:0:0:
126,288,117796,1,0,0:0:0:0:
308,376,117967,2,0,L|264:352,1,50
304,296,118139,2,0,L|260:272,1,50
300,216,118310,2,0,L|256:192,1,50
124,108,118482,1,0,0:0:0:0:
116,198,118653,6,0,P|192:254|256:174,1,200
184,180,119167,2,0,P|278:174|275:71,1,200
224,120,119682,2,0,P|152:108|120:108,1,100
256,191,120025,2,0,P|304:200|354:203,1,100
428,112,120367,5,0,0:0:0:0:
360,204,120539,1,0,0:0:0:0:
344,224,120625,1,0,0:0:0:0:
328,244,120710,1,0,0:0:0:0:
260,332,120882,1,0,0:0:0:0:
172,241,121053,2,0,P|208:207|255:190,1,100
104,200,121396,6,0,P|20:208|68:168,1,200
51,169,121910,6,0,P|40:91|103:138,1,200
192,144,122425,1,0,0:0:0:0:
128,316,122596,1,0,0:0:0:0:
166,88,122767,2,0,P|244:85|191:143,1,200
103,138,123282,1,0,0:0:0:0:
191,143,123453,5,0,0:0:0:0:
128,316,123625,1,0,0:0:0:0:
44,232,123796,1,0,0:0:0:0:
436,92,124139,6,0,P|376:72|324:180,1,200
384,144,124653,6,0,P|350:90|241:139,1,200
310,150,125167,6,0,P|319:87|203:54,1,200
124,124,125682,1,0,0:0:0:0:
44,200,125853,1,0,0:0:0:0:
148,232,126025,1,0,0:0:0:0:
176,260,126110,1,0,0:0:0:0:
204,288,126196,1,0,0:0:0:0:
264,344,126367,1,0,0:0:0:0:
176,260,126539,6,0,L|256:192,1,100
348,216,126882,2,0,P|336:132|224:100,1,200
252,195,127396,2,0,P|264:279|376:311,1,200
324,124,127910,2,0,P|288:96|230:97,1,100
274,286,128253,2,0,P|310:314|368:313,1,100
348,216,128596,1,0,0:0:0:0:
324,124,128767,1,0,0:0:0:0:
228,52,128939,6,0,L|244:112,1,50
200,192,129110,2,0,L|184:132,1,50
104,88,129282,2,0,L|120:148,1,50
40,180,129453,5,0,0:0:0:0:
24,280,129625,2,0,L|236:296,1,200
400,208,130139,2,0,L|188:192,1,200
40,88,130653,2,0,L|184:96,1,100
272,100,130996,1,0,0:0:0:0:
404,108,131167,1,0,0:0:0:0:
72,208,131510,5,0,0:0:0:0:
