osu file format v14

[General]
AudioFilename: audio.ogg
AudioLeadIn: 0
PreviewTime: 129968
Countdown: 0
SampleSet: Soft
StackLeniency: 0.7
Mode: 3
LetterboxInBreaks: 0
SpecialStyle: 0
WidescreenStoryboard: 0

[Editor]
DistanceSpacing: 0.7
BeatDivisor: 4
GridSize: 32
TimelineZoom: 1

[Metadata]
Title:Jiu Shi Yue
TitleUnicode:旧时约
Artist:WOVOP
ArtistUnicode:WOVOP
Creator:Seiran-
Version:When I remember u.
Source:
Tags:乐正绫 VOCALOID 虚拟歌手 VOCALOID-UTAU VOCALOID_CHINA VSINGER 乐正绫八周年同人生日会 中文VOCALOID Chinese Pop
BeatmapID:4174402
BeatmapSetID:2006922

[Difficulty]
HPDrainRate:8.5
CircleSize:4
OverallDifficulty:8
ApproachRate:5
SliderMultiplier:1.4
SliderTickRate:1

[Events]
//Background and Video events
0,0,"B2183AD710F9D94C653BD9882F4BE851.jpg",0,0
//Break Periods
//Storyboard Layer 0 (Background)
//Storyboard Layer 1 (Fail)
//Storyboard Layer 2 (Pass)
//Storyboard Layer 3 (Foreground)
//Storyboard Layer 4 (Overlay)
//Storyboard Sound Samples

[TimingPoints]
1968,500,4,2,1,30,1,0

[HitObjects]
192,192,1968,128,0,2218:0:0:0:0:
320,192,2218,128,0,2468:0:0:0:0:
448,192,2468,128,0,3718:0:0:0:0:
64,192,2718,128,0,3718:0:0:0:0:
192,192,3218,128,0,3718:0:0:0:0:
320,192,3968,128,0,4218:0:0:0:0:
192,192,4218,128,0,4468:0:0:0:0:
64,192,4468,128,0,5718:0:0:0:0:
448,192,4718,128,0,5718:0:0:0:0:
320,192,5218,128,0,5718:0:0:0:0:
192,192,5968,128,0,6218:0:0:0:0:
320,192,6218,128,0,6468:0:0:0:0:
448,192,6468,128,0,7718:0:0:0:0:
64,192,6718,128,0,7718:0:0:0:0:
192,192,7218,128,0,7718:0:0:0:0:
320,192,7968,128,0,8218:0:0:0:0:
192,192,8218,128,0,8468:0:0:0:0:
64,192,8468,128,0,9218:0:0:0:0:
448,192,8718,128,0,8968:0:0:0:0:
192,192,8968,128,0,9218:0:0:0:0:
320,192,8968,1,0,0:0:0:0:
448,192,9218,128,0,9718:0:0:0:0:
192,192,9343,1,0,0:0:0:0:
64,192,9343,1,0,0:0:0:0:
320,192,9468,128,0,9718:0:0:0:0:
192,192,9718,1,0,0:0:0:0:
64,192,9718,1,0,0:0:0:0:
320,192,9968,1,0,0:0:0:0:
448,192,9968,1,0,0:0:0:0:
64,192,9968,128,0,11218:0:0:0:0:
192,192,10218,1,0,0:0:0:0:
448,192,10468,1,0,0:0:0:0:
192,192,10718,1,0,0:0:0:0:
320,192,10968,1,0,0:0:0:0:
448,192,10968,1,0,0:0:0:0:
448,192,11218,128,0,11468:0:0:0:0:
320,192,11468,128,0,11718:0:0:0:0:
192,192,11718,1,0,0:0:0:0:
64,192,11718,128,0,12468:0:0:0:0:
320,192,11968,1,0,0:0:0:0:
448,192,11968,128,0,12718:0:0:0:0:
192,192,12218,1,0,0:0:0:0:
192,192,12468,1,0,0:0:0:0:
64,192,12718,128,0,13468:0:0:0:0:
320,192,12718,1,0,0:0:0:0:
448,192,12968,1,0,0:0:0:0:
320,192,12968,1,0,0:0:0:0:
448,192,13218,1,0,0:0:0:0:
192,192,13218,1,0,0:0:0:0:
320,192,13468,128,0,13968:0:0:0:0:
448,192,13718,128,0,13968:0:0:0:0:
64,192,13718,1,0,0:0:0:0:
64,192,13968,1,0,0:0:0:0:
192,192,13968,128,0,14718:0:0:0:0:
448,192,14218,1,0,0:0:0:0:
320,192,14468,1,0,0:0:0:0:
64,192,14718,128,0,15218:0:0:0:0:
320,192,14968,1,0,0:0:0:0:
448,192,14968,1,0,0:0:0:0:
192,192,15218,128,0,15968:0:0:0:0:
64,192,15468,1,0,0:0:0:0:
320,192,15718,1,0,0:0:0:0:
448,192,15718,1,0,0:0:0:0:
64,192,15968,1,0,0:0:0:0:
448,192,15968,128,0,16968:0:0:0:0:
192,192,16218,1,0,0:0:0:0:
320,192,16468,1,0,0:0:0:0:
64,192,16718,1,0,0:0:0:0:
192,192,16718,1,0,0:0:0:0:
320,192,16968,1,0,0:0:0:0:
64,192,16968,1,0,0:0:0:0:
448,192,17218,1,0,0:0:0:0:
320,192,17218,1,0,0:0:0:0:
64,192,17468,1,0,0:0:0:0:
192,192,17718,1,0,0:0:0:0:
448,192,17718,1,0,0:0:0:0:
448,192,17968,1,0,0:0:0:0:
320,192,17968,1,0,0:0:0:0:
64,192,17968,128,0,18218:0:0:0:0:
192,192,18218,1,0,0:0:0:0:
448,192,18468,1,0,0:0:0:0:
192,192,18718,1,0,0:0:0:0:
320,192,18968,1,0,0:0:0:0:
64,192,18968,1,0,0:0:0:0:
448,192,19218,1,0,0:0:0:0:
192,192,19468,1,0,0:0:0:0:
320,192,19718,1,0,0:0:0:0:
448,192,19718,1,0,0:0:0:0:
448,192,19968,1,0,0:0:0:0:
320,192,19968,1,0,0:0:0:0:
64,192,20218,1,0,0:0:0:0:
192,192,20468,1,0,0:0:0:0:
320,192,20718,1,0,0:0:0:0:
448,192,20718,1,0,0:0:0:0:
192,192,20968,1,0,0:0:0:0:
64,192,20968,1,0,0:0:0:0:
320,192,21218,1,0,0:0:0:0:
448,192,21218,1,0,0:0:0:0:
192,192,21468,1,0,0:0:0:0:
448,192,21718,1,0,0:0:0:0:
64,192,21718,1,0,0:0:0:0:
64,192,21968,1,0,0:0:0:0:
320,192,21968,128,0,22218:0:0:0:0:
448,192,22218,1,0,0:0:0:0:
192,192,22468,1,0,0:0:0:0:
320,192,22718,1,0,0:0:0:0:
64,192,22968,1,0,0:0:0:0:
448,192,22968,1,0,0:0:0:0:
192,192,23218,1,0,0:0:0:0:
320,192,23468,1,0,0:0:0:0:
64,192,23718,1,0,0:0:0:0:
192,192,23718,1,0,0:0:0:0:
192,192,23968,1,0,0:0:0:0:
64,192,23968,1,0,0:0:0:0:
448,192,24218,1,0,0:0:0:0:
192,192,24468,1,0,0:0:0:0:
320,192,24718,1,0,0:0:0:0:
448,192,24718,1,0,0:0:0:0:
64,192,24968,1,0,0:0:0:0:
192,192,24968,1,0,0:0:0:0:
320,192,25218,1,0,0:0:0:0:
448,192,25218,1,0,0:0:0:0:
64,192,25468,1,0,0:0:0:0:
192,192,25718,1,0,0:0:0:0:
448,192,25718,1,0,0:0:0:0:
448,192,25968,1,0,0:0:0:0:
64,192,25968,128,0,26218:0:0:0:0:
320,192,26218,1,0,0:0:0:0:
192,192,26468,1,0,0:0:0:0:
448,192,26718,1,0,0:0:0:0:
320,192,26968,1,0,0:0:0:0:
64,192,26968,1,0,0:0:0:0:
192,192,27218,1,0,0:0:0:0:
320,192,27468,1,0,0:0:0:0:
64,192,27718,1,0,0:0:0:0:
192,192,27718,1,0,0:0:0:0:
192,192,27968,1,0,0:0:0:0:
64,192,27968,1,0,0:0:0:0:
448,192,28218,1,0,0:0:0:0:
192,192,28468,1,0,0:0:0:0:
320,192,28718,1,0,0:0:0:0:
448,192,28718,1,0,0:0:0:0:
192,192,28968,1,0,0:0:0:0:
64,192,28968,1,0,0:0:0:0:
320,192,29218,1,0,0:0:0:0:
448,192,29218,1,0,0:0:0:0:
64,192,29468,1,0,0:0:0:0:
192,192,29718,1,0,0:0:0:0:
64,192,29718,1,0,0:0:0:0:
320,192,29968,1,0,0:0:0:0:
448,192,29968,128,0,30218:0:0:0:0:
64,192,30218,1,0,0:0:0:0:
320,192,30468,1,0,0:0:0:0:
64,192,30718,1,0,0:0:0:0:
320,192,30968,1,0,0:0:0:0:
192,192,30968,1,0,0:0:0:0:
448,192,31218,1,0,0:0:0:0:
192,192,31468,1,0,0:0:0:0:
320,192,31718,1,0,0:0:0:0:
448,192,31718,1,0,0:0:0:0:
320,192,31968,1,0,0:0:0:0:
448,192,31968,1,0,0:0:0:0:
64,192,32218,1,0,0:0:0:0:
320,192,32468,1,0,0:0:0:0:
192,192,32718,1,0,0:0:0:0:
64,192,32718,1,0,0:0:0:0:
448,192,32968,5,0,0:0:0:0:
320,192,32968,1,0,0:0:0:0:
192,192,33218,1,0,0:0:0:0:
64,192,33218,1,0,0:0:0:0:
192,192,33468,1,0,0:0:0:0:
64,192,33468,1,0,0:0:0:0:
320,192,33718,1,0,0:0:0:0:
448,192,33718,1,0,0:0:0:0:
320,192,33968,1,0,0:0:0:0:
448,192,33968,1,0,0:0:0:0:
64,192,33968,128,0,34468:0:0:0:0:
192,192,34218,128,0,34468:0:0:0:0:
448,192,34468,128,0,34718:0:0:0:0:
320,192,34718,128,0,34968:0:0:0:0:
192,192,34968,128,0,35218:0:0:0:0:
64,192,34968,1,0,0:0:0:0:
320,192,35218,128,0,35468:0:0:0:0:
64,192,35468,128,0,35718:0:0:0:0:
192,192,35718,128,0,35968:0:0:0:0:
448,192,35718,1,0,0:0:0:0:
448,192,35968,1,0,0:0:0:0:
64,192,35968,1,0,0:0:0:0:
320,192,36218,128,0,36468:0:0:0:0:
192,192,36468,128,0,36718:0:0:0:0:
448,192,36718,128,0,36968:0:0:0:0:
64,192,36718,1,0,0:0:0:0:
64,192,36968,1,0,0:0:0:0:
192,192,36968,128,0,37218:0:0:0:0:
320,192,37218,128,0,37468:0:0:0:0:
448,192,37218,1,0,0:0:0:0:
64,192,37468,128,0,37718:0:0:0:0:
448,192,37718,1,0,0:0:0:0:
192,192,37718,128,0,37968:0:0:0:0:
64,192,37968,1,0,0:0:0:0:
320,192,37968,128,0,38468:0:0:0:0:
192,192,38218,128,0,38468:0:0:0:0:
448,192,38468,128,0,38718:0:0:0:0:
320,192,38718,128,0,38968:0:0:0:0:
192,192,38968,128,0,39218:0:0:0:0:
64,192,38968,1,0,0:0:0:0:
320,192,39218,128,0,39468:0:0:0:0:
64,192,39468,128,0,39718:0:0:0:0:
192,192,39718,128,0,39968:0:0:0:0:
448,192,39718,1,0,0:0:0:0:
448,192,39968,1,0,0:0:0:0:
64,192,39968,1,0,0:0:0:0:
320,192,40218,128,0,40468:0:0:0:0:
192,192,40468,128,0,40718:0:0:0:0:
448,192,40718,128,0,40968:0:0:0:0:
64,192,40718,1,0,0:0:0:0:
64,192,40968,1,0,0:0:0:0:
192,192,40968,128,0,41218:0:0:0:0:
320,192,41218,128,0,41468:0:0:0:0:
448,192,41218,1,0,0:0:0:0:
64,192,41468,128,0,41718:0:0:0:0:
448,192,41718,1,0,0:0:0:0:
192,192,41718,128,0,41968:0:0:0:0:
448,192,41968,1,0,0:0:0:0:
64,192,41968,128,0,42468:0:0:0:0:
320,192,42218,128,0,42468:0:0:0:0:
448,192,42468,128,0,42968:0:0:0:0:
320,192,42718,128,0,43218:0:0:0:0:
192,192,42968,128,0,43468:0:0:0:0:
64,192,42968,1,0,0:0:0:0:
448,192,43218,128,0,43468:0:0:0:0:
320,192,43468,128,0,43718:0:0:0:0:
448,192,43718,128,0,43968:0:0:0:0:
64,192,43718,1,0,0:0:0:0:
64,192,43968,1,0,0:0:0:0:
320,192,43968,1,0,0:0:0:0:
192,192,44218,128,0,44468:0:0:0:0:
320,192,44468,128,0,44718:0:0:0:0:
64,192,44718,128,0,44968:0:0:0:0:
448,192,44718,1,0,0:0:0:0:
192,192,44968,128,0,45218:0:0:0:0:
448,192,44968,1,0,0:0:0:0:
64,192,45218,128,0,45468:0:0:0:0:
320,192,45218,1,0,0:0:0:0:
320,192,45468,128,0,45718:0:0:0:0:
192,192,45718,128,0,45968:0:0:0:0:
64,192,45718,1,0,0:0:0:0:
320,192,45968,128,0,46218:0:0:0:0:
448,192,45968,128,0,46468:0:0:0:0:
192,192,46218,128,0,46468:0:0:0:0:
64,192,46468,128,0,46718:0:0:0:0:
192,192,46718,128,0,46968:0:0:0:0:
320,192,46968,128,0,47218:0:0:0:0:
448,192,46968,1,0,0:0:0:0:
192,192,47218,128,0,47468:0:0:0:0:
320,192,47468,128,0,47718:0:0:0:0:
448,192,47718,128,0,47968:0:0:0:0:
64,192,47718,1,0,0:0:0:0:
64,192,47968,1,0,0:0:0:0:
192,192,47968,1,0,0:0:0:0:
320,192,48218,128,0,48468:0:0:0:0:
448,192,48468,128,0,48718:0:0:0:0:
192,192,48718,128,0,49218:0:0:0:0:
64,192,48718,1,0,0:0:0:0:
320,192,48968,128,0,49468:0:0:0:0:
448,192,48968,1,0,0:0:0:0:
64,192,49218,1,0,0:0:0:0:
448,192,49218,1,0,0:0:0:0:
192,192,49468,128,0,49843:0:0:0:0:
64,192,49468,128,0,49843:0:0:0:0:
320,192,49718,128,0,49843:0:0:0:0:
448,192,49718,128,0,49843:0:0:0:0:
64,192,49968,5,0,0:0:0:0:
448,192,49968,1,0,0:0:0:0:
320,192,49968,1,0,0:0:0:0:
192,192,50218,128,0,50718:0:0:0:0:
320,192,50468,128,0,50968:0:0:0:0:
448,192,50718,128,0,51218:0:0:0:0:
192,192,50968,128,0,51468:0:0:0:0:
64,192,50968,1,0,0:0:0:0:
64,192,51218,128,0,51468:0:0:0:0:
320,192,51468,128,0,51968:0:0:0:0:
64,192,51718,1,0,0:0:0:0:
448,192,51718,128,0,52218:0:0:0:0:
64,192,51968,1,0,0:0:0:0:
192,192,51968,1,0,0:0:0:0:
192,192,52218,128,0,52468:0:0:0:0:
64,192,52468,128,0,52718:0:0:0:0:
320,192,52718,128,0,52968:0:0:0:0:
448,192,52718,1,0,0:0:0:0:
64,192,52968,1,0,0:0:0:0:
192,192,52968,128,0,53218:0:0:0:0:
320,192,53218,1,0,0:0:0:0:
448,192,53218,128,0,53468:0:0:0:0:
192,192,53468,128,0,53718:0:0:0:0:
64,192,53718,128,0,53968:0:0:0:0:
448,192,53718,1,0,0:0:0:0:
448,192,53968,1,0,0:0:0:0:
192,192,53968,1,0,0:0:0:0:
320,192,54218,128,0,54718:0:0:0:0:
192,192,54468,128,0,54968:0:0:0:0:
64,192,54718,128,0,55218:0:0:0:0:
320,192,54968,1,0,0:0:0:0:
448,192,54968,128,0,55468:0:0:0:0:
192,192,55218,128,0,55468:0:0:0:0:
320,192,55468,128,0,55968:0:0:0:0:
448,192,55718,128,0,56218:0:0:0:0:
64,192,55718,1,0,0:0:0:0:
64,192,55968,1,0,0:0:0:0:
192,192,55968,1,0,0:0:0:0:
192,192,56218,128,0,56468:0:0:0:0:
320,192,56468,128,0,56718:0:0:0:0:
64,192,56718,128,0,56968:0:0:0:0:
448,192,56718,1,0,0:0:0:0:
320,192,56968,128,0,57218:0:0:0:0:
448,192,56968,1,0,0:0:0:0:
192,192,57218,128,0,57468:0:0:0:0:
64,192,57218,1,0,0:0:0:0:
448,192,57468,128,0,57718:0:0:0:0:
320,192,57718,128,0,57968:0:0:0:0:
64,192,57718,1,0,0:0:0:0:
64,192,57968,1,0,0:0:0:0:
448,192,57968,1,0,0:0:0:0:
192,192,58218,128,0,58468:0:0:0:0:
320,192,58468,128,0,58718:0:0:0:0:
448,192,58718,128,0,58968:0:0:0:0:
64,192,58968,1,0,0:0:0:0:
192,192,58968,128,0,59218:0:0:0:0:
320,192,59218,128,0,59468:0:0:0:0:
64,192,59468,128,0,59718:0:0:0:0:
192,192,59718,128,0,59968:0:0:0:0:
448,192,59718,1,0,0:0:0:0:
448,192,59968,1,0,0:0:0:0:
64,192,59968,1,0,0:0:0:0:
320,192,60218,128,0,60468:0:0:0:0:
192,192,60468,128,0,60718:0:0:0:0:
64,192,60718,128,0,60968:0:0:0:0:
448,192,60718,1,0,0:0:0:0:
320,192,60968,128,0,61218:0:0:0:0:
448,192,60968,1,0,0:0:0:0:
192,192,61218,128,0,61468:0:0:0:0:
64,192,61218,1,0,0:0:0:0:
448,192,61468,128,0,61718:0:0:0:0:
320,192,61718,128,0,61968:0:0:0:0:
64,192,61718,1,0,0:0:0:0:
448,192,61968,1,0,0:0:0:0:
192,192,61968,1,0,0:0:0:0:
64,192,62218,128,0,62468:0:0:0:0:
192,192,62468,128,0,62718:0:0:0:0:
64,192,62718,128,0,62968:0:0:0:0:
448,192,62968,1,0,0:0:0:0:
320,192,62968,128,0,63218:0:0:0:0:
192,192,63218,128,0,63468:0:0:0:0:
448,192,63468,128,0,63718:0:0:0:0:
320,192,63718,128,0,63968:0:0:0:0:
64,192,63718,1,0,0:0:0:0:
64,192,63968,1,0,0:0:0:0:
192,192,63968,128,0,64468:0:0:0:0:
320,192,64218,128,0,64718:0:0:0:0:
64,192,64468,128,0,64968:0:0:0:0:
448,192,64718,1,0,0:0:0:0:
192,192,64718,128,0,64968:0:0:0:0:
320,192,64968,128,0,65468:0:0:0:0:
448,192,64968,128,0,65468:0:0:0:0:
192,192,65218,1,0,0:0:0:0:
64,192,65218,1,0,0:0:0:0:
192,192,65468,128,0,65718:0:0:0:0:
64,192,65468,128,0,65968:0:0:0:0:
320,192,65718,1,0,0:0:0:0:
448,192,65718,1,0,0:0:0:0:
192,192,65968,1,0,0:0:0:0:
320,192,65968,1,0,0:0:0:0:
448,192,65968,1,0,0:0:0:0:
64,192,66218,128,0,66718:0:0:0:0:
192,192,66468,128,0,67218:0:0:0:0:
320,192,66718,128,0,66968:0:0:0:0:
64,192,66968,128,0,67468:0:0:0:0:
448,192,66968,128,0,67468:0:0:0:0:
320,192,67218,128,0,67968:0:0:0:0:
192,192,67468,128,0,67718:0:0:0:0:
448,192,67718,1,0,0:0:0:0:
64,192,67718,128,0,67968:0:0:0:0:
448,192,67968,1,0,0:0:0:0:
192,192,67968,1,0,0:0:0:0:
320,192,68218,128,0,69468:0:0:0:0:
448,192,68468,128,0,68718:0:0:0:0:
192,192,68718,128,0,68968:0:0:0:0:
64,192,68718,1,0,0:0:0:0:
448,192,68968,1,0,0:0:0:0:
64,192,68968,128,0,69718:0:0:0:0:
192,192,69218,1,0,0:0:0:0:
448,192,69218,128,0,69468:0:0:0:0:
192,192,69468,128,0,69718:0:0:0:0:
320,192,69718,128,0,69968:0:0:0:0:
448,192,69718,128,0,69968:0:0:0:0:
64,192,69968,1,0,0:0:0:0:
192,192,69968,1,0,0:0:0:0:
64,192,70218,128,0,70718:0:0:0:0:
192,192,70468,128,0,71218:0:0:0:0:
320,192,70718,128,0,70968:0:0:0:0:
64,192,70968,128,0,71468:0:0:0:0:
448,192,70968,128,0,71468:0:0:0:0:
320,192,71218,128,0,71968:0:0:0:0:
192,192,71468,128,0,71718:0:0:0:0:
448,192,71718,1,0,0:0:0:0:
64,192,71718,128,0,71968:0:0:0:0:
448,192,71968,1,0,0:0:0:0:
192,192,71968,1,0,0:0:0:0:
320,192,72218,128,0,73468:0:0:0:0:
448,192,72468,128,0,72718:0:0:0:0:
192,192,72718,128,0,72968:0:0:0:0:
64,192,72718,1,0,0:0:0:0:
448,192,72968,1,0,0:0:0:0:
64,192,72968,128,0,73718:0:0:0:0:
192,192,73218,1,0,0:0:0:0:
448,192,73218,128,0,73468:0:0:0:0:
192,192,73468,128,0,73718:0:0:0:0:
320,192,73718,128,0,73968:0:0:0:0:
448,192,73718,128,0,73968:0:0:0:0:
64,192,73968,1,0,0:0:0:0:
192,192,73968,1,0,0:0:0:0:
320,192,74218,128,0,74468:0:0:0:0:
192,192,74468,128,0,74718:0:0:0:0:
64,192,74718,128,0,74968:0:0:0:0:
448,192,74968,1,0,0:0:0:0:
320,192,74968,128,0,75218:0:0:0:0:
192,192,75218,128,0,75468:0:0:0:0:
64,192,75468,128,0,75718:0:0:0:0:
320,192,75718,128,0,75968:0:0:0:0:
448,192,75718,1,0,0:0:0:0:
192,192,75968,1,0,0:0:0:0:
64,192,75968,1,0,0:0:0:0:
192,192,76218,128,0,76468:0:0:0:0:
320,192,76468,128,0,76718:0:0:0:0:
64,192,76718,1,0,0:0:0:0:
448,192,76718,128,0,76968:0:0:0:0:
192,192,76968,128,0,77468:0:0:0:0:
64,192,76968,1,0,0:0:0:0:
320,192,77218,1,0,0:0:0:0:
448,192,77218,1,0,0:0:0:0:
448,192,77468,128,0,77718:0:0:0:0:
320,192,77718,128,0,77968:0:0:0:0:
64,192,77718,1,0,0:0:0:0:
64,192,77968,1,0,0:0:0:0:
448,192,77968,1,0,0:0:0:0:
192,192,78218,128,0,78718:0:0:0:0:
320,192,78468,128,0,78968:0:0:0:0:
64,192,78718,128,0,79218:0:0:0:0:
192,192,78968,128,0,79218:0:0:0:0:
448,192,78968,1,0,0:0:0:0:
320,192,79218,128,0,79968:0:0:0:0:
192,192,79468,128,0,79718:0:0:0:0:
64,192,79718,1,0,0:0:0:0:
448,192,79718,128,0,80218:0:0:0:0:
64,192,79968,1,0,0:0:0:0:
192,192,79968,128,0,80468:0:0:0:0:
320,192,80218,128,0,80468:0:0:0:0:
64,192,80468,128,0,80968:0:0:0:0:
192,192,80718,128,0,81218:0:0:0:0:
448,192,80718,1,0,0:0:0:0:
320,192,80968,1,0,0:0:0:0:
448,192,80968,128,0,81218:0:0:0:0:
320,192,81218,128,0,81468:0:0:0:0:
64,192,81218,128,0,81468:0:0:0:0:
192,192,81468,1,0,0:0:0:0:
448,192,81468,128,0,81968:0:0:0:0:
320,192,81718,128,0,81968:0:0:0:0:
64,192,81718,1,0,0:0:0:0:
192,192,81968,128,0,82468:0:0:0:0:
64,192,81968,128,0,82468:0:0:0:0:
320,192,82218,128,0,83718:0:0:0:0:
448,192,82468,128,0,83718:0:0:0:0:
64,192,82718,128,0,83218:0:0:0:0:
192,192,83218,128,0,83718:0:0:0:0:
64,192,83468,128,0,83718:0:0:0:0:
320,192,83968,128,0,84468:0:0:0:0:
448,192,83968,128,0,84468:0:0:0:0:
192,192,84218,128,0,85718:0:0:0:0:
64,192,84468,128,0,85718:0:0:0:0:
448,192,84718,128,0,85218:0:0:0:0:
320,192,85218,128,0,85718:0:0:0:0:
448,192,85468,128,0,85718:0:0:0:0:
192,192,85968,128,0,86468:0:0:0:0:
64,192,85968,128,0,86468:0:0:0:0:
320,192,86218,128,0,87718:0:0:0:0:
448,192,86468,128,0,87718:0:0:0:0:
64,192,86718,128,0,87218:0:0:0:0:
192,192,87218,128,0,87718:0:0:0:0:
64,192,87468,128,0,87718:0:0:0:0:
320,192,87968,128,0,88468:0:0:0:0:
448,192,87968,128,0,88468:0:0:0:0:
192,192,88218,128,0,88718:0:0:0:0:
64,192,88468,128,0,89218:0:0:0:0:
448,192,88718,128,0,88968:0:0:0:0:
192,192,88968,128,0,89218:0:0:0:0:
320,192,88968,1,0,0:0:0:0:
448,192,89218,128,0,89718:0:0:0:0:
192,192,89343,1,0,0:0:0:0:
64,192,89343,1,0,0:0:0:0:
320,192,89468,128,0,89718:0:0:0:0:
64,192,89718,1,0,0:0:0:0:
192,192,89718,128,0,89968:0:0:0:0:
320,192,89968,1,0,0:0:0:0:
448,192,89968,1,0,0:0:0:0:
64,192,89968,128,0,91468:0:0:0:0:
192,192,90218,1,0,0:0:0:0:
448,192,90468,1,0,0:0:0:0:
192,192,90718,1,0,0:0:0:0:
192,192,90968,1,0,0:0:0:0:
448,192,90968,1,0,0:0:0:0:
448,192,91218,128,0,91718:0:0:0:0:
320,192,91468,128,0,91718:0:0:0:0:
192,192,91718,1,0,0:0:0:0:
64,192,91718,128,0,92468:0:0:0:0:
320,192,91968,1,0,0:0:0:0:
448,192,91968,128,0,92718:0:0:0:0:
192,192,92218,1,0,0:0:0:0:
320,192,92468,1,0,0:0:0:0:
192,192,92718,1,0,0:0:0:0:
64,192,92718,128,0,93468:0:0:0:0:
448,192,92968,1,0,0:0:0:0:
192,192,92968,1,0,0:0:0:0:
448,192,93218,1,0,0:0:0:0:
320,192,93218,1,0,0:0:0:0:
320,192,93468,128,0,94218:0:0:0:0:
448,192,93718,128,0,93968:0:0:0:0:
64,192,93718,1,0,0:0:0:0:
64,192,93968,1,0,0:0:0:0:
192,192,93968,128,0,94718:0:0:0:0:
448,192,94218,1,0,0:0:0:0:
320,192,94468,1,0,0:0:0:0:
64,192,94718,128,0,95218:0:0:0:0:
320,192,94968,1,0,0:0:0:0:
448,192,94968,1,0,0:0:0:0:
192,192,95218,128,0,96218:0:0:0:0:
64,192,95468,1,0,0:0:0:0:
320,192,95718,1,0,0:0:0:0:
448,192,95718,1,0,0:0:0:0:
64,192,95968,1,0,0:0:0:0:
320,192,95968,1,0,0:0:0:0:
448,192,96218,128,0,96968:0:0:0:0:
64,192,96468,1,0,0:0:0:0:
192,192,96718,1,0,0:0:0:0:
320,192,96718,1,0,0:0:0:0:
320,192,96968,1,0,0:0:0:0:
64,192,96968,1,0,0:0:0:0:
448,192,97218,1,0,0:0:0:0:
64,192,97218,1,0,0:0:0:0:
320,192,97468,1,0,0:0:0:0:
192,192,97718,1,0,0:0:0:0:
64,192,97718,1,0,0:0:0:0:
448,192,97968,1,0,0:0:0:0:
320,192,97968,1,0,0:0:0:0:
64,192,97968,128,0,98468:0:0:0:0:
192,192,98218,128,0,98468:0:0:0:0:
448,192,98468,128,0,98968:0:0:0:0:
320,192,98718,128,0,98968:0:0:0:0:
64,192,98968,1,0,0:0:0:0:
192,192,98968,128,0,99218:0:0:0:0:
448,192,99218,128,0,99468:0:0:0:0:
192,192,99468,128,0,99968:0:0:0:0:
320,192,99718,1,0,0:0:0:0:
448,192,99718,1,0,0:0:0:0:
448,192,99968,1,0,0:0:0:0:
320,192,99968,1,0,0:0:0:0:
64,192,100218,128,0,100468:0:0:0:0:
192,192,100468,128,0,100718:0:0:0:0:
448,192,100718,1,0,0:0:0:0:
320,192,100718,128,0,100968:0:0:0:0:
192,192,100968,1,0,0:0:0:0:
64,192,100968,128,0,101468:0:0:0:0:
448,192,101218,1,0,0:0:0:0:
320,192,101218,128,0,101468:0:0:0:0:
192,192,101468,128,0,101968:0:0:0:0:
64,192,101718,1,0,0:0:0:0:
448,192,101718,128,0,101968:0:0:0:0:
64,192,101968,1,0,0:0:0:0:
320,192,101968,128,0,102468:0:0:0:0:
448,192,102218,128,0,102468:0:0:0:0:
192,192,102468,128,0,102968:0:0:0:0:
320,192,102718,128,0,102968:0:0:0:0:
448,192,102968,1,0,0:0:0:0:
64,192,102968,128,0,103218:0:0:0:0:
192,192,103218,128,0,103468:0:0:0:0:
320,192,103468,128,0,103968:0:0:0:0:
64,192,103718,1,0,0:0:0:0:
192,192,103718,1,0,0:0:0:0:
192,192,103968,1,0,0:0:0:0:
64,192,103968,1,0,0:0:0:0:
448,192,104218,128,0,104468:0:0:0:0:
192,192,104468,128,0,104718:0:0:0:0:
448,192,104718,1,0,0:0:0:0:
320,192,104718,128,0,104968:0:0:0:0:
64,192,104968,1,0,0:0:0:0:
192,192,104968,128,0,105468:0:0:0:0:
320,192,105218,1,0,0:0:0:0:
448,192,105218,128,0,105468:0:0:0:0:
64,192,105468,128,0,105968:0:0:0:0:
448,192,105718,1,0,0:0:0:0:
192,192,105718,128,0,105968:0:0:0:0:
448,192,105968,1,0,0:0:0:0:
320,192,105968,128,0,106468:0:0:0:0:
64,192,106218,128,0,106468:0:0:0:0:
192,192,106468,128,0,106968:0:0:0:0:
448,192,106718,128,0,106968:0:0:0:0:
320,192,106968,1,0,0:0:0:0:
64,192,106968,128,0,107218:0:0:0:0:
192,192,107218,128,0,107468:0:0:0:0:
320,192,107468,128,0,107968:0:0:0:0:
64,192,107718,1,0,0:0:0:0:
192,192,107718,1,0,0:0:0:0:
192,192,107968,1,0,0:0:0:0:
64,192,107968,1,0,0:0:0:0:
448,192,108218,128,0,108468:0:0:0:0:
192,192,108468,128,0,108718:0:0:0:0:
448,192,108718,1,0,0:0:0:0:
320,192,108718,128,0,108968:0:0:0:0:
64,192,108968,1,0,0:0:0:0:
192,192,108968,128,0,109468:0:0:0:0:
320,192,109218,1,0,0:0:0:0:
448,192,109218,128,0,109468:0:0:0:0:
64,192,109468,128,0,109968:0:0:0:0:
192,192,109718,128,0,109968:0:0:0:0:
448,192,109718,1,0,0:0:0:0:
320,192,109968,1,0,0:0:0:0:
448,192,109968,128,0,110468:0:0:0:0:
64,192,110218,128,0,110468:0:0:0:0:
320,192,110468,128,0,110718:0:0:0:0:
64,192,110718,128,0,111718:0:0:0:0:
320,192,110968,1,0,0:0:0:0:
192,192,110968,1,0,0:0:0:0:
448,192,111218,128,0,111468:0:0:0:0:
192,192,111468,128,0,111718:0:0:0:0:
320,192,111718,1,0,0:0:0:0:
448,192,111718,1,0,0:0:0:0:
320,192,111968,1,0,0:0:0:0:
448,192,111968,1,0,0:0:0:0:
64,192,112218,128,0,112468:0:0:0:0:
320,192,112468,128,0,112718:0:0:0:0:
64,192,112718,1,0,0:0:0:0:
192,192,112718,128,0,112968:0:0:0:0:
320,192,112968,1,0,0:0:0:0:
448,192,112968,128,0,113468:0:0:0:0:
192,192,113218,1,0,0:0:0:0:
64,192,113218,1,0,0:0:0:0:
64,192,113468,1,0,0:0:0:0:
192,192,113468,128,0,113968:0:0:0:0:
320,192,113718,1,0,0:0:0:0:
448,192,113718,1,0,0:0:0:0:
320,192,113968,1,0,0:0:0:0:
448,192,113968,1,0,0:0:0:0:
64,192,113968,128,0,114718:0:0:0:0:
192,192,114218,128,0,114468:0:0:0:0:
448,192,114468,128,0,115218:0:0:0:0:
320,192,114718,128,0,114968:0:0:0:0:
64,192,114968,1,0,0:0:0:0:
192,192,114968,128,0,115468:0:0:0:0:
320,192,115218,128,0,115718:0:0:0:0:
64,192,115468,128,0,115718:0:0:0:0:
192,192,115718,128,0,115968:0:0:0:0:
448,192,115718,1,0,0:0:0:0:
448,192,115968,1,0,0:0:0:0:
64,192,115968,1,0,0:0:0:0:
320,192,116218,128,0,116968:0:0:0:0:
192,192,116468,128,0,116718:0:0:0:0:
448,192,116718,128,0,116968:0:0:0:0:
64,192,116718,1,0,0:0:0:0:
64,192,116968,1,0,0:0:0:0:
192,192,116968,128,0,117718:0:0:0:0:
320,192,117218,128,0,117468:0:0:0:0:
448,192,117218,1,0,0:0:0:0:
64,192,117468,128,0,117718:0:0:0:0:
448,192,117718,1,0,0:0:0:0:
320,192,117718,128,0,117968:0:0:0:0:
448,192,117968,1,0,0:0:0:0:
64,192,117968,128,0,118468:0:0:0:0:
192,192,118218,128,0,118468:0:0:0:0:
448,192,118468,128,0,119218:0:0:0:0:
320,192,118718,128,0,118968:0:0:0:0:
64,192,118968,1,0,0:0:0:0:
192,192,118968,128,0,119468:0:0:0:0:
320,192,119218,128,0,119718:0:0:0:0:
64,192,119468,128,0,119718:0:0:0:0:
192,192,119718,128,0,119968:0:0:0:0:
448,192,119718,1,0,0:0:0:0:
448,192,119968,1,0,0:0:0:0:
64,192,119968,1,0,0:0:0:0:
320,192,120218,128,0,120968:0:0:0:0:
192,192,120468,128,0,120718:0:0:0:0:
448,192,120718,128,0,120968:0:0:0:0:
64,192,120718,1,0,0:0:0:0:
64,192,120968,1,0,0:0:0:0:
192,192,120968,128,0,121968:0:0:0:0:
320,192,121218,128,0,121468:0:0:0:0:
448,192,121218,1,0,0:0:0:0:
64,192,121468,128,0,121718:0:0:0:0:
448,192,121718,1,0,0:0:0:0:
320,192,121718,128,0,121968:0:0:0:0:
448,192,121968,1,0,0:0:0:0:
64,192,121968,128,0,122468:0:0:0:0:
320,192,122218,128,0,122468:0:0:0:0:
448,192,122468,128,0,122968:0:0:0:0:
320,192,122718,128,0,123218:0:0:0:0:
64,192,122968,1,0,0:0:0:0:
192,192,122968,128,0,123718:0:0:0:0:
448,192,123218,128,0,123468:0:0:0:0:
320,192,123468,128,0,123718:0:0:0:0:
448,192,123718,128,0,123968:0:0:0:0:
64,192,123718,1,0,0:0:0:0:
64,192,123968,1,0,0:0:0:0:
320,192,123968,1,0,0:0:0:0:
192,192,124218,128,0,124718:0:0:0:0:
320,192,124468,128,0,124968:0:0:0:0:
64,192,124718,128,0,124968:0:0:0:0:
448,192,124718,1,0,0:0:0:0:
448,192,124968,1,0,0:0:0:0:
192,192,124968,128,0,125468:0:0:0:0:
320,192,125218,1,0,0:0:0:0:
64,192,125218,128,0,125718:0:0:0:0:
320,192,125468,128,0,125718:0:0:0:0:
192,192,125718,128,0,125968:0:0:0:0:
448,192,125718,1,0,0:0:0:0:
64,192,125968,1,0,0:0:0:0:
320,192,125968,128,0,126468:0:0:0:0:
192,192,126218,128,0,126468:0:0:0:0:
64,192,126468,128,0,127218:0:0:0:0:
192,192,126718,128,0,126968:0:0:0:0:
320,192,126968,128,0,127218:0:0:0:0:
448,192,126968,1,0,0:0:0:0:
192,192,127218,128,0,127968:0:0:0:0:
320,192,127468,128,0,127718:0:0:0:0:
448,192,127718,128,0,127968:0:0:0:0:
64,192,127718,1,0,0:0:0:0:
64,192,127968,1,0,0:0:0:0:
320,192,127968,1,0,0:0:0:0:
320,192,128218,128,0,128468:0:0:0:0:
448,192,128468,128,0,128718:0:0:0:0:
192,192,128718,128,0,129218:0:0:0:0:
64,192,128718,1,0,0:0:0:0:
448,192,128968,1,0,0:0:0:0:
320,192,128968,128,0,129468:0:0:0:0:
64,192,129218,1,0,0:0:0:0:
448,192,129218,1,0,0:0:0:0:
64,192,129468,128,0,129843:0:0:0:0:
192,192,129468,128,0,129843:0:0:0:0:
320,192,129718,128,0,129843:0:0:0:0:
448,192,129718,128,0,129843:0:0:0:0:
64,192,129968,5,0,0:0:0:0:
448,192,129968,1,0,0:0:0:0:
320,192,129968,1,0,0:0:0:0:
192,192,130218,128,0,130718:0:0:0:0:
320,192,130468,128,0,130968:0:0:0:0:
448,192,130718,128,0,131218:0:0:0:0:
192,192,130968,128,0,131468:0:0:0:0:
64,192,130968,1,0,0:0:0:0:
64,192,131218,128,0,131468:0:0:0:0:
320,192,131468,128,0,131968:0:0:0:0:
64,192,131718,1,0,0:0:0:0:
448,192,131718,128,0,132218:0:0:0:0:
64,192,131968,1,0,0:0:0:0:
192,192,131968,1,0,0:0:0:0:
192,192,132218,128,0,132468:0:0:0:0:
64,192,132468,128,0,132718:0:0:0:0:
320,192,132718,128,0,132968:0:0:0:0:
448,192,132718,1,0,0:0:0:0:
64,192,132968,1,0,0:0:0:0:
192,192,132968,128,0,133218:0:0:0:0:
320,192,133218,1,0,0:0:0:0:
448,192,133218,128,0,133468:0:0:0:0:
192,192,133468,128,0,133718:0:0:0:0:
64,192,133718,128,0,133968:0:0:0:0:
448,192,133718,1,0,0:0:0:0:
448,192,133968,1,0,0:0:0:0:
192,192,133968,1,0,0:0:0:0:
320,192,134218,128,0,134718:0:0:0:0:
192,192,134468,128,0,134968:0:0:0:0:
64,192,134718,128,0,135218:0:0:0:0:
320,192,134968,1,0,0:0:0:0:
448,192,134968,128,0,135468:0:0:0:0:
192,192,135218,128,0,135468:0:0:0:0:
320,192,135468,128,0,135968:0:0:0:0:
448,192,135718,128,0,136218:0:0:0:0:
64,192,135718,1,0,0:0:0:0:
64,192,135968,1,0,0:0:0:0:
192,192,135968,1,0,0:0:0:0:
192,192,136218,128,0,136468:0:0:0:0:
320,192,136468,128,0,136718:0:0:0:0:
64,192,136718,128,0,136968:0:0:0:0:
448,192,136718,1,0,0:0:0:0:
320,192,136968,128,0,137218:0:0:0:0:
448,192,136968,1,0,0:0:0:0:
192,192,137218,128,0,137468:0:0:0:0:
64,192,137218,1,0,0:0:0:0:
448,192,137468,128,0,137718:0:0:0:0:
320,192,137718,128,0,137968:0:0:0:0:
64,192,137718,1,0,0:0:0:0:
64,192,137968,1,0,0:0:0:0:
448,192,137968,1,0,0:0:0:0:
192,192,138218,128,0,138468:0:0:0:0:
320,192,138468,128,0,138718:0:0:0:0:
448,192,138718,128,0,138968:0:0:0:0:
64,192,138968,1,0,0:0:0:0:
192,192,138968,128,0,139218:0:0:0:0:
320,192,139218,128,0,139468:0:0:0:0:
64,192,139468,128,0,139718:0:0:0:0:
192,192,139718,128,0,139968:0:0:0:0:
448,192,139718,1,0,0:0:0:0:
448,192,139968,1,0,0:0:0:0:
64,192,139968,1,0,0:0:0:0:
320,192,140218,128,0,140468:0:0:0:0:
192,192,140468,128,0,140718:0:0:0:0:
64,192,140718,128,0,140968:0:0:0:0:
448,192,140718,1,0,0:0:0:0:
320,192,140968,128,0,141218:0:0:0:0:
448,192,140968,1,0,0:0:0:0:
192,192,141218,128,0,141468:0:0:0:0:
64,192,141218,1,0,0:0:0:0:
448,192,141468,128,0,141718:0:0:0:0:
320,192,141718,128,0,141968:0:0:0:0:
64,192,141718,1,0,0:0:0:0:
448,192,141968,1,0,0:0:0:0:
192,192,141968,1,0,0:0:0:0:
64,192,142218,128,0,142468:0:0:0:0:
192,192,142468,128,0,142718:0:0:0:0:
64,192,142718,128,0,142968:0:0:0:0:
448,192,142968,1,0,0:0:0:0:
320,192,142968,128,0,143218:0:0:0:0:
192,192,143218,128,0,143468:0:0:0:0:
448,192,143468,128,0,143718:0:0:0:0:
320,192,143718,128,0,143968:0:0:0:0:
64,192,143718,1,0,0:0:0:0:
64,192,143968,1,0,0:0:0:0:
192,192,143968,128,0,144468:0:0:0:0:
320,192,144218,128,0,144718:0:0:0:0:
64,192,144468,128,0,144968:0:0:0:0:
448,192,144718,1,0,0:0:0:0:
192,192,144718,128,0,144968:0:0:0:0:
320,192,144968,128,0,145468:0:0:0:0:
448,192,144968,128,0,145468:0:0:0:0:
192,192,145218,1,0,0:0:0:0:
64,192,145218,1,0,0:0:0:0:
192,192,145468,128,0,145718:0:0:0:0:
64,192,145468,128,0,145968:0:0:0:0:
320,192,145718,1,0,0:0:0:0:
448,192,145718,1,0,0:0:0:0:
192,192,145968,1,0,0:0:0:0:
320,192,145968,1,0,0:0:0:0:
448,192,145968,1,0,0:0:0:0:
64,192,146218,128,0,146718:0:0:0:0:
192,192,146468,128,0,147218:0:0:0:0:
320,192,146718,128,0,146968:0:0:0:0:
64,192,146968,128,0,147468:0:0:0:0:
448,192,146968,128,0,147468:0:0:0:0:
320,192,147218,128,0,147968:0:0:0:0:
192,192,147468,128,0,147718:0:0:0:0:
448,192,147718,1,0,0:0:0:0:
64,192,147718,128,0,147968:0:0:0:0:
448,192,147968,1,0,0:0:0:0:
192,192,147968,1,0,0:0:0:0:
320,192,148218,128,0,149468:0:0:0:0:
448,192,148468,128,0,148718:0:0:0:0:
192,192,148718,128,0,148968:0:0:0:0:
64,192,148718,1,0,0:0:0:0:
448,192,148968,1,0,0:0:0:0:
64,192,148968,128,0,149718:0:0:0:0:
192,192,149218,1,0,0:0:0:0:
448,192,149218,128,0,149468:0:0:0:0:
192,192,149468,128,0,149718:0:0:0:0:
320,192,149718,128,0,149968:0:0:0:0:
448,192,149718,128,0,149968:0:0:0:0:
64,192,149968,1,0,0:0:0:0:
192,192,149968,1,0,0:0:0:0:
64,192,150218,128,0,150718:0:0:0:0:
192,192,150468,128,0,151218:0:0:0:0:
320,192,150718,128,0,150968:0:0:0:0:
64,192,150968,128,0,151468:0:0:0:0:
448,192,150968,128,0,151468:0:0:0:0:
320,192,151218,128,0,151968:0:0:0:0:
192,192,151468,128,0,151718:0:0:0:0:
448,192,151718,1,0,0:0:0:0:
64,192,151718,128,0,151968:0:0:0:0:
448,192,151968,1,0,0:0:0:0:
192,192,151968,1,0,0:0:0:0:
320,192,152218,128,0,153468:0:0:0:0:
448,192,152468,128,0,152718:0:0:0:0:
192,192,152718,128,0,152968:0:0:0:0:
64,192,152718,1,0,0:0:0:0:
448,192,152968,1,0,0:0:0:0:
64,192,152968,128,0,153718:0:0:0:0:
192,192,153218,1,0,0:0:0:0:
448,192,153218,128,0,153468:0:0:0:0:
192,192,153468,128,0,153718:0:0:0:0:
320,192,153718,128,0,153968:0:0:0:0:
448,192,153718,128,0,153968:0:0:0:0:
64,192,153968,1,0,0:0:0:0:
192,192,153968,1,0,0:0:0:0:
320,192,154218,128,0,154468:0:0:0:0:
192,192,154468,128,0,154718:0:0:0:0:
64,192,154718,128,0,154968:0:0:0:0:
448,192,154968,1,0,0:0:0:0:
320,192,154968,128,0,155218:0:0:0:0:
192,192,155218,128,0,155468:0:0:0:0:
64,192,155468,128,0,155718:0:0:0:0:
320,192,155718,128,0,155968:0:0:0:0:
448,192,155718,1,0,0:0:0:0:
192,192,155968,1,0,0:0:0:0:
64,192,155968,1,0,0:0:0:0:
192,192,156218,128,0,156468:0:0:0:0:
320,192,156468,128,0,156718:0:0:0:0:
64,192,156718,1,0,0:0:0:0:
448,192,156718,128,0,156968:0:0:0:0:
320,192,156968,128,0,157218:0:0:0:0:
192,192,156968,1,0,0:0:0:0:
192,192,157218,128,0,157468:0:0:0:0:
64,192,157218,1,0,0:0:0:0:
448,192,157468,128,0,157718:0:0:0:0:
320,192,157718,128,0,157968:0:0:0:0:
64,192,157718,1,0,0:0:0:0:
64,192,157968,1,0,0:0:0:0:
448,192,157968,1,0,0:0:0:0:
192,192,158218,128,0,158718:0:0:0:0:
320,192,158468,128,0,158968:0:0:0:0:
64,192,158718,128,0,159218:0:0:0:0:
192,192,158968,128,0,159218:0:0:0:0:
448,192,158968,1,0,0:0:0:0:
320,192,159218,128,0,159968:0:0:0:0:
192,192,159468,128,0,159718:0:0:0:0:
64,192,159718,1,0,0:0:0:0:
448,192,159718,128,0,160218:0:0:0:0:
64,192,159968,1,0,0:0:0:0:
192,192,159968,128,0,160468:0:0:0:0:
320,192,160218,128,0,160468:0:0:0:0:
64,192,160468,128,0,160968:0:0:0:0:
192,192,160718,128,0,161218:0:0:0:0:
448,192,160718,1,0,0:0:0:0:
320,192,160968,1,0,0:0:0:0:
448,192,160968,128,0,161218:0:0:0:0:
320,192,161218,128,0,161468:0:0:0:0:
64,192,161218,128,0,161718:0:0:0:0:
192,192,161468,1,0,0:0:0:0:
448,192,161468,128,0,162468:0:0:0:0:
320,192,161718,128,0,161968:0:0:0:0:
192,192,161718,1,0,0:0:0:0:
192,192,161968,128,0,162968:0:0:0:0:
64,192,161968,128,0,162468:0:0:0:0:
320,192,162468,128,0,163718:0:0:0:0:
64,192,162718,128,0,163718:0:0:0:0:
192,192,163218,128,0,163718:0:0:0:0:
320,192,163968,128,0,164468:0:0:0:0:
448,192,163968,128,0,164468:0:0:0:0:
192,192,164218,128,0,165218:0:0:0:0:
64,192,164468,128,0,165718:0:0:0:0:
448,192,164718,128,0,165718:0:0:0:0:
320,192,164718,128,0,164968:0:0:0:0:
320,192,165218,128,0,165718:0:0:0:0:
192,192,165468,128,0,165718:0:0:0:0:
192,192,165968,128,0,166468:0:0:0:0:
64,192,165968,128,0,166468:0:0:0:0:
320,192,166218,128,0,167718:0:0:0:0:
448,192,166468,128,0,167718:0:0:0:0:
64,192,166718,128,0,167718:0:0:0:0:
192,192,167218,128,0,167718:0:0:0:0:
320,192,167968,128,0,168468:0:0:0:0:
448,192,167968,128,0,168468:0:0:0:0:
192,192,168218,128,0,169218:0:0:0:0:
64,192,168468,128,0,169718:0:0:0:0:
448,192,168718,128,0,169718:0:0:0:0:
320,192,168718,128,0,168968:0:0:0:0:
320,192,169218,128,0,169718:0:0:0:0:
192,192,169468,128,0,169718:0:0:0:0:
192,192,169968,128,0,170468:0:0:0:0:
64,192,169968,128,0,170468:0:0:0:0:
320,192,170218,128,0,171718:0:0:0:0:
448,192,170468,128,0,171718:0:0:0:0:
64,192,170718,128,0,171218:0:0:0:0:
192,192,171218,128,0,171468:0:0:0:0:
64,192,171468,128,0,172218:0:0:0:0:
192,192,171718,128,0,171968:0:0:0:0:
448,192,171968,128,0,172468:0:0:0:0:
320,192,171968,128,0,172468:0:0:0:0:
192,192,172218,128,0,173718:0:0:0:0:
64,192,172468,128,0,173718:0:0:0:0:
320,192,172718,128,0,172968:0:0:0:0:
448,192,172718,128,0,173718:0:0:0:0:
320,192,173218,128,0,173718:0:0:0:0:
64,192,173968,128,0,174468:0:0:0:0:
192,192,173968,128,0,174468:0:0:0:0:
320,192,174218,128,0,175718:0:0:0:0:
448,192,174468,128,0,175718:0:0:0:0:
64,192,174718,128,0,175718:0:0:0:0:
192,192,175218,128,0,175718:0:0:0:0:
320,192,175968,128,0,176468:0:0:0:0:
448,192,175968,128,0,176468:0:0:0:0:
192,192,176218,128,0,177218:0:0:0:0:
64,192,176468,128,0,177718:0:0:0:0:
320,192,176718,128,0,177718:0:0:0:0:
448,192,176718,128,0,179968:0:0:0:0:
192,192,177468,128,0,179968:0:0:0:0:
64,192,177968,128,0,179968:0:0:0:0:
320,192,177968,128,0,179968:0:0:0:0:
