osu file format v14

[General]
AudioFilename: audio.mp3
AudioLeadIn: 0
PreviewTime: 106971
Countdown: 0
SampleSet: Soft
StackLeniency: 0.7
Mode: 3
LetterboxInBreaks: 0
SpecialStyle: 0
WidescreenStoryboard: 1

[Editor]
DistanceSpacing: 0.8
BeatDivisor: 8
GridSize: 32
TimelineZoom: 2

[Metadata]
Title:OKUPA
TitleUnicode:OKUPA
Artist:WOS
ArtistUnicode:WOS
Creator:Shiro_122
Version:4K | Facil
Source:
Tags:hip-hop hiphop hip hop rap spanish espaƱol caravana doguito dale play records WOSDS3 Argentina Peter Ehrlich Agencia Picante Facu Yalve Evlay beats chrisse pairoxd
BeatmapID:4342016
BeatmapSetID:2057862

[Difficulty]
HPDrainRate:6.5
CircleSize:4
OverallDifficulty:6.5
ApproachRate:5
SliderMultiplier:1.4
SliderTickRate:1

[Events]
//Background and Video events
0,0,"OKUPA.jpg",0,0
//Break Periods
//Storyboard Layer 0 (Background)
//Storyboard Layer 1 (Fail)
//Storyboard Layer 2 (Pass)
//Storyboard Layer 3 (Foreground)
//Storyboard Layer 4 (Overlay)
//Storyboard Sound Samples
Sample,33595,0,"Clap.wav",40
Sample,34261,0,"Clap.wav",40
Sample,35595,0,"Clap.wav",40
Sample,35761,0,"Clap.wav",40
Sample,36261,0,"Clap.wav",40
Sample,36928,0,"Clap.wav",40
Sample,37595,0,"Clap.wav",40
Sample,37761,0,"hat.wav",40
Sample,38428,0,"Clap.wav",40
Sample,38928,0,"Clap.wav",40
Sample,39095,0,"snare.wav",35
Sample,39595,0,"Clap.wav",40
Sample,40261,0,"Clap.wav",40
Sample,41095,0,"Clap.wav",40
Sample,41595,0,"Clap.wav",40
Sample,41761,0,"snare.wav",35
Sample,42261,0,"Clap.wav",40
Sample,42928,0,"Clap.wav",40
Sample,43595,0,"Clap.wav",40
Sample,43761,0,"Clap.wav",40
Sample,44261,0,"Clap.wav",40
Sample,44928,0,"Clap.wav",40
Sample,46261,0,"Clap.wav",40
Sample,46428,0,"Clap.wav",40
Sample,46928,0,"Clap.wav",40
Sample,47595,0,"Clap.wav",40
Sample,48261,0,"Clap.wav",40
Sample,48428,0,"hat.wav",40
Sample,49095,0,"Clap.wav",40
Sample,49595,0,"Clap.wav",40
Sample,49761,0,"snare.wav",35
Sample,50261,0,"Clap.wav",40
Sample,50928,0,"Clap.wav",40
Sample,51761,0,"Clap.wav",40
Sample,52261,0,"Clap.wav",40
Sample,52428,0,"snare.wav",35
Sample,54428,0,"Clap.wav",40
Sample,54928,0,"Clap.wav",40
Sample,56261,0,"Clap.wav",40
Sample,57095,0,"Clap.wav",40
Sample,57595,0,"Clap.wav",40
Sample,58928,0,"Clap.wav",40
Sample,59761,0,"Clap.wav",40
Sample,60261,0,"Clap.wav",40
Sample,60428,0,"snare.wav",35
Sample,61095,0,"Clap.wav",40
Sample,62928,0,"Clap.wav",40
Sample,64261,0,"Clap.wav",40
Sample,108261,0,"Clap.wav",40
Sample,108928,0,"Clap.wav",40
Sample,110261,0,"Clap.wav",40
Sample,110428,0,"Clap.wav",40
Sample,110928,0,"Clap.wav",40
Sample,111595,0,"Clap.wav",40
Sample,112261,0,"Clap.wav",40
Sample,112428,0,"hat.wav",40
Sample,113095,0,"Clap.wav",40
Sample,113595,0,"Clap.wav",40
Sample,113761,0,"snare.wav",35
Sample,114261,0,"Clap.wav",40
Sample,114928,0,"Clap.wav",40
Sample,115761,0,"Clap.wav",40
Sample,116261,0,"Clap.wav",40
Sample,116428,0,"snare.wav",35
Sample,116928,0,"Clap.wav",40
Sample,117595,0,"Clap.wav",40
Sample,118261,0,"Clap.wav",40
Sample,118428,0,"Clap.wav",40
Sample,118928,0,"Clap.wav",40
Sample,119595,0,"Clap.wav",40
Sample,120261,0,"Clap.wav",40
Sample,120928,0,"Clap.wav",40
Sample,121095,0,"Clap.wav",40
Sample,121595,0,"Clap.wav",40
Sample,122261,0,"Clap.wav",40
Sample,122928,0,"Clap.wav",40
Sample,123095,0,"hat.wav",40
Sample,123761,0,"Clap.wav",40
Sample,124261,0,"Clap.wav",40
Sample,124428,0,"snare.wav",35
Sample,124928,0,"Clap.wav",40
Sample,125595,0,"Clap.wav",40
Sample,126428,0,"Clap.wav",40
Sample,126928,0,"Clap.wav",40
Sample,127095,0,"snare.wav",35
Sample,129095,0,"Clap.wav",40
Sample,129595,0,"Clap.wav",40
Sample,130928,0,"Clap.wav",40
Sample,131761,0,"Clap.wav",40
Sample,132261,0,"Clap.wav",40
Sample,133595,0,"Clap.wav",40
Sample,134428,0,"Clap.wav",40
Sample,134928,0,"Clap.wav",40
Sample,135095,0,"snare.wav",35
Sample,135761,0,"Clap.wav",40
Sample,137595,0,"Clap.wav",40
Sample,138928,0,"Clap.wav",40

[TimingPoints]
595,666.666666666667,4,2,1,50,1,0
32595,-100,4,2,1,50,0,1
53261,-100,4,2,1,50,0,0
107261,-100,4,2,1,50,0,1
127928,-100,4,2,1,50,0,0

[HitObjects]
320,192,595,128,0,928:0:0:0:0:
64,192,928,1,0,0:0:0:40:Clap.wav
192,192,1095,1,0,0:0:0:40:Clap.wav
448,192,1595,128,0,1928:0:0:0:40:Clap.wav
64,192,1928,128,0,2261:0:0:0:0:
320,192,2261,1,0,0:0:0:40:Clap.wav
192,192,2428,1,0,0:0:0:40:Clap.wav
320,192,2928,128,0,3261:0:0:0:40:Clap.wav
64,192,3261,128,0,3595:0:0:0:0:
320,192,3595,1,0,0:0:0:40:Clap.wav
192,192,3761,1,0,0:0:0:40:Clap.wav
192,192,4261,1,0,0:0:0:40:Clap.wav
64,192,4428,1,0,0:0:0:0:
448,192,4595,128,0,4928:0:0:0:0:
64,192,4928,1,0,0:0:0:40:Clap.wav
192,192,5095,128,0,5428:0:0:0:40:Clap.wav
448,192,5428,1,0,0:0:0:0:
320,192,5595,128,0,5928:0:0:0:40:Clap.wav
64,192,5928,128,0,6261:0:0:0:0:
448,192,6261,1,0,0:0:0:40:Clap.wav
192,192,6428,1,0,0:0:0:40:Clap.wav
448,192,6928,128,0,7261:0:0:0:40:Clap.wav
64,192,7261,128,0,7595:0:0:0:0:
192,192,7595,1,0,0:0:0:40:Clap.wav
320,192,7761,1,0,0:0:0:40:Clap.wav
64,192,7928,128,0,8261:0:0:0:0:
448,192,8261,1,0,0:0:0:40:Clap.wav
320,192,8428,1,0,0:0:0:0:
192,192,8595,128,0,8928:0:0:0:0:
64,192,8928,1,0,0:0:0:40:Clap.wav
320,192,9095,1,0,0:0:0:40:Clap.wav
448,192,9261,1,0,0:0:0:0:
64,192,9595,1,0,0:0:0:40:Clap.wav
448,192,9928,128,0,10261:0:0:0:0:
320,192,10261,1,0,0:0:0:40:Clap.wav
192,192,10428,1,0,0:0:0:40:Clap.wav
64,192,10595,128,0,11261:0:0:0:0:
448,192,11261,128,0,11761:0:0:0:0:
320,192,11761,1,0,0:0:0:35:snare.wav
192,192,11928,128,0,12261:0:0:0:40:Clap.wav
448,192,12261,1,0,0:0:0:35:snare.wav
64,192,12428,1,0,0:0:0:0:
320,192,12595,128,0,12928:0:0:0:0:
64,192,12928,1,0,0:0:0:0:
192,192,13095,1,0,0:0:0:35:snare.wav
320,192,13261,128,0,13595:0:0:0:40:Clap.wav
192,192,13595,128,0,13928:0:0:0:35:snare.wav
448,192,13928,1,0,0:0:0:0:
320,192,14095,1,0,0:0:0:0:
64,192,14261,128,0,14595:0:0:0:0:
192,192,14595,1,0,0:0:0:40:Clap.wav
64,192,14928,1,0,0:0:0:35:snare.wav
192,192,15095,1,0,0:0:0:0:
320,192,15261,128,0,15595:0:0:0:0:
448,192,15595,128,0,15928:0:0:0:0:
64,192,15928,128,0,16261:0:0:0:40:Clap.wav
320,192,16261,1,0,0:0:0:35:snare.wav
448,192,16595,1,0,0:0:0:0:
64,192,16761,1,0,0:0:0:0:
192,192,16928,128,0,17261:0:0:0:0:
448,192,17261,1,0,0:0:0:40:Clap.wav
320,192,17428,1,0,0:0:0:0:
64,192,17595,128,0,17928:0:0:0:35:snare.wav
192,192,17928,1,0,0:0:0:0:
320,192,18095,128,0,18428:0:0:0:0:
64,192,18428,1,0,0:0:0:35:snare.wav
448,192,18595,1,0,0:0:0:40:Clap.wav
192,192,18761,128,0,19095:0:0:0:0:
64,192,19261,1,0,0:0:0:0:
192,192,19428,1,0,0:0:0:0:
448,192,19595,128,0,19928:0:0:0:0:
320,192,19928,1,0,0:0:0:40:Clap.wav
192,192,20095,1,0,0:0:0:0:
64,192,20261,1,0,0:0:0:35:snare.wav
448,192,20428,1,0,0:0:0:0:
320,192,20595,128,0,20928:0:0:0:0:
192,192,20928,128,0,21261:0:0:0:0:
64,192,21261,1,0,0:0:0:40:Clap.wav
448,192,21428,128,0,21761:0:0:0:0:
64,192,21761,1,0,0:0:0:0:
320,192,22428,1,0,0:0:0:35:snare.wav
448,192,22595,1,0,0:0:0:40:Clap.wav
320,192,22928,1,0,0:0:0:35:snare.wav
192,192,23095,1,0,0:0:0:0:
64,192,23261,128,0,23595:0:0:0:0:
448,192,23595,1,0,0:0:0:0:
192,192,23761,1,0,0:0:0:35:snare.wav
320,192,23928,128,0,24261:0:0:0:40:Clap.wav
192,192,24261,128,0,24595:0:0:0:35:snare.wav
448,192,24595,128,0,24928:0:0:0:0:
64,192,24928,1,0,0:0:0:0:
320,192,25095,1,0,0:0:0:35:snare.wav
192,192,25261,128,0,25595:0:0:0:40:Clap.wav
320,192,25595,128,0,25928:0:0:0:35:snare.wav
64,192,25928,128,0,26261:0:0:0:0:
192,192,26261,1,0,0:0:0:0:
320,192,26428,1,0,0:0:0:35:snare.wav
448,192,26595,128,0,26928:0:0:0:40:Clap.wav
192,192,26928,128,0,27261:0:0:0:35:snare.wav
192,192,27761,1,0,0:0:0:35:snare.wav
320,192,27928,1,0,0:0:0:40:Clap.wav
64,192,28095,1,0,0:0:0:0:
448,192,28261,128,0,28595:0:0:0:35:snare.wav
192,192,28595,1,0,0:0:0:0:
64,192,28761,1,0,0:0:0:0:
320,192,28928,128,0,29261:0:0:0:0:
448,192,29261,128,0,29595:0:0:0:40:Clap.wav
192,192,29595,128,0,29928:0:0:0:35:snare.wav
320,192,29928,1,0,0:0:0:0:
448,192,30095,1,0,0:0:0:0:
64,192,30261,1,0,0:0:0:0:
192,192,30428,1,0,0:0:0:35:snare.wav
320,192,30595,128,0,30928:0:0:0:40:Clap.wav
448,192,30928,128,0,31261:0:0:0:35:snare.wav
64,192,31428,1,0,0:0:0:50:Tom3.wav
192,192,31428,1,0,0:0:0:0:
320,192,31761,1,0,0:0:0:50:Tom3.wav
64,192,31928,1,0,0:0:0:50:Tom3.wav
448,192,31928,1,0,0:0:0:0:
192,192,32261,128,0,32595:0:0:0:50:Tom3.wav
320,192,32595,128,6,32928:0:0:0:0:
448,192,32595,1,0,0:0:0:0:
64,192,32928,1,0,0:0:0:40:Clap.wav
192,192,33095,1,0,0:0:0:40:Clap.wav
320,192,33261,1,8,0:0:0:0:
448,192,33261,1,0,0:0:0:0:
64,192,33595,128,0,33928:0:0:0:40:hat.wav
448,192,33928,128,2,34261:0:0:0:0:
320,192,34261,1,0,0:0:0:40:hat.wav
192,192,34428,1,0,0:0:0:40:hat.wav
64,192,34595,128,8,35261:0:0:0:0:
448,192,34595,1,0,0:0:0:0:
192,192,35261,128,2,35595:0:0:0:0:
448,192,35595,1,0,0:0:0:40:hat.wav
320,192,35761,1,0,0:0:0:40:hat.wav
64,192,35928,1,8,0:0:0:0:
192,192,35928,1,0,0:0:0:0:
448,192,36261,128,0,36595:0:0:0:40:hat.wav
64,192,36595,128,2,36928:0:0:0:0:
192,192,36928,128,0,37261:0:0:0:40:hat.wav
448,192,37261,128,8,37595:0:0:0:0:
320,192,37261,1,0,0:0:0:0:
64,192,37595,1,0,0:0:0:40:hat.wav
192,192,37761,1,2,0:0:0:0:
320,192,37928,128,2,38428:0:0:0:0:
64,192,38428,128,0,38928:0:0:0:40:hat.wav
448,192,38928,1,0,0:0:0:40:hat.wav
320,192,39095,1,0,0:0:0:40:hat.wav
192,192,39261,128,2,39595:0:0:0:0:
448,192,39595,128,0,39928:0:0:0:40:hat.wav
64,192,39928,128,8,40261:0:0:0:0:
192,192,39928,1,0,0:0:0:0:
320,192,40261,1,0,0:0:0:40:hat.wav
192,192,40595,128,2,41095:0:0:0:0:
448,192,41095,128,0,41595:0:0:0:40:hat.wav
64,192,41595,1,0,0:0:0:40:hat.wav
192,192,41761,1,0,0:0:0:40:hat.wav
320,192,41928,128,2,42261:0:0:0:0:
64,192,42261,1,0,0:0:0:40:hat.wav
448,192,42595,1,8,0:0:0:0:
320,192,42595,1,0,0:0:0:0:
192,192,42928,128,0,43261:0:0:0:40:hat.wav
320,192,43261,128,2,43595:0:0:0:0:
64,192,43595,1,0,0:0:0:40:hat.wav
192,192,43761,1,0,0:0:0:40:hat.wav
320,192,43928,1,8,0:0:0:0:
448,192,43928,1,0,0:0:0:0:
64,192,44261,128,0,44595:0:0:0:40:hat.wav
448,192,44595,128,2,44928:0:0:0:0:
320,192,44928,1,0,0:0:0:40:hat.wav
192,192,45095,1,0,0:0:0:40:hat.wav
64,192,45261,128,8,45595:0:0:0:0:
448,192,45261,1,0,0:0:0:0:
320,192,45595,1,0,0:0:0:40:hat.wav
192,192,45928,128,2,46261:0:0:0:0:
448,192,46261,1,0,0:0:0:40:hat.wav
320,192,46428,1,0,0:0:0:40:hat.wav
64,192,46595,1,8,0:0:0:0:
192,192,46595,1,0,0:0:0:0:
448,192,46928,128,0,47261:0:0:0:40:hat.wav
64,192,47261,128,2,47595:0:0:0:0:
192,192,47595,128,0,47928:0:0:0:40:hat.wav
448,192,47928,128,8,48261:0:0:0:0:
320,192,47928,1,0,0:0:0:0:
64,192,48261,1,0,0:0:0:40:hat.wav
192,192,48428,1,2,0:0:0:0:
320,192,48595,128,2,49095:0:0:0:0:
64,192,49095,128,0,49595:0:0:0:40:hat.wav
448,192,49595,1,0,0:0:0:40:hat.wav
320,192,49761,1,0,0:0:0:40:hat.wav
192,192,49928,128,2,50261:0:0:0:0:
448,192,50261,128,0,50595:0:0:0:40:hat.wav
64,192,50595,128,8,50928:0:0:0:0:
192,192,50595,1,0,0:0:0:0:
320,192,50928,1,0,0:0:0:40:hat.wav
192,192,51261,128,2,51761:0:0:0:0:
448,192,51761,128,0,52261:0:0:0:40:hat.wav
64,192,52261,1,0,0:0:0:40:hat.wav
192,192,52428,1,0,0:0:0:40:hat.wav
320,192,52595,1,0,0:0:0:0:
448,192,52761,1,0,0:0:0:50:Tom3.wav
320,192,53095,1,0,0:0:0:50:Tom3.wav
64,192,53261,1,0,0:0:0:50:Tom3.wav
192,192,53261,1,0,0:0:0:40:Clap.wav
320,192,53595,1,0,0:0:0:50:Tom3.wav
448,192,53595,1,0,0:0:0:0:
64,192,53928,1,4,0:0:0:0:
192,192,53928,1,2,0:0:0:0:
320,192,54261,1,0,0:0:0:40:hat.wav
192,192,54428,1,0,0:0:0:40:hat.wav
64,192,54595,1,8,0:0:0:0:
448,192,54595,128,0,54928:0:0:0:0:
64,192,54928,128,0,55261:0:0:0:40:hat.wav
320,192,55261,128,2,55595:0:0:0:0:
192,192,55595,1,0,0:0:0:40:hat.wav
448,192,55928,1,8,0:0:0:0:
320,192,55928,1,0,0:0:0:0:
64,192,56261,1,0,0:0:0:40:hat.wav
320,192,56595,1,2,0:0:0:0:
64,192,56928,1,0,0:0:0:40:hat.wav
192,192,57095,1,0,0:0:0:40:hat.wav
320,192,57261,1,8,0:0:0:0:
448,192,57261,128,0,57595:0:0:0:0:
64,192,57595,128,0,57928:0:0:0:40:hat.wav
320,192,57928,128,2,58261:0:0:0:0:
448,192,58261,128,0,58595:0:0:0:40:hat.wav
64,192,58595,128,8,58928:0:0:0:0:
192,192,58595,1,0,0:0:0:0:
320,192,58928,128,0,59261:0:0:0:40:hat.wav
64,192,59261,1,2,0:0:0:0:
192,192,59595,1,0,0:0:0:40:hat.wav
320,192,59761,1,0,0:0:0:40:hat.wav
64,192,59928,1,8,0:0:0:0:
448,192,59928,1,0,0:0:0:0:
320,192,60261,1,0,0:0:0:40:hat.wav
192,192,60428,1,0,0:0:0:40:hat.wav
448,192,60595,128,2,60928:0:0:0:0:
320,192,60928,1,0,0:0:0:40:hat.wav
192,192,61095,1,0,0:0:0:40:hat.wav
320,192,61595,1,0,0:0:0:0:
192,192,61761,1,0,0:0:0:0:
448,192,61928,128,2,62261:0:0:0:0:
320,192,62261,128,0,62595:0:0:0:40:hat.wav
64,192,62595,128,8,62928:0:0:0:0:
192,192,62595,1,0,0:0:0:0:
448,192,62928,128,0,63261:0:0:0:40:hat.wav
64,192,63261,1,0,0:0:0:40:hat.wav
320,192,63595,1,0,0:0:0:40:hat.wav
64,192,63928,128,0,64261:0:0:0:40:Clap.wav
448,192,63928,1,0,0:0:0:0:
192,192,64261,128,0,64595:0:0:0:40:hat.wav
320,192,64595,1,2,0:0:0:0:
448,192,64595,128,0,64928:0:0:0:0:
64,192,64928,128,0,65261:0:0:0:0:
320,192,65261,128,2,65595:0:0:0:0:
192,192,65595,1,0,0:0:0:40:Clap.wav
448,192,65761,1,0,0:0:0:0:
64,192,65928,128,2,66261:0:0:0:0:
320,192,66261,128,0,66595:0:0:0:0:
192,192,66595,128,2,66928:0:0:0:0:
448,192,66928,128,0,67261:0:0:0:40:Clap.wav
320,192,67261,128,2,67595:0:0:0:0:
64,192,67595,1,0,0:0:0:0:
192,192,67761,1,0,0:0:0:40:Clap.wav
448,192,67928,128,2,68261:0:0:0:0:
64,192,68261,1,0,0:0:0:40:Clap.wav
192,192,68428,1,0,0:0:0:0:
320,192,68595,128,2,68928:0:0:0:0:
64,192,68928,128,0,69261:0:0:0:0:
448,192,69261,1,2,0:0:0:0:
320,192,69261,1,0,0:0:0:0:
192,192,69595,1,2,0:0:0:0:
64,192,69595,1,0,0:0:0:0:
448,192,69928,1,2,0:0:0:0:
320,192,69928,128,0,70261:0:0:0:0:
192,192,70261,128,0,70595:0:0:0:0:
448,192,70595,1,2,0:0:0:0:
320,192,70761,1,0,0:0:0:0:
192,192,70928,128,0,71261:0:0:0:40:Clap.wav
320,192,71261,128,2,71595:0:0:0:0:
448,192,71595,1,0,0:0:0:0:
64,192,71761,1,0,0:0:0:40:Clap.wav
320,192,71928,128,2,72261:0:0:0:0:
192,192,72261,128,0,72595:0:0:0:40:Clap.wav
448,192,72595,128,2,72928:0:0:0:0:
64,192,72928,1,0,0:0:0:0:
192,192,73095,1,0,0:0:0:40:Clap.wav
320,192,73261,128,2,73595:0:0:0:0:
64,192,73595,128,0,73928:0:0:0:40:Clap.wav
448,192,73928,128,2,74261:0:0:0:0:
64,192,74261,1,0,0:0:0:0:
192,192,74428,1,0,0:0:0:40:Clap.wav
448,192,74595,128,2,74928:0:0:0:0:
64,192,74928,1,2,0:0:0:0:
192,192,75095,1,0,0:0:0:0:
320,192,75261,128,2,75761:0:0:0:0:
192,192,75761,1,0,0:0:0:40:Clap.wav
64,192,75928,1,2,0:0:0:0:
448,192,75928,1,0,0:0:0:0:
192,192,76261,1,0,0:0:0:40:Clap.wav
320,192,76428,1,0,0:0:0:0:
448,192,76595,128,2,76928:0:0:0:0:
64,192,77095,1,0,0:0:0:40:Clap.wav
192,192,77261,1,2,0:0:0:0:
320,192,77428,1,0,0:0:0:0:
448,192,77595,128,0,77928:0:0:0:40:Clap.wav
192,192,77928,128,2,78261:0:0:0:0:
320,192,78261,128,0,78595:0:0:0:0:
64,192,78595,1,2,0:0:0:0:
192,192,78761,1,0,0:0:0:0:
320,192,78928,128,0,79261:0:0:0:40:Clap.wav
64,192,79261,1,2,0:0:0:0:
448,192,79428,1,0,0:0:0:40:Clap.wav
448,192,79761,1,0,0:0:0:40:Clap.wav
64,192,79928,1,2,0:0:0:0:
192,192,79928,1,0,0:0:0:0:
320,192,80261,1,2,0:0:0:0:
448,192,80261,1,0,0:0:0:0:
64,192,80595,128,2,80928:0:0:0:0:
192,192,80595,1,0,0:0:0:0:
448,192,80928,128,0,81261:0:0:0:0:
64,192,81261,1,2,0:0:0:0:
192,192,81428,1,0,0:0:0:0:
320,192,81595,128,0,81928:0:0:0:40:Clap.wav
64,192,81928,1,2,0:0:0:0:
192,192,82428,1,0,0:0:0:40:Clap.wav
448,192,82595,1,2,0:0:0:0:
320,192,82761,1,0,0:0:0:0:
64,192,82928,128,0,83261:0:0:0:40:Clap.wav
320,192,83261,128,2,83595:0:0:0:0:
64,192,83595,128,0,83928:0:0:0:0:
448,192,83928,128,2,84261:0:0:0:0:
192,192,84261,1,0,0:0:0:40:Clap.wav
320,192,84428,1,0,0:0:0:0:
448,192,84595,128,0,84928:0:0:0:0:
64,192,84928,128,0,85261:0:0:0:0:
320,192,85261,1,0,0:0:0:0:
192,192,85428,1,0,0:0:0:0:
448,192,85595,128,0,85928:0:0:0:0:
64,192,85928,128,2,86428:0:0:0:0:
320,192,85928,1,4,0:0:0:0:
192,192,86428,1,0,0:0:0:40:hat.wav
448,192,86595,128,8,86928:0:0:0:0:
320,192,86595,1,0,0:0:0:0:
64,192,86928,128,0,87261:0:0:0:40:hat.wav
448,192,87261,1,2,0:0:0:0:
320,192,87428,1,0,0:0:0:35:snare.wav
64,192,87595,128,0,87928:0:0:0:40:hat.wav
448,192,87928,128,8,88428:0:0:0:0:
192,192,87928,1,0,0:0:0:0:
64,192,88428,1,0,0:0:0:40:hat.wav
192,192,88595,128,2,88928:0:0:0:0:
448,192,88928,128,0,89261:0:0:0:40:hat.wav
64,192,89261,1,8,0:0:0:0:
320,192,89261,1,0,0:0:0:0:
192,192,89428,1,0,0:0:0:0:
448,192,89595,128,0,89928:0:0:0:40:hat.wav
64,192,89928,1,2,0:0:0:0:
192,192,90095,1,0,0:0:0:35:snare.wav
448,192,90261,1,0,0:0:0:40:hat.wav
320,192,90428,128,0,90761:0:0:0:40:hat.wav
192,192,90761,128,0,91095:0:0:0:0:
64,192,91261,1,2,0:0:0:0:
320,192,91428,1,0,0:0:0:0:
64,192,91595,128,0,91928:0:0:0:40:hat.wav
448,192,91928,1,8,0:0:0:0:
192,192,91928,1,0,0:0:0:0:
320,192,92095,1,0,0:0:0:0:
64,192,92261,128,0,92595:0:0:0:40:hat.wav
320,192,92595,128,2,92928:0:0:0:0:
64,192,92928,1,0,0:0:0:40:hat.wav
192,192,93095,1,0,0:0:0:40:hat.wav
448,192,93261,128,8,93595:0:0:0:0:
320,192,93261,1,0,0:0:0:0:
64,192,93595,1,0,0:0:0:40:hat.wav
192,192,93761,1,0,0:0:0:40:hat.wav
320,192,93928,128,2,94261:0:0:0:0:
64,192,94261,128,0,94595:0:0:0:40:hat.wav
448,192,94595,128,8,94928:0:0:0:0:
192,192,94595,1,0,0:0:0:0:
320,192,94928,1,0,0:0:0:40:hat.wav
192,192,95095,1,0,0:0:0:35:snare.wav
64,192,95261,1,2,0:0:0:0:
448,192,95428,128,0,95761:0:0:0:35:snare.wav
192,192,95761,128,0,96261:0:0:0:40:hat.wav
320,192,95928,1,8,0:0:0:0:
64,192,96595,128,2,96928:0:0:0:0:
448,192,96595,1,0,0:0:0:0:
192,192,96928,1,0,0:0:0:40:hat.wav
320,192,97095,1,0,0:0:0:40:hat.wav
448,192,97261,128,8,97595:0:0:0:0:
64,192,97261,1,0,0:0:0:0:
192,192,97595,128,0,97928:0:0:0:40:hat.wav
448,192,97928,1,2,0:0:0:0:
320,192,98095,1,0,0:0:0:35:snare.wav
192,192,98261,1,0,0:0:0:40:hat.wav
64,192,98428,1,0,0:0:0:40:hat.wav
320,192,98595,128,8,98928:0:0:0:0:
448,192,98595,1,0,0:0:0:0:
64,192,98928,128,0,99261:0:0:0:40:hat.wav
448,192,99261,128,2,99595:0:0:0:0:
64,192,99595,1,0,0:0:0:40:hat.wav
192,192,99761,1,0,0:0:0:40:hat.wav
320,192,99928,128,8,100261:0:0:0:0:
448,192,99928,1,0,0:0:0:0:
192,192,100261,128,0,100595:0:0:0:40:hat.wav
64,192,100595,128,2,100928:0:0:0:0:
192,192,100928,1,0,0:0:0:40:hat.wav
320,192,101095,1,0,0:0:0:40:hat.wav
448,192,101261,128,8,101595:0:0:0:0:
192,192,101261,1,0,0:0:0:0:
64,192,101595,128,0,101928:0:0:0:40:hat.wav
320,192,101928,1,0,0:0:0:0:
192,192,102428,1,0,0:0:0:0:
320,192,102595,1,0,0:0:0:40:Clap.wav
448,192,102595,128,0,102928:0:0:0:0:
64,192,102928,1,0,0:0:0:40:hat.wav
192,192,103095,128,0,103428:0:0:0:35:snare.wav
320,192,103428,128,0,103761:0:0:0:35:snare.wav
192,192,103761,1,0,0:0:0:40:hat.wav
64,192,103928,1,0,0:0:0:40:Clap.wav
448,192,103928,128,0,104261:0:0:0:0:
192,192,104261,1,0,0:0:0:40:hat.wav
320,192,104428,1,0,0:0:0:35:snare.wav
448,192,104595,128,0,104928:0:0:0:0:
64,192,105095,1,0,0:0:0:40:hat.wav
192,192,105261,128,0,105595:0:0:0:40:Clap.wav
320,192,105261,1,0,0:0:0:0:
448,192,105595,1,0,0:0:0:40:hat.wav
320,192,105761,1,0,0:0:0:35:snare.wav
64,192,105928,128,0,106261:0:0:0:0:
192,192,106261,128,0,106595:0:0:0:0:
448,192,106595,128,0,106928:0:0:0:40:Clap.wav
64,192,106595,1,0,0:0:0:0:
320,192,106928,128,0,107261:0:0:0:0:
192,192,107261,128,6,107595:0:0:0:0:
64,192,107261,1,0,0:0:0:0:
448,192,107595,1,0,0:0:0:40:Clap.wav
320,192,107761,1,0,0:0:0:40:Clap.wav
192,192,107928,1,8,0:0:0:0:
64,192,107928,1,0,0:0:0:0:
448,192,108261,128,0,108595:0:0:0:40:hat.wav
64,192,108595,128,2,108928:0:0:0:0:
192,192,108928,1,0,0:0:0:40:hat.wav
320,192,109095,1,0,0:0:0:40:hat.wav
448,192,109261,128,8,109928:0:0:0:0:
64,192,109261,1,0,0:0:0:0:
320,192,109928,128,2,110261:0:0:0:0:
64,192,110261,1,0,0:0:0:40:hat.wav
192,192,110428,1,0,0:0:0:40:hat.wav
448,192,110595,1,8,0:0:0:0:
320,192,110595,1,0,0:0:0:0:
64,192,110928,128,0,111261:0:0:0:40:hat.wav
448,192,111261,128,2,111595:0:0:0:0:
320,192,111595,128,0,111928:0:0:0:40:hat.wav
64,192,111928,128,8,112261:0:0:0:0:
192,192,111928,1,0,0:0:0:0:
448,192,112261,1,0,0:0:0:40:hat.wav
320,192,112428,1,2,0:0:0:0:
192,192,112595,128,2,113095:0:0:0:0:
448,192,113095,128,0,113595:0:0:0:40:hat.wav
64,192,113595,1,0,0:0:0:40:hat.wav
192,192,113761,1,0,0:0:0:40:hat.wav
320,192,113928,128,2,114261:0:0:0:0:
64,192,114261,128,0,114595:0:0:0:40:hat.wav
448,192,114595,128,8,114928:0:0:0:0:
320,192,114595,1,0,0:0:0:0:
192,192,114928,1,0,0:0:0:40:hat.wav
320,192,115261,128,2,115761:0:0:0:0:
64,192,115761,128,0,116261:0:0:0:40:hat.wav
448,192,116261,1,0,0:0:0:40:hat.wav
320,192,116428,1,0,0:0:0:40:hat.wav
192,192,116595,128,2,116928:0:0:0:0:
448,192,116928,1,0,0:0:0:40:hat.wav
64,192,117261,1,8,0:0:0:0:
192,192,117261,1,0,0:0:0:0:
320,192,117595,128,0,117928:0:0:0:40:hat.wav
192,192,117928,128,2,118261:0:0:0:0:
448,192,118261,1,0,0:0:0:40:hat.wav
320,192,118428,1,0,0:0:0:40:hat.wav
192,192,118595,1,8,0:0:0:0:
64,192,118595,1,0,0:0:0:0:
448,192,118928,128,0,119261:0:0:0:40:hat.wav
64,192,119261,128,2,119595:0:0:0:0:
192,192,119595,1,0,0:0:0:40:hat.wav
320,192,119761,1,0,0:0:0:40:hat.wav
448,192,119928,128,8,120261:0:0:0:0:
64,192,119928,1,0,0:0:0:0:
192,192,120261,1,0,0:0:0:40:hat.wav
320,192,120595,128,2,120928:0:0:0:0:
64,192,120928,1,0,0:0:0:40:hat.wav
192,192,121095,1,0,0:0:0:40:hat.wav
448,192,121261,1,8,0:0:0:0:
320,192,121261,1,0,0:0:0:0:
64,192,121595,128,0,121928:0:0:0:40:hat.wav
448,192,121928,128,2,122261:0:0:0:0:
320,192,122261,128,0,122595:0:0:0:40:hat.wav
64,192,122595,128,8,122928:0:0:0:0:
192,192,122595,1,0,0:0:0:0:
448,192,122928,1,0,0:0:0:40:hat.wav
320,192,123095,1,2,0:0:0:0:
192,192,123261,128,2,123761:0:0:0:0:
448,192,123761,128,0,124261:0:0:0:40:hat.wav
64,192,124261,1,0,0:0:0:40:hat.wav
192,192,124428,1,0,0:0:0:40:hat.wav
320,192,124595,128,2,124928:0:0:0:0:
64,192,124928,128,0,125261:0:0:0:40:hat.wav
448,192,125261,128,8,125595:0:0:0:0:
320,192,125261,1,0,0:0:0:0:
192,192,125595,1,0,0:0:0:40:hat.wav
320,192,125928,128,2,126428:0:0:0:0:
64,192,126428,128,0,126928:0:0:0:40:hat.wav
448,192,126928,1,0,0:0:0:40:hat.wav
320,192,127095,1,0,0:0:0:40:hat.wav
192,192,127261,1,0,0:0:0:0:
64,192,127428,1,0,0:0:0:50:Tom3.wav
192,192,127761,1,0,0:0:0:50:Tom3.wav
448,192,127928,1,0,0:0:0:50:Tom3.wav
320,192,127928,1,0,0:0:0:40:Clap.wav
192,192,128261,1,0,0:0:0:50:Tom3.wav
64,192,128261,1,0,0:0:0:0:
448,192,128595,1,4,0:0:0:0:
320,192,128595,1,2,0:0:0:0:
192,192,128928,1,0,0:0:0:40:hat.wav
320,192,129095,1,0,0:0:0:40:hat.wav
448,192,129261,1,8,0:0:0:0:
64,192,129261,128,0,129595:0:0:0:0:
448,192,129595,128,0,129928:0:0:0:40:hat.wav
192,192,129928,128,2,130261:0:0:0:0:
320,192,130261,1,0,0:0:0:40:hat.wav
64,192,130595,1,8,0:0:0:0:
192,192,130595,1,0,0:0:0:0:
448,192,130928,1,0,0:0:0:40:hat.wav
192,192,131261,1,2,0:0:0:0:
448,192,131595,1,0,0:0:0:40:hat.wav
320,192,131761,1,0,0:0:0:40:hat.wav
192,192,131928,1,8,0:0:0:0:
64,192,131928,128,0,132261:0:0:0:0:
448,192,132261,128,0,132595:0:0:0:40:hat.wav
192,192,132595,128,2,132928:0:0:0:0:
64,192,132928,128,0,133261:0:0:0:40:hat.wav
448,192,133261,128,8,133595:0:0:0:0:
320,192,133261,1,0,0:0:0:0:
192,192,133595,128,0,133928:0:0:0:40:hat.wav
448,192,133928,1,2,0:0:0:0:
320,192,134261,1,0,0:0:0:40:hat.wav
192,192,134428,1,0,0:0:0:40:hat.wav
448,192,134595,1,8,0:0:0:0:
64,192,134595,1,0,0:0:0:0:
192,192,134928,1,0,0:0:0:40:hat.wav
320,192,135095,1,0,0:0:0:40:hat.wav
64,192,135261,128,2,135595:0:0:0:0:
192,192,135595,1,0,0:0:0:40:hat.wav
320,192,135761,1,0,0:0:0:40:hat.wav
192,192,136261,1,0,0:0:0:0:
320,192,136428,1,0,0:0:0:0:
64,192,136595,128,2,136928:0:0:0:0:
192,192,136928,128,0,137261:0:0:0:40:hat.wav
448,192,137261,128,8,137595:0:0:0:0:
320,192,137261,1,0,0:0:0:0:
64,192,137595,128,0,137928:0:0:0:40:hat.wav
320,192,137928,1,0,0:0:0:40:hat.wav
192,192,138261,1,0,0:0:0:40:hat.wav
448,192,138595,128,0,138928:0:0:0:0:
64,192,138595,1,0,0:0:0:40:Clap.wav
320,192,138928,1,0,0:0:0:40:hat.wav
192,192,139095,1,0,0:0:0:40:hat.wav
64,192,139261,1,0,0:0:0:0:
