osu file format v14

[General]
AudioFilename: audio.mp3
AudioLeadIn: 0
PreviewTime: 186034
Countdown: 0
SampleSet: Soft
StackLeniency: 0.4
Mode: 0
LetterboxInBreaks: 0
WidescreenStoryboard: 1

[Editor]
DistanceSpacing: 1.1
BeatDivisor: 4
GridSize: 32
TimelineZoom: 6.199996

[Metadata]
Title:Let's start WW3
TitleUnicode:Let's start WW3
Artist:WORLD ORDER
ArtistUnicode:WORLD ORDER
Creator:Monstrata
Version:MAKE AMERICA GREAT AGAIN
Source:
Tags:donald j trump maga build a wall and crime will fall MAKE AMERICA GREAT AGAIN president of the united states of america us politics covfefe twitter russian collusion mueller report GENKI SUDO AKIHIRO TAKAHASHI HAYATO UCHIYAMA YUSUKE MORISAWA TAKASHI JONISHI RYUTA TOMITA World War 3 three Group Japanese pop
BeatmapID:1933528
BeatmapSetID:925682

[Difficulty]
HPDrainRate:6
CircleSize:4
OverallDifficulty:8.5
ApproachRate:9.3
SliderMultiplier:2.4
SliderTickRate:1

[Events]
//Background and Video events
0,0,"trump.jpg",0,0
//Break Periods
2,94903,98262
2,141597,154633
//Storyboard Layer 0 (Background)
//Storyboard Layer 1 (Fail)
//Storyboard Layer 2 (Pass)
//Storyboard Layer 3 (Foreground)
//Storyboard Layer 4 (Overlay)
//Storyboard Sound Samples
Sample,79461,0,"drum-hitfinish2016.mp3",70
Sample,87203,0,"drum-hitfinish2016.mp3",70
Sample,110429,0,"drum-hitfinish2016.mp3",70
Sample,118171,0,"drum-hitfinish2016.mp3",70
Sample,125913,0,"drum-hitfinish2016.mp3",70
Sample,133655,0,"drum-hitfinish2016.mp3",70
Sample,141518,0,"trump-hitfinish2020.mp3",100
Sample,156880,0,"drum-hitfinish2016.mp3",70
Sample,164622,0,"drum-hitfinish2016.mp3",70
Sample,172364,0,"drum-hitfinish2016.mp3",70
Sample,180106,0,"drum-hitfinish2016.mp3",70
Sample,187848,0,"drum-hitfinish2016.mp3",70
Sample,195590,0,"drum-hitfinish2016.mp3",70

[TimingPoints]
33010,483.870967741935,4,2,16,80,1,0
33010,-181.818181818181,4,2,16,80,0,0
40751,-133.333333333333,4,2,16,70,0,0
48493,-133.333333333333,4,2,16,50,0,0
63977,-111.111111111111,4,2,20,60,0,0
79461,-76.9230769230769,4,2,16,80,0,1
79824,-71.4285714285714,4,2,16,80,0,1
80187,-66.6666666666667,4,2,16,80,0,1
80671,-100,4,2,16,80,0,1
81397,-76.9230769230769,4,2,16,80,0,1
81759,-71.4285714285714,4,2,16,80,0,1
82122,-66.6666666666667,4,2,16,80,0,1
82606,-100,4,2,16,80,0,1
83332,-76.9230769230769,4,2,16,80,0,1
83695,-71.4285714285714,4,2,16,80,0,1
84058,-66.6666666666667,4,2,16,80,0,1
84542,-100,4,2,16,80,0,1
85268,-76.9230769230769,4,2,16,80,0,1
85630,-71.4285714285714,4,2,16,80,0,1
85993,-66.6666666666667,4,2,16,80,0,1
86478,-100,4,2,16,80,0,1
87082,-100,4,2,16,80,0,0
87203,-76.9230769230769,4,2,16,80,0,1
87566,-71.4285714285714,4,2,16,80,0,1
87929,-66.6666666666667,4,2,16,80,0,1
88413,-100,4,2,16,80,0,1
89139,-76.9230769230769,4,2,16,80,0,1
89501,-71.4285714285714,4,2,16,80,0,1
89864,-66.6666666666667,4,2,16,80,0,1
90348,-100,4,2,16,80,0,1
91074,-76.9230769230769,4,2,16,80,0,1
91437,-71.4285714285714,4,2,16,80,0,1
91800,-66.6666666666667,4,2,16,80,0,1
92284,-100,4,2,16,80,0,1
93251,-76.9230769230769,4,2,16,80,0,1
93735,-83.3333333333333,4,2,16,80,0,1
94219,-90.9090909090909,4,2,16,80,0,1
94945,-333.333333333333,4,2,16,80,0,0
99058,-111.111111111111,4,2,20,60,0,0
109461,-166.666666666667,4,2,16,60,0,0
110429,-71.4285714285714,4,2,16,80,0,1
110791,-66.6666666666667,4,2,16,80,0,1
111154,-62.5,4,2,16,80,0,1
111638,-100,4,2,16,80,0,1
112364,-71.4285714285714,4,2,16,80,0,1
112727,-66.6666666666667,4,2,16,80,0,1
113090,-62.5,4,2,16,80,0,1
113574,-100,4,2,16,80,0,1
114300,-71.4285714285714,4,2,16,80,0,1
114663,-66.6666666666667,4,2,16,80,0,1
115026,-62.5,4,2,16,80,0,1
115509,-100,4,2,16,80,0,1
116235,-71.4285714285714,4,2,16,80,0,1
116598,-66.6666666666667,4,2,16,80,0,1
116961,-62.5,4,2,16,80,0,1
117445,-100,4,2,16,80,0,1
118050,-100,4,2,16,80,0,0
118171,-71.4285714285714,4,2,16,80,0,1
118534,-66.6666666666667,4,2,16,80,0,1
118897,-62.5,4,2,16,80,0,1
119380,-100,4,2,16,80,0,1
120106,-71.4285714285714,4,2,16,80,0,1
120469,-66.6666666666667,4,2,16,80,0,1
120832,-62.5,4,2,16,80,0,1
121316,-100,4,2,16,80,0,1
122042,-71.4285714285714,4,2,16,80,0,1
122405,-66.6666666666667,4,2,16,80,0,1
122768,-62.5,4,2,16,80,0,1
123251,-100,4,2,16,80,0,1
124219,-76.9230769230769,4,2,16,80,0,1
124703,-83.3333333333333,4,2,16,80,0,1
125187,-90.9090909090909,4,2,16,80,0,1
125792,-90.9090909090909,4,2,16,80,0,0
125913,-62.5,4,2,16,80,0,1
126274,-58.8235294117647,4,2,16,80,0,1
126637,-55.5555555555556,4,2,16,80,0,1
127120,-66.6666666666667,4,2,16,80,0,1
127848,-62.5,4,2,16,80,0,1
128211,-58.8235294117647,4,2,16,80,0,1
128574,-55.5555555555556,4,2,16,80,0,1
129057,-66.6666666666667,4,2,16,80,0,1
129784,-62.5,4,2,16,80,0,1
130147,-58.8235294117647,4,2,16,80,0,1
130509,-55.5555555555556,4,2,16,80,0,1
130993,-66.6666666666667,4,2,16,80,0,1
131719,-62.5,4,2,16,80,0,1
132082,-58.8235294117647,4,2,16,80,0,1
132445,-55.5555555555556,4,2,16,80,0,1
132928,-66.6666666666667,4,2,16,80,0,1
133534,-66.6666666666667,4,2,16,80,0,0
133655,-62.5,4,2,16,80,0,1
134018,-58.8235294117647,4,2,16,80,0,1
134380,-55.5555555555556,4,2,16,80,0,1
134864,-66.6666666666667,4,2,16,80,0,1
135590,-62.5,4,2,16,80,0,1
135953,-58.8235294117647,4,2,16,80,0,1
136316,-55.5555555555556,4,2,16,80,0,1
136799,-66.6666666666667,4,2,16,80,0,1
137526,-62.5,4,2,16,80,0,1
137889,-58.8235294117647,4,2,16,80,0,1
138251,-55.5555555555556,4,2,16,80,0,1
138735,-66.6666666666667,4,2,16,80,0,1
139703,-62.5,4,2,16,80,0,1
140671,-76.9230769230769,4,2,16,80,0,1
141397,-76.9230769230769,4,2,16,80,0,0
155187,-40,4,2,16,80,0,0
155429,-33.3333333333333,4,2,16,80,0,0
155671,-29.4117647058824,4,2,16,80,0,0
155913,-25,4,2,16,80,0,0
156155,-29.4117647058824,4,2,16,80,0,0
156397,-25,4,2,16,80,0,0
156639,-25,4,2,16,80,0,0
156880,-50,4,2,16,80,0,1
157241,-45.4545454545455,4,2,16,80,0,1
157604,-41.6666666666667,4,2,16,80,0,1
158088,-55.5555555555556,4,2,16,80,0,1
158816,-50,4,2,16,80,0,1
159179,-45.4545454545455,4,2,16,80,0,1
159542,-41.6666666666667,4,2,16,80,0,1
160026,-55.5555555555556,4,2,16,80,0,1
160751,-50,4,2,16,80,0,1
161114,-45.4545454545455,4,2,16,80,0,1
161477,-41.6666666666667,4,2,16,80,0,1
161961,-55.5555555555556,4,2,16,80,0,1
162687,-50,4,2,16,80,0,1
163050,-45.4545454545455,4,2,16,80,0,1
163413,-41.6666666666667,4,2,16,80,0,1
163897,-55.5555555555556,4,2,16,80,0,1
164501,-55.5555555555556,4,2,16,80,0,0
164622,-47.6190476190476,4,2,16,80,0,1
164983,-43.4782608695652,4,2,16,80,0,1
165346,-40,4,2,16,80,0,1
165830,-55.5555555555556,4,2,16,80,0,1
166558,-47.6190476190476,4,2,16,80,0,1
166921,-43.4782608695652,4,2,16,80,0,1
167284,-40,4,2,16,80,0,1
167768,-55.5555555555556,4,2,16,80,0,1
168493,-47.6190476190476,4,2,16,80,0,1
168856,-43.4782608695652,4,2,16,80,0,1
169219,-40,4,2,16,80,0,1
169703,-55.5555555555556,4,2,16,80,0,1
172243,-55.5555555555556,4,2,16,80,0,0
172364,-45.4545454545455,4,2,16,80,0,1
172725,-41.6666666666667,4,2,16,80,0,1
173088,-38.4615384615385,4,2,16,80,0,1
173572,-52.6315789473684,4,2,16,80,0,1
174300,-45.4545454545455,4,2,16,80,0,1
174663,-41.6666666666667,4,2,16,80,0,1
175026,-38.4615384615385,4,2,16,80,0,1
175509,-52.6315789473684,4,2,16,80,0,1
176235,-45.4545454545455,4,2,16,80,0,1
176598,-41.6666666666667,4,2,16,80,0,1
176961,-38.4615384615385,4,2,16,80,0,1
177445,-52.6315789473684,4,2,16,80,0,1
178171,-45.4545454545455,4,2,16,80,0,1
178534,-41.6666666666667,4,2,16,80,0,1
178897,-38.4615384615385,4,2,16,80,0,1
179381,-52.6315789473684,4,2,16,80,0,1
179985,-52.6315789473684,4,2,16,80,0,0
180106,-44.4444444444445,4,2,16,80,0,1
180467,-40.8163265306122,4,2,16,80,0,1
180830,-37.7358490566038,4,2,16,80,0,1
181314,-51.2820512820513,4,2,16,80,0,1
182042,-44.4444444444445,4,2,16,80,0,1
182405,-40.8163265306122,4,2,16,80,0,1
182768,-37.7358490566038,4,2,16,80,0,1
183251,-51.2820512820513,4,2,16,80,0,1
183977,-44.4444444444445,4,2,16,80,0,1
184340,-40.8163265306122,4,2,16,80,0,1
184703,-37.7358490566038,4,2,16,80,0,1
185187,-51.2820512820513,4,2,16,80,0,1
186639,-60.6060606060606,4,2,16,80,0,1
187122,-74.0740740740741,4,2,16,80,0,1
187727,-74.0740740740741,4,2,16,80,0,0
187848,-38.4615384615385,4,2,16,80,0,1
188209,-33.3333333333333,4,2,16,80,0,1
188572,-28.5714285714286,4,2,16,80,0,1
189056,-50,4,2,16,80,0,1
189784,-38.4615384615385,4,2,16,80,0,1
190147,-33.3333333333333,4,2,16,80,0,1
190509,-28.5714285714286,4,2,16,80,0,1
190993,-50,4,2,16,80,0,1
191719,-38.4615384615385,4,2,16,80,0,1
192082,-33.3333333333333,4,2,16,80,0,1
192445,-28.5714285714286,4,2,16,80,0,1
192929,-50,4,2,16,80,0,1
193655,-38.4615384615385,4,2,16,80,0,1
194018,-33.3333333333333,4,2,16,80,0,1
194380,-28.5714285714286,4,2,16,80,0,1
194865,-50,4,2,16,80,0,1
195469,-50,4,2,16,80,0,0
195590,-27.7777777777778,4,2,16,80,0,1
195953,-26.3157894736842,4,2,16,80,0,1
196316,-25,4,2,16,80,0,1
196800,-50,4,2,16,80,0,1
197526,-27.7777777777778,4,2,16,80,0,1
197889,-26.3157894736842,4,2,16,80,0,1
198251,-26.3157894736842,4,2,16,80,0,1
198735,-47.6190476190476,4,2,16,80,0,1
199461,-27.7777777777778,4,2,16,80,0,1
199824,-26.3157894736842,4,2,16,80,0,1
200187,-25,4,2,16,80,0,1
200671,-50,4,2,16,80,0,1
201397,-41.6666666666667,4,2,16,40,0,0

[Colours]
Combo1 : 15,15,255
Combo2 : 255,21,21
Combo3 : 232,232,232

[HitObjects]
37,92,33010,6,0,P|114:72|230:141,1,198.000006042481,6|2,0:0|0:0,0:0:0:0:
320,211,34219,1,0,0:0:0:0:
397,193,34461,1,2,0:0:0:0:
474,175,34703,1,0,0:0:0:0:
475,92,34945,6,0,P|398:72|282:141,1,198.000006042481,2|2,0:0|0:0,0:0:0:0:
192,211,36155,1,0,0:0:0:0:
115,193,36397,1,2,0:0:0:0:
38,175,36639,1,0,0:0:0:0:
78,64,36880,6,0,P|86:162|58:257,1,198.000006042481,2|2,0:0|0:0,0:0:0:0:
238,27,38090,1,0,0:0:0:0:
222,104,38332,1,2,0:0:0:0:
206,181,38574,1,0,0:0:0:0:
138,127,38816,6,0,P|233:155|331:147,1,198.000006042481,2|2,0:0|0:0,0:0:0:0:
369,307,40026,1,0,0:0:0:0:
292,291,40268,1,2,0:0:0:0:
215,275,40510,1,0,0:0:0:0:
252,122,40751,6,0,P|269:162|267:207,1,90.0000034332277,2|0,3:2|0:0,0:0:0:0:
173,64,41235,2,0,P|155:104|157:149,1,90.0000034332277,0|0,3:2|0:0,0:0:0:0:
306,52,41719,2,0,P|346:34|391:36,1,90.0000034332277,0|0,3:2|0:0,0:0:0:0:
251,121,42203,2,0,P|292:139|337:137,1,90.0000034332277,0|0,3:2|0:0,0:0:0:0:
58,165,42687,6,0,B|99:149|99:149|144:158,1,90.0000034332277,2|0,3:2|0:0,0:0:0:0:
111,261,43171,2,0,B|101:306|101:306|117:347,1,90.0000034332277,0|0,3:2|0:0,0:0:0:0:
291,300,43655,2,0,B|245:309|245:309|204:293,1,90.0000034332277,0|0,3:2|0:0,0:0:0:0:
393,266,44139,2,0,B|403:312|403:312|387:353,1,90.0000034332277,0|0,3:2|0:0,0:0:0:0:
271,192,44622,6,0,L|285:78,1,90.0000034332277,2|0,3:2|0:0,0:0:0:0:
106,159,45106,2,0,L|92:45,1,90.0000034332277,0|0,3:2|0:0,0:0:0:0:
285,173,45590,2,0,L|299:59,1,90.0000034332277,0|0,3:2|0:0,0:0:0:0:
119,139,46074,2,0,L|105:25,1,90.0000034332277,0|0,3:2|0:0,0:0:0:0:
302,153,46558,5,2,3:2:0:0:
491,31,46921,1,2,0:2:0:0:
440,320,47284,1,2,0:2:0:0:
72,320,47768,5,2,0:0:0:0:
160,258,48009,1,2,0:2:0:0:
257,303,48251,1,0,0:0:0:0:
169,365,48493,5,0,3:2:0:0:
169,365,48977,1,2,3:2:0:0:
206,325,49098,1,0,0:0:0:0:
257,303,49219,1,0,0:0:0:0:
309,309,49340,2,0,P|352:313|434:258,1,135.000005149841,2|0,0:0|0:0,0:0:0:0:
339,206,49945,1,2,3:2:0:0:
377,105,50187,1,2,0:0:0:0:
286,45,50429,6,0,L|141:67,1,135.000005149841,0|0,3:2|0:0,0:0:0:0:
115,143,50913,2,0,L|70:149,2,45.0000017166138,2|0|0,3:2|0:0|0:0,0:0:0:0:
139,154,51276,2,0,P|161:218|144:282,1,135.000005149841,2|0,0:0|0:0,0:0:0:0:
52,338,51880,1,2,3:2:0:0:
157,315,52122,1,0,0:0:0:0:
261,292,52364,6,0,P|327:297|370:347,1,135.000005149841,0|0,3:2|0:0,0:0:0:0:
447,309,52848,1,2,3:2:0:0:
487,289,52968,1,0,0:0:0:0:
511,252,53089,1,0,0:0:0:0:
512,208,53210,1,0,0:0:0:0:
490,169,53332,2,0,L|482:89,1,45.0000017166138,2|0,3:2|0:0,0:0:0:0:
404,91,53574,1,0,0:0:0:0:
404,91,53695,2,0,L|396:171,1,45.0000017166138,2|0,0:0|3:2,0:0:0:0:
274,152,54058,1,2,0:0:0:0:
246,291,54300,6,0,L|329:276,1,45.0000017166138,2|0,3:2|0:0,0:0:0:0:
359,227,54542,1,0,0:0:0:0:
359,227,54663,2,0,L|442:242,1,45.0000017166138,2|0,0:0|3:2,0:0:0:0:
186,171,55026,1,2,0:0:0:0:
121,257,55268,2,0,P|89:225|78:178,1,90.0000034332277,0|0,3:2|0:0,0:0:0:0:
250,84,55751,2,0,P|281:115|292:162,1,90.0000034332277,0|0,3:2|0:0,0:0:0:0:
186,171,56235,5,0,3:2:0:0:
12,378,56719,1,2,3:2:0:0:
55,352,56839,1,0,0:0:0:0:
104,340,56960,1,0,0:0:0:0:
154,342,57081,1,0,0:0:0:0:
201,356,57203,2,0,P|223:364|245:367,1,45.0000017166138,2|0,3:2|0:0,0:0:0:0:
243,281,57445,1,0,0:0:0:0:
243,281,57566,2,0,P|265:276|286:268,1,45.0000017166138,2|0,0:0|3:2,0:0:0:0:
447,59,57929,2,0,P|425:64|404:72,1,45.0000017166138,2|0,0:0|3:2,0:0:0:0:
341,34,58171,6,0,L|363:167,1,135.000005149841,2|0,3:2|0:0,0:0:0:0:
449,230,58655,2,0,L|457:274,1,45.0000017166138,0|0,3:2|0:0,0:0:0:0:
429,247,58897,2,0,L|437:291,1,45.0000017166138,0|0,0:0|0:0,0:0:0:0:
404,267,59139,2,0,L|296:286,1,90.0000034332277,2|0,3:2|0:0,0:0:0:0:
127,254,59622,2,0,L|216:239,1,90.0000034332277,0|2,3:2|0:0,0:0:0:0:
61,340,60106,5,2,3:2:0:0:
70,349,60590,1,2,3:2:0:0:
118,329,60710,1,0,0:0:0:0:
170,328,60831,1,0,0:0:0:0:
220,343,60953,2,0,L|238:196,1,135.000005149841,2|2,0:0|0:0,0:0:0:0:
313,132,61558,1,2,3:2:0:0:
413,170,61800,1,0,0:0:0:0:
497,25,62042,5,2,3:2:0:0:
396,63,62284,2,0,P|353:53|321:22,1,90.0000034332277,2|0,0:0|3:2,0:0:0:0:
137,130,62768,1,2,0:0:0:0:
237,91,63010,2,0,P|280:100|312:131,1,90.0000034332277,2|0,3:2|0:0,0:0:0:0:
230,284,63493,2,0,P|217:242|228:199,1,90.0000034332277,2|0,3:2|0:0,0:0:0:0:
326,243,63977,6,0,L|390:234,1,53.9999983520508,4|0,3:2|0:0,0:0:0:0:
410,159,64219,2,0,L|463:166,1,53.9999983520508,8|0,0:0|0:0,0:0:0:0:
377,78,64461,2,0,P|352:88|335:109,1,53.9999983520508,2|0,0:0|0:0,0:0:0:0:
262,145,64703,2,0,P|237:134|220:113,1,53.9999983520508,10|0,0:0|0:0,0:0:0:0:
152,39,64945,6,0,L|141:92,1,53.9999983520508,2|0,0:0|0:0,0:0:0:0:
158,171,65187,1,10,0:0:0:0:
158,171,65308,2,0,L|130:294,1,107.999996704102,2|0,0:0|0:0,0:0:0:0:
59,313,65671,2,0,P|81:296|107:293,1,53.9999983520508,10|0,0:0|0:0,0:0:0:0:
163,353,65913,6,0,P|178:374|203:384,1,53.9999983520508,2|0,0:0|0:0,0:0:0:0:
284,293,66155,1,8,0:0:0:0:
284,293,66276,1,0,0:0:0:0:
284,293,66397,2,0,L|232:307,1,53.9999983520508,2|0,0:0|0:0,0:0:0:0:
350,351,66639,2,0,L|402:364,1,53.9999983520508,8|0,0:0|0:0,0:0:0:0:
461,308,66880,6,0,P|448:284|443:257,1,53.9999983520508,2|0,0:0|0:0,0:0:0:0:
415,138,67122,2,0,P|402:162|397:188,1,53.9999983520508,8|0,0:0|0:0,0:0:0:0:
320,214,67364,2,0,P|296:201|269:196,1,53.9999983520508,2|0,0:0|0:0,0:0:0:0:
202,150,67606,2,0,P|178:162|151:167,1,53.9999983520508,8|0,0:0|0:0,0:0:0:0:
27,138,67848,6,0,L|80:127,1,53.9999983520508,0|0,0:0|0:0,0:0:0:0:
135,67,68090,2,0,L|146:14,1,53.9999983520508,10|0,0:0|0:0,0:0:0:0:
229,37,68332,2,0,P|292:41|310:34,1,53.9999983520508,2|0,0:0|0:0,0:0:0:0:
312,119,68574,1,8,0:0:0:0:
312,119,68695,6,0,P|258:124|205:114,1,107.999996704102,2|0,0:0|0:0,0:0:0:0:
146,169,69058,2,0,L|156:243,1,53.9999983520508,10|0,0:0|0:0,0:0:0:0:
237,313,69300,2,0,L|229:259,1,53.9999983520508,2|0,0:0|0:0,0:0:0:0:
291,206,69542,2,0,P|314:221|341:225,1,53.9999983520508,10|0,0:0|0:0,0:0:0:0:
398,283,69784,6,0,P|420:268|447:264,1,53.9999983520508,2|0,0:0|0:0,0:0:0:0:
477,188,70026,2,0,P|462:165|458:138,1,53.9999983520508,10|0,0:0|0:0,0:0:0:0:
401,81,70268,2,0,P|378:95|351:99,1,53.9999983520508,2|0,0:0|0:0,0:0:0:0:
322,176,70510,2,0,P|336:198|340:225,1,53.9999983520508,10|0,0:0|0:0,0:0:0:0:
316,302,70751,6,0,L|235:293,1,53.9999983520508,2|0,0:0|0:0,0:0:0:0:
185,337,70993,1,8,0:0:0:0:
185,337,71114,1,8,0:0:0:0:
185,337,71235,2,0,L|131:330,1,53.9999983520508,2|0,0:0|0:0,0:0:0:0:
56,286,71477,2,0,P|62:259|75:236,1,53.9999983520508,8|0,0:0|0:0,0:0:0:0:
189,134,71719,6,0,P|187:187|204:238,1,107.999996704102,0|10,0:0|0:0,0:0:0:0:
267,290,72082,1,0,0:0:0:0:
267,290,72203,2,0,L|361:282,1,53.9999983520508,2|0,0:0|0:0,0:0:0:0:
377,226,72445,1,10,0:0:0:0:
377,226,72566,6,0,L|514:214,1,107.999996704102,2|0,0:0|0:0,0:0:0:0:
460,138,72929,2,0,P|479:114|512:99,1,53.9999983520508,10|0,0:0|0:0,0:0:0:0:
376,136,73171,2,0,P|380:105|401:76,1,53.9999983520508,2|0,0:0|0:0,0:0:0:0:
302,176,73413,2,0,P|290:147|294:111,1,53.9999983520508,10|0,0:0|0:0,0:0:0:0:
280,258,73655,6,0,P|238:291|184:292,1,107.999996704102,2|8,0:0|0:0,0:0:0:0:
194,164,74018,1,0,0:0:0:0:
194,164,74139,2,0,L|212:215,1,53.9999983520508,2|0,0:0|0:0,0:0:0:0:
131,221,74380,2,0,L|113:271,1,53.9999983520508,8|0,0:0|0:0,0:0:0:0:
11,196,74622,6,0,P|36:188|60:176,1,53.9999983520508,2|0,0:0|0:0,0:0:0:0:
113,106,74864,2,0,P|119:79|120:52,1,53.9999983520508,8|0,0:0|0:0,0:0:0:0:
233,131,75106,2,0,P|207:138|183:150,1,53.9999983520508,2|0,0:0|0:0,0:0:0:0:
131,221,75348,2,0,P|124:247|123:274,1,53.9999983520508,8|0,0:0|0:0,0:0:0:0:
172,346,75590,6,0,L|247:332,1,53.9999983520508,0|0,0:0|0:0,0:0:0:0:
285,272,75832,2,0,L|360:286,1,53.9999983520508,10|0,0:0|0:0,0:0:0:0:
421,260,76074,2,0,P|442:242|457:220,1,53.9999983520508,2|0,0:0|0:0,0:0:0:0:
384,80,76316,1,10,0:0:0:0:
384,80,76437,6,0,P|394:133|382:185,1,107.999996704102,2|0,0:0|0:0,0:0:0:0:
301,176,76800,2,0,P|274:175|248:184,1,53.9999983520508,10|0,0:0|0:0,0:0:0:0:
177,140,77042,2,0,P|195:120|219:107,1,53.9999983520508,2|0,0:0|0:0,0:0:0:0:
113,88,77284,2,0,P|99:111|94:138,1,53.9999983520508,10|0,0:0|0:0,0:0:0:0:
43,202,77526,6,0,P|82:239|90:291,1,107.999996704102,0|10,3:0|0:0,0:0:0:0:
154,341,77889,1,0,0:0:0:0:
223,300,78009,2,0,L|319:300,1,53.9999983520508,8|0,0:3|0:0,0:0:0:0:
394,242,78251,2,0,L|340:242,1,53.9999983520508,2|0,3:2|0:0,0:0:0:0:
508,103,78493,6,0,P|469:139|461:191,1,107.999996704102,2|8,3:2|0:2,0:0:0:0:
324,29,78856,1,0,0:0:0:0:
324,111,78977,2,0,L|324:207,1,53.9999983520508,8|0,3:0|0:0,0:0:0:0:
172,61,79219,2,0,L|172:115,1,53.9999983520508
51,270,79461,6,0,P|61:232|51:95,1,155.999992858887,10|0,3:2|0:0,0:0:0:0:
90,358,79824,6,0,P|135:287|162:208,1,167.999994873047,6|0,3:3|0:0,0:0:0:0:
207,344,80187,6,0,P|296:302|473:289,1,270.000010299683,10|0,3:2|0:0,0:0:0:0:
465,287,80671,6,0,P|460:360|471:387,1,60,10|0,3:2|0:0,0:0:0:0:
397,235,80913,2,0,P|392:162|403:135,1,60,10|0,3:2|0:0,0:0:0:0:
329,287,81155,2,0,P|324:360|335:387,1,60,2|0,3:2|0:0,0:0:0:0:
259,232,81397,6,0,P|302:167|313:90,1,155.999992858887,10|0,3:2|0:0,0:0:0:0:
164,263,81759,6,0,P|183:188|180:95,1,167.999994873047,6|0,3:3|0:0,0:0:0:0:
71,316,82122,6,0,P|77:182|21:61,1,270.000010299683,10|0,3:2|0:0,0:0:0:0:
21,61,82606,6,0,P|49:72|78:75,1,60,10|0,3:2|0:0,0:0:0:0:
147,126,82848,2,0,P|174:114|204:111,1,60,10|0,3:2|0:0,0:0:0:0:
272,61,83090,2,0,P|299:72|329:75,1,60,2|0,3:2|0:0,0:0:0:0:
470,20,83332,6,0,P|393:32|329:76,1,155.999992858887,10|0,3:2|0:0,0:0:0:0:
471,194,83695,6,0,P|389:163|303:170,1,167.999994873047,6|0,3:3|0:0,0:0:0:0:
385,346,84058,6,0,P|329:279|151:218,1,270.000010299683,10|0,3:2|0:0,0:0:0:0:
162,218,84542,6,0,P|133:222|106:235,1,60,10|0,3:2|0:0,0:0:0:0:
159,121,84784,2,0,P|188:125|215:137,1,60,10|0,3:2|0:0,0:0:0:0:
160,24,85026,2,0,P|130:28|103:40,1,60,2|0,3:2|0:0,0:0:0:0:
292,11,85268,6,0,P|287:88|319:158,1,155.999992858887,10|0,3:2|0:0,0:0:0:0:
409,84,85630,6,0,P|363:153|355:236,1,167.999994873047,6|0,3:3|0:0,0:0:0:0:
473,204,85993,6,0,P|350:257|274:367,1,270.000010299683,10|0,3:2|0:0,0:0:0:0:
275,365,86477,5,10,3:2:0:0:
97,110,86719,1,10,3:2:0:0:
409,84,86961,1,10,3:2:0:0:
275,365,87203,6,0,L|241:201,1,155.999992858887,10|0,3:2|0:0,0:0:0:0:
149,328,87566,6,0,L|158:160,1,167.999994873047,6|0,3:3|0:0,0:0:0:0:
38,257,87929,6,0,L|123:0,1,270.000010299683,10|0,3:2|0:0,0:0:0:0:
122,0,88413,6,0,L|196:25,1,60,10|0,3:2|0:0,0:0:0:0:
263,15,88655,2,0,L|238:89,1,60,10|0,3:2|0:0,0:0:0:0:
163,100,88897,2,0,L|188:174,1,60,2|0,3:2|0:0,0:0:0:0:
264,154,89139,6,0,L|422:119,1,155.999992858887,10|0,3:2|0:0,0:0:0:0:
207,242,89501,6,0,L|431:264,1,167.999994873047,6|0,3:3|0:0,0:0:0:0:
94,304,89864,6,0,L|388:390,1,270.000010299683,10|0,3:2|0:0,0:0:0:0:
353,379,90348,6,0,L|449:356,1,60,10|0,3:2|0:0,0:0:0:0:
405,280,90590,2,0,L|500:303,1,60,10|0,3:2|0:0,0:0:0:0:
315,217,90832,2,0,L|410:193,1,60,2|0,3:2|0:0,0:0:0:0:
382,46,91074,6,0,L|372:221,1,155.999992858887,10|0,3:2|0:0,0:0:0:0:
274,93,91437,6,0,L|294:267,1,167.999994873047,6|0,3:3|0:0,0:0:0:0:
147,73,91800,6,0,L|230:352,1,270.000010299683,10|0,3:2|0:0,0:0:0:0:
224,331,92284,6,0,L|148:320,1,60,10|0,3:2|0:0,0:0:0:0:
59,245,92526,2,0,L|118:253,1,60,10|0,3:2|0:0,0:0:0:0:
244,208,92768,2,0,L|167:196,1,60,2|0,3:2|0:0,0:0:0:0:
72,120,93009,2,0,L|131:128,1,60,10|0,3:2|0:0,0:0:0:0:
189,19,93251,6,0,L|208:117,1,77.9999964294435,2|0,3:2|0:0,0:0:0:0:
394,155,93493,2,0,L|379:78,1,77.9999964294435,0|0,3:0|0:0,0:0:0:0:
196,23,93735,6,0,L|214:113,1,71.9999978027344,10|0,3:2|0:0,0:0:0:0:
386,150,93977,2,0,L|372:79,1,71.9999978027344,0|0,3:0|0:0,0:0:0:0:
203,27,94219,6,0,L|219:110,1,66.0000020141602,10|0,3:2|0:0,0:0:0:0:
379,146,94461,2,0,L|366:80,1,66.0000020141602,10|0,3:2|0:0,0:0:0:0:
291,86,94703,1,2,3:2:0:0:
256,192,98816,5,0,0:0:0:0:
273,367,99058,5,8,0:0:0:0:
273,367,99179,1,0,0:0:0:0:
273,367,99300,2,0,L|351:356,1,53.9999983520508,2|0,0:2|0:0,0:0:0:0:
384,301,99542,2,0,L|462:312,1,53.9999983520508,10|0,0:0|0:0,0:0:0:0:
427,223,99784,2,0,P|444:202|457:178,1,53.9999983520508,2|0,0:2|0:0,0:0:0:0:
378,156,100026,1,10,0:0:0:0:
378,156,100147,2,0,P|382:102|363:52,1,107.999996704102,2|0,0:2|0:0,0:0:0:0:
234,62,100509,2,0,P|260:70|287:68,1,53.9999983520508,10|0,0:0|0:0,0:0:0:0:
171,116,100751,6,0,P|144:114|118:121,1,53.9999983520508,2|0,0:2|0:0,0:0:0:0:
59,178,100993,1,10,0:0:0:0:
59,178,101114,2,0,L|75:256,2,53.9999983520508,2|0|0,0:2|0:0|0:0,0:0:0:0:
0,114,101477,6,0,P|18:94|31:68,1,53.9999983520508,8|0,0:0|0:0,0:0:0:0:
122,68,101719,2,0,P|123:94|117:121,1,53.9999983520508,0|0,0:0|0:0,0:0:0:0:
169,189,101961,2,0,P|187:169|200:143,1,53.9999983520508,8|0,0:0|0:0,0:0:0:0:
291,143,102203,2,0,P|292:169|286:196,1,53.9999983520508,0|0,0:0|0:0,0:0:0:0:
338,264,102445,2,0,P|356:244|369:218,1,53.9999983520508,8|0,0:0|0:0,0:0:0:0:
377,134,102687,6,0,L|494:125,1,107.999996704102,0|8,0:0|0:0,0:0:0:0:
491,44,103050,1,0,0:0:0:0:
491,44,103171,2,0,P|464:43|439:33,1,53.9999983520508,2|0,0:0|0:0,0:0:0:0:
360,11,103413,2,0,P|333:12|308:22,1,53.9999983520508,10|0,0:0|0:0,0:0:0:0:
253,144,103655,6,0,P|250:90|228:42,1,107.999996704102,2|10,0:0|0:0,0:0:0:0:
148,21,104018,1,2,0:0:0:0:
148,21,104139,2,0,P|144:74|122:123,1,107.999996704102,0|10,0:0|0:0,0:0:0:0:
54,167,104501,1,0,0:0:0:0:
54,167,104622,6,0,L|66:325,1,107.999996704102,2|8,0:0|0:0,0:0:0:0:
141,255,104985,1,0,0:0:0:0:
141,255,105106,2,0,L|148:357,1,53.9999983520508,0|0,0:0|0:0,0:0:0:0:
208,200,105348,2,0,L|212:146,1,53.9999983520508,8|0,0:0|0:0,0:0:0:0:
276,241,105590,6,0,P|301:252|328:254,1,53.9999983520508,0|0,0:0|0:0,0:0:0:0:
449,199,105832,2,0,P|422:201|398:212,1,53.9999983520508,8|0,0:0|0:0,0:0:0:0:
353,146,106074,2,0,P|326:145|302:135,1,53.9999983520508,0|0,0:0|0:0,0:0:0:0:
422,103,106316,2,0,P|447:93|474:92,1,53.9999983520508,8|0,0:0|0:0,0:0:0:0:
338,40,106558,6,0,L|358:182,1,107.999996704102,0|8,0:0|0:0,0:0:0:0:
307,214,106921,1,0,0:0:0:0:
307,214,107042,2,0,L|239:201,1,53.9999983520508,2|2,0:0|0:0,0:0:0:0:
189,254,107284,2,0,L|135:243,1,53.9999983520508,10|0,0:0|0:0,0:0:0:0:
55,227,107526,5,0,0:0:0:0:
161,373,107768,2,0,P|214:355|267:365,1,107.999996704102,10|0,0:0|0:0,0:0:0:0:
457,157,108251,1,10,0:0:0:0:
301,111,108493,1,2,0:0:0:0:
384,322,108735,5,10,0:0:0:0:
406,331,108977,1,8,0:3:0:0:
428,340,109219,1,2,3:2:0:0:
450,348,109461,2,0,P|492:318|501:266,1,107.999996704102,2|0,3:2|0:0,0:0:0:0:
479,193,109945,1,8,3:0:0:0:
348,228,110187,1,0,0:0:0:0:
217,263,110429,6,0,B|190:226|203:183|203:183|215:140|189:104,1,167.999994873047,10|0,3:2|0:0,0:0:0:0:
107,259,110792,6,0,B|101:210|136:177|136:177|171:144|166:96,1,180.000006866455,6|0,3:3|0:0,0:0:0:0:
24,181,111155,6,0,B|54:109|130:91|130:91|206:73|237:2,1,288,10|0,3:2|0:0,0:0:0:0:
295,0,111639,6,0,P|265:-1|235:3,1,60,10|0,3:2|0:0,0:0:0:0:
273,86,111880,2,0,P|286:112|305:135,1,60,10|0,3:2|0:0,0:0:0:0:
358,62,112122,2,0,P|374:37|384:8,1,60,2|0,3:2|0:0,0:0:0:0:
447,79,112364,6,0,B|420:115|433:158|433:158|445:201|419:237,1,167.999994873047,10|0,3:2|0:0,0:0:0:0:
341,182,112727,6,0,B|348:230|391:253|391:253|433:276|441:324,1,180.000006866455,6|0,3:3|0:0,0:0:0:0:
239,320,113090,6,0,B|301:366|376:344|376:344|451:321|514:368,1,288,10|0,3:2|0:0,0:0:0:0:
512,194,113574,6,0,P|500:221|499:251,1,60,10|0,3:2|0:0,0:0:0:0:
445,149,113816,2,0,P|433:121|432:91,1,60,10|0,3:2|0:0,0:0:0:0:
383,201,114058,2,0,P|371:228|370:258,1,60,2|0,3:2|0:0,0:0:0:0:
314,157,114300,6,0,B|277:130|234:143|234:143|191:155|155:129,1,167.999994873047,10|0,3:2|0:0,0:0:0:0:
240,41,114663,6,0,B|192:48|169:90|169:90|146:132|98:139,1,180.000006866455,6|0,3:3|0:0,0:0:0:0:
109,0,115026,6,0,B|62:62|85:136|85:136|107:210|61:272,1,288,10|0,3:2|0:0,0:0:0:0:
10,301,115509,6,0,P|33:281|62:272,1,60,10|0,3:2|0:0,0:0:0:0:
139,317,115751,2,0,P|167:327|189:346,1,60,10|0,3:2|0:0,0:0:0:0:
274,316,115993,2,0,P|296:296|325:287,1,60,2|0,3:2|0:0,0:0:0:0:
222,197,116235,6,0,B|258:223|301:210|301:210|344:198|380:224,1,167.999994873047,10|0,3:2|0:0,0:0:0:0:
360,77,116598,6,0,B|367:124|409:147|409:147|451:170|458:218,1,180.000006866455,6|0,3:3|0:0,0:0:0:0:
512,50,116961,6,0,B|455:103|464:180|464:180|473:256|417:310,1,288,10|0,3:2|0:0,0:0:0:0:
51,336,117445,5,10,3:2:0:0:
211,6,117687,1,10,3:2:0:0:
417,310,117929,1,10,3:2:0:0:
51,336,118171,6,0,B|42:279|42:279|59:238|59:238|48:172,1,167.999994873047,10|0,3:2|0:0,0:0:0:0:
135,290,118534,6,0,B|162:234|162:234|202:208|202:208|233:144,1,180.000006866455,6|0,3:3|0:0,0:0:0:0:
229,298,118897,6,0,B|316:253|316:253|392:259|392:259|494:206,1,288,10|0,3:2|0:0,0:0:0:0:
484,148,119380,6,0,L|493:207,1,60,10|0,3:2|0:0,0:0:0:0:
407,107,119622,2,0,L|397:166,1,60,10|0,3:2|0:0,0:0:0:0:
312,148,119864,2,0,L|321:207,1,60,2|0,3:2|0:0,0:0:0:0:
247,75,120106,6,0,B|223:127|223:127|229:171|229:171|201:232,1,167.999994873047,10|0,3:2|0:0,0:0:0:0:
141,106,120469,6,0,B|147:168|147:168|176:206|176:206|183:278,1,180.000006866455,6|0,3:3|0:0,0:0:0:0:
30,156,120832,6,0,B|88:236|88:236|159:265|159:265|226:359,1,288,10|0,3:2|0:0,0:0:0:0:
283,344,121316,6,0,L|192:363,1,60,10|0,3:2|0:0,0:0:0:0:
319,250,121558,2,0,L|228:269,1,60,10|0,3:2|0:0,0:0:0:0:
355,156,121800,2,0,L|264:175,1,60,2|0,3:2|0:0,0:0:0:0:
420,91,122042,6,0,B|367:67|367:67|323:73|323:73|262:45,1,167.999994873047,10|0,3:2|0:0,0:0:0:0:
220,190,122405,6,0,B|213:126|213:126|183:87|183:87|176:13,1,180.000006866455,6|0,3:3|0:0,0:0:0:0:
54,272,122768,6,0,B|108:190|108:190|112:115|112:115|176:21,1,288,10|0,3:2|0:0,0:0:0:0:
176,20,123251,6,0,L|278:9,1,60,10|0,3:2|0:0,0:0:0:0:
296,127,123493,2,0,L|237:135,1,60,10|0,3:2|0:0,0:0:0:0:
175,257,123735,2,0,L|276:245,1,60,2|0,3:2|0:0,0:0:0:0:
294,365,123977,2,0,L|234:372,1,60,10|0,3:2|0:0,0:0:0:0:
448,209,124219,6,0,P|454:247|448:285,1,77.9999964294435,2|0,3:2|0:0,0:0:0:0:
370,166,124461,2,0,P|376:127|370:89,1,77.9999964294435,0|0,3:0|0:0,0:0:0:0:
301,219,124703,2,0,P|307:257|301:295,1,71.9999978027344,10|0,3:2|0:0,0:0:0:0:
223,176,124945,2,0,P|229:137|223:99,1,71.9999978027344,0|0,3:0|0:0,0:0:0:0:
153,227,125187,2,0,P|159:265|153:303,1,66.0000020141602,10|0,3:2|0:0,0:0:0:0:
75,184,125429,2,0,P|81:145|75:107,1,66.0000020141602,10|0,3:2|0:0,0:0:0:0:
0,221,125671,5,2,3:2:0:0:
219,355,125913,6,0,P|307:354|394:230,1,192,10|0,3:2|0:0,0:0:0:0:
371,161,126276,6,0,P|383:260|458:327,1,204.000003890991,6|0,3:3|0:0,0:0:0:0:
509,107,126639,6,0,P|362:52|229:136,1,323.999990112305,10|0,3:2|0:0,0:0:0:0:
143,156,127122,6,0,P|179:142|286:140,1,90.0000034332277,10|0,3:2|0:0,0:0:0:0:
108,241,127364,2,0,P|146:236|250:262,1,90.0000034332277,10|0,3:2|0:0,0:0:0:0:
52,312,127606,2,0,P|90:317|183:369,1,90.0000034332277,2|0,3:2|0:0,0:0:0:0:
221,376,127848,6,0,P|291:313|384:316,1,192,10|0,3:2|0:0,0:0:0:0:
503,241,128211,6,0,P|407:209|360:120,1,204.000003890991,6|0,3:3|0:0,0:0:0:0:
263,30,128574,6,0,P|281:121|112:258,1,323.999990112305,10|0,3:2|0:0,0:0:0:0:
84,183,129058,6,0,P|114:214|123:261,1,90.0000034332277,10|0,3:2|0:0,0:0:0:0:
78,331,129300,2,0,P|90:288|126:256,1,90.0000034332277,10|0,3:2|0:0,0:0:0:0:
209,261,129542,2,0,P|166:271|120:256,1,90.0000034332277,2|0,3:2|0:0,0:0:0:0:
3,135,129784,6,0,P|83:91|164:134,1,192,10|0,3:2|0:0,0:0:0:0:
352,47,130147,6,0,P|247:73|168:0,1,204.000003890991,6|0,3:3|0:0,0:0:0:0:
77,251,130509,6,0,P|204:158|358:191,1,323.999990112305,10|0,3:2|0:0,0:0:0:0:
443,182,130993,6,0,P|401:198|357:191,1,90.0000034332277,10|0,3:2|0:0,0:0:0:0:
294,267,131235,2,0,P|252:250|208:257,1,90.0000034332277,10|0,3:2|0:0,0:0:0:0:
124,203,131477,2,0,P|82:219|38:212,1,90.0000034332277,2|0,3:2|0:0,0:0:0:0:
130,374,131719,6,0,P|164:288|124:203,1,192,10|0,3:2|0:0,0:0:0:0:
294,9,132082,6,0,P|223:80|218:179,1,204.000003890991,6|0,3:3|0:0,0:0:0:0:
512,305,132445,6,0,P|459:158|309:116,1,323.999990112305,10|0,3:2|0:0,0:0:0:0:
295,354,132929,5,10,3:2:0:0:
294,9,133171,1,10,3:2:0:0:
66,266,133413,1,10,3:2:0:0:
175,32,133655,6,0,L|138:307,1,192,10|0,3:2|0:0,0:0:0:0:
303,118,134018,6,0,L|162:349,1,204.000003890991,6|0,3:3|0:0,0:0:0:0:
480,265,134380,6,0,L|178:383,1,323.999990112305,10|0,3:2|0:0,0:0:0:0:
90,367,134864,6,0,L|194:385,1,90.0000034332277,10|0,3:2|0:0,0:0:0:0:
88,232,135106,2,0,L|0:216,1,90.0000034332277,10|0,3:2|0:0,0:0:0:0:
203,183,135348,2,0,L|307:201,1,90.0000034332277,2|0,3:2|0:0,0:0:0:0:
69,41,135590,6,0,L|90:252,1,192,10|0,3:2|0:0,0:0:0:0:
254,94,135953,6,0,L|216:295,1,204.000003890991,6|0,3:3|0:0,0:0:0:0:
508,91,136316,6,0,L|341:369,1,323.999990112305,10|0,3:2|0:0,0:0:0:0:
341,369,136800,6,0,L|431:359,1,90.0000034332277,10|0,3:2|0:0,0:0:0:0:
202,211,137042,2,0,L|291:201,1,90.0000034332277,10|0,3:2|0:0,0:0:0:0:
114,335,137284,2,0,L|203:325,1,90.0000034332277,2|0,3:2|0:0,0:0:0:0:
87,204,137526,6,0,L|-6:23,1,192,10|0,3:2|0:0,0:0:0:0:
327,138,137889,6,0,L|127:66,1,204.000003890991,6|0,3:3|0:0,0:0:0:0:
500,130,138251,6,0,L|184:203,1,323.999990112305,10|0,3:2|0:0,0:0:0:0:
185,204,138735,6,0,L|174:314,1,90.0000034332277,10|0,3:2|0:0,0:0:0:0:
281,92,138977,2,0,L|289:2,1,90.0000034332277,10|0,3:2|0:0,0:0:0:0:
342,159,139219,2,0,L|331:269,1,90.0000034332277,2|0,3:2|0:0,0:0:0:0:
478,89,139461,2,0,L|486:0,1,90.0000034332277,10|0,3:2|0:0,0:0:0:0:
182,50,139703,6,0,B|135:52|135:52|100:86,1,96,2|0,3:2|0:0,0:0:0:0:
114,266,139945,2,0,B|116:313|116:313|150:347,1,96,0|0,3:0|0:0,0:0:0:0:
330,334,140187,2,0,B|377:332|377:332|411:297,1,96,10|0,3:2|0:0,0:0:0:0:
398,118,140429,2,0,B|396:71|396:71|361:36,1,96,0|0,3:0|0:0,0:0:0:0:
179,122,140671,6,0,B|152:151|152:151|152:192,1,77.9999964294435,10|0,3:2|0:0,0:0:0:0:
233,293,140913,2,0,B|272:302|272:302|308:281,1,77.9999964294435,10|0,3:2|0:0,0:0:0:0:
355,160,141155,2,0,B|343:122|343:122|307:102,1,77.9999964294435,2|0,3:2|0:0,0:0:0:0:
256,192,141397,5,4,0:0:0:0:
0,177,155187,6,0,B|22:267|22:267|77:253,1,150,2|0,0:0|0:0,0:0:0:0:
95,75,155429,6,0,B|72:88|38:128|86:180|122:162|122:162|128:136|128:136|94:154,1,180.000006866455,2|0,0:0|0:0,0:0:0:0:
162,240,155671,6,0,B|198:263|243:248|243:248|199:268|199:268|192:340,1,204.000003890991,0|0,0:0|0:0,0:0:0:0:
212,168,155913,6,0,B|216:71|216:71|278:75|236:112|236:112|280:148|234:170,1,240,2|0,0:0|0:0,0:0:0:0:
317,218,156155,6,0,B|357:230|397:204|397:204|359:235|359:235|371:306,1,204.000003890991,0|0,0:0|0:0,0:0:0:0:
363,73,156397,6,0,B|419:78|425:19|349:17|349:17|341:133,1,240,2|0,0:0|0:0,0:0:0:0:
451,265,156639,6,0,B|493:298|536:245|491:205|491:205|447:170|492:113|525:137,1,240,10|0,0:0|0:0,0:0:0:0:
45,26,156880,6,0,L|77:307,1,240,10|0,3:2|0:0,0:0:0:0:
217,57,157243,6,0,L|158:315,1,264.000008056641,6|0,3:3|0:0,0:0:0:0:
485,3,157606,6,0,L|243:361,1,431.999986816407,10|0,3:2|0:0,0:0:0:0:
243,361,158090,6,0,L|350:370,1,107.999996704102,10|0,3:2|0:0,0:0:0:0:
471,278,158332,2,0,L|363:268,1,107.999996704102,10|0,3:2|0:0,0:0:0:0:
260,153,158574,2,0,L|367:162,1,107.999996704102,2|0,3:2|0:0,0:0:0:0:
227,38,158816,6,0,L|-43:78,1,240,10|0,3:2|0:0,0:0:0:0:
326,194,159179,6,0,L|33:168,1,264.000008056641,6|0,3:3|0:0,0:0:0:0:
487,292,159542,6,0,L|8:362,1,431.999986816407,10|0,3:2|0:0,0:0:0:0:
59,354,160026,6,0,L|87:230,1,107.999996704102,10|0,3:2|0:0,0:0:0:0:
234,146,160268,2,0,L|211:252,1,107.999996704102,10|0,3:2|0:0,0:0:0:0:
385,43,160509,2,0,L|362:149,1,107.999996704102,2|0,3:2|0:0,0:0:0:0:
66,106,160751,6,0,L|302:5,1,240,10|0,3:2|0:0,0:0:0:0:
166,205,161114,6,0,L|490:167,1,264.000008056641,6|0,3:3|0:0,0:0:0:0:
18,299,161477,6,0,L|525:375,1,431.999986816407,10|0,3:2|0:0,0:0:0:0:
445,363,161961,6,0,L|417:238,1,107.999996704102,10|0,3:2|0:0,0:0:0:0:
489,113,162203,2,0,L|512:218,1,107.999996704102,10|0,3:2|0:0,0:0:0:0:
335,286,162445,2,0,L|306:160,1,107.999996704102,2|0,3:2|0:0,0:0:0:0:
448,19,162687,6,0,L|416:300,1,240,10|0,3:2|0:0,0:0:0:0:
279,27,163050,6,0,L|334:285,1,264.000008056641,6|0,3:3|0:0,0:0:0:0:
52,3,163413,6,0,L|272:374,1,431.999986816407,10|0,3:2|0:0,0:0:0:0:
492,117,163897,5,10,3:2:0:0:
59,204,164139,1,10,3:2:0:0:
417,305,164380,1,10,3:2:0:0:
124,7,164622,6,0,P|82:122|141:229,1,251.999992309571,10|0,3:2|0:0,0:0:0:0:
255,132,164985,6,0,P|127:87|0:133,1,276.000005264282,6|0,3:3|0:0,0:0:0:0:
362,358,165348,6,0,P|336:143|498:0,1,450,10|0,3:2|0:0,0:0:0:0:
498,0,165832,6,0,P|525:46|532:99,1,107.999996704102,10|0,3:2|0:0,0:0:0:0:
432,133,166074,2,0,P|478:159|511:201,1,107.999996704102,10|0,3:2|0:0,0:0:0:0:
409,272,166316,2,0,P|462:271|512:291,1,107.999996704102,2|0,3:2|0:0,0:0:0:0:
351,341,166558,6,0,P|228:358|121:294,1,251.999992309571,10|0,3:2|0:0,0:0:0:0:
266,27,166921,6,0,P|309:154|245:272,1,276.000005264282,6|0,3:3|0:0,0:0:0:0:
44,253,167284,6,0,P|198:124|441:183,1,450,10|0,3:2|0:0,0:0:0:0:
427,170,167768,6,0,P|422:224|436:276,1,107.999996704102,10|0,3:2|0:0,0:0:0:0:
410,72,168009,2,0,P|458:48|496:11,1,107.999996704102,10|0,3:2|0:0,0:0:0:0:
332,137,168251,2,0,P|287:106|235:92,1,107.999996704102,2|0,3:2|0:0,0:0:0:0:
16,26,168493,6,0,P|113:101|236:92,1,251.999992309571,10|0,3:2|0:0,0:0:0:0:
351,0,168856,6,0,P|230:59|191:187,1,276.000005264282,6|0,3:3|0:0,0:0:0:0:
435,326,169219,6,0,P|253:203|36:238,1,450,10|0,3:2|0:0,0:0:0:0:
36,237,169703,6,0,P|70:279|81:332,1,107.999996704102,10|0,3:2|0:0,0:0:0:0:
89,131,169945,2,0,P|122:89|133:36,1,107.999996704102,10|0,3:2|0:0,0:0:0:0:
167,216,170187,2,0,P|216:235|252:275,1,107.999996704102,2|0,3:2|0:0,0:0:0:0:
222,125,170429,2,0,P|271:105|307:65,1,107.999996704102,10|0,3:2|0:0,0:0:0:0:
318,185,170671,6,0,L|426:182,1,107.999996704102,2|0,3:2|0:0,0:0:0:0:
313,195,170913,2,0,L|420:191,1,107.999996704102,0|0,3:0|0:0,0:0:0:0:
284,181,171155,2,0,L|391:177,1,107.999996704102,10|0,3:2|0:0,0:0:0:0:
246,230,171397,2,0,L|353:226,1,107.999996704102,0|0,3:0|0:0,0:0:0:0:
175,131,171639,2,0,L|282:127,1,107.999996704102,10|0,3:2|0:0,0:0:0:0:
119,307,171880,2,0,L|226:303,1,107.999996704102,10|0,3:2|0:0,0:0:0:0:
45,275,172122,2,0,L|152:271,1,107.999996704102,2|0,3:2|0:0,0:0:0:0:
7,367,172364,6,0,B|20:273|20:273|1:204|1:204|10:106,1,264.000008056641,10|0,3:2|0:0,0:0:0:0:
119,307,172727,6,0,B|157:215|157:215|156:141|156:141|197:34,1,287.999991210938,6|0,3:3|0:0,0:0:0:0:
156,384,173090,6,0,B|299:293|299:293|372:188|372:188|516:89,1,467.999978576661,10|0,3:2|0:0,0:0:0:0:
512,92,173574,6,0,L|494:226,1,113.999996955872,10|0,3:2|0:0,0:0:0:0:
242,232,173816,2,0,L|257:119,1,113.999996955872,10|0,3:2|0:0,0:0:0:0:
84,0,174058,2,0,L|66:134,1,113.999996955872,2|0,3:2|0:0,0:0:0:0:
12,205,174300,6,0,B|104:185|104:185|163:143|163:143|257:119,1,264.000008056641,10|0,3:2|0:0,0:0:0:0:
163,358,174663,6,0,B|261:337|261:337|326:290|326:290|431:264,1,287.999991210938,6|0,3:3|0:0,0:0:0:0:
5,308,175026,6,0,B|170:272|170:272|274:198|274:198|443:155,1,467.999978576661,10|0,3:2|0:0,0:0:0:0:
440,155,175509,6,0,L|391:24,1,113.999996955872,10|0,3:2|0:0,0:0:0:0:
247,9,175751,2,0,L|286:115,1,113.999996955872,10|0,3:2|0:0,0:0:0:0:
110,300,175993,2,0,L|70:193,1,113.999996955872,2|0,3:2|0:0,0:0:0:0:
204,294,176235,6,0,B|294:264|294:264|365:271|365:271|459:245,1,264.000008056641,10|0,3:2|0:0,0:0:0:0:
110,300,176598,6,0,B|215:309|215:309|286:347|286:347|394:361,1,287.999991210938,6|0,3:3|0:0,0:0:0:0:
2,302,176961,6,0,B|166:260|166:260|267:183|267:183|434:133,1,467.999978576661,10|0,3:2|0:0,0:0:0:0:
431,134,177445,6,0,L|448:-9,1,113.999996955872,10|0,3:2|0:0,0:0:0:0:
221,172,177687,2,0,L|237:28,1,113.999996955872,10|0,3:2|0:0,0:0:0:0:
10,209,177929,2,0,L|26:65,1,113.999996955872,2|0,3:2|0:0,0:0:0:0:
115,375,178171,6,0,B|129:281|129:281|111:211|111:211|123:115,1,264.000008056641,10|0,3:2|0:0,0:0:0:0:
18,336,178534,6,0,B|104:273|104:273|145:203|145:203|231:135,1,287.999991210938,6|0,3:3|0:0,0:0:0:0:
10,209,178897,6,0,B|172:255|172:255|299:238|299:238|468:279,1,467.999978576661,10|0,3:2|0:0,0:0:0:0:
18,336,179380,5,10,3:2:0:0:
457,152,179622,1,10,3:2:0:0:
0,0,179864,1,10,3:2:0:0:
376,19,180106,6,0,B|371:91|310:131|310:131|250:171|245:244,1,270.000010299683,10|0,3:2|0:0,0:0:0:0:
449,94,180469,6,0,B|389:146|312:130|312:130|234:114|175:167,1,294.000002803802,6|0,3:3|0:0,0:0:0:0:
511,247,180832,6,0,B|383:239|312:132|312:132|241:25|114:17,1,477.000020015717,10|0,3:2|0:0,0:0:0:0:
114,17,181316,6,0,P|83:65|84:123,1,117.00000044632,10|0,3:2|0:0,0:0:0:0:
120,247,181558,2,0,P|70:277|13:274,1,117.00000044632,10|0,3:2|0:0,0:0:0:0:
208,152,181800,2,0,P|258:179|285:230,1,117.00000044632,2|0,3:2|0:0,0:0:0:0:
125,362,182042,6,0,B|179:313|250:328|250:328|322:342|376:294,1,270.000010299683,10|0,3:2|0:0,0:0:0:0:
12,158,182405,6,0,B|89:142|148:194|148:194|208:247|285:231,1,294.000002803802,6|0,3:3|0:0,0:0:0:0:
0,292,182768,6,0,B|127:284|198:177|198:177|269:70|396:62,1,477.000020015717,10|0,3:2|0:0,0:0:0:0:
397,62,183251,6,0,P|455:69|508:94,1,117.00000044632,10|0,3:2|0:0,0:0:0:0:
356,216,183493,2,0,P|413:209|466:184,1,117.00000044632,10|0,3:2|0:0,0:0:0:0:
222,99,183735,2,0,P|279:105|332:130,1,117.00000044632,2|0,3:2|0:0,0:0:0:0:
223,289,183977,6,0,B|174:234|189:163|189:163|203:91|155:37,1,270.000010299683,10|0,3:2|0:0,0:0:0:0:
81,343,184340,6,0,B|85:263|151:220|151:220|218:176|222:97,1,294.000002803802,6|0,3:3|0:0,0:0:0:0:
0,204,184703,6,0,B|114:146|229:204|229:204|343:261|458:204,1,477.000020015717,10|0,3:2|0:0,0:0:0:0:
458,204,185187,6,0,P|497:162|507:105,1,117.00000044632,10|0,3:2|0:0,0:0:0:0:
342,17,185429,2,0,P|386:54|403:109,1,117.00000044632,10|0,3:2|0:0,0:0:0:0:
247,213,185671,2,0,P|286:170|297:114,1,117.00000044632,2|0,3:2|0:0,0:0:0:0:
130,26,185913,2,0,P|174:63|191:118,1,117.00000044632,10|0,3:2|0:0,0:0:0:0:
50,295,186155,6,0,P|37:237|37:179,1,117.00000044632,2|0,3:2|0:0,0:0:0:0:
105,111,186397,2,0,P|117:168|117:226,1,117.00000044632,0|0,3:0|0:0,0:0:0:0:
211,294,186639,6,0,P|198:236|198:178,1,99.0000009441376,10|0,3:2|0:0,0:0:0:0:
266,110,186881,2,0,P|278:167|278:225,1,99.0000009441376,0|0,3:0|0:0,0:0:0:0:
371,298,187122,6,0,P|358:240|358:182,1,81.0000003089905,10|0,3:2|0:0,0:0:0:0:
419,115,187364,2,0,P|431:172|431:230,1,81.0000003089905,10|0,3:2|0:0,0:0:0:0:
510,215,187606,5,2,3:2:0:0:
65,161,187848,6,0,P|7:51|127:82,1,311.999985717774,10|0,3:2|0:0,0:0:0:0:
376,145,188211,6,0,P|344:-2|222:87,1,360.000013732911,6|0,3:3|0:0,0:0:0:0:
59,285,188574,6,0,B|118:390|227:382|302:353|335:302|324:230|292:182|264:149|196:129|107:174|97:199|105:272|177:299|219:252,1,630.000006008148,10|0,3:2|0:0,0:0:0:0:
199,266,189058,6,0,P|249:234|269:178,1,120,10|0,3:2|0:0,0:0:0:0:
228,75,189300,2,0,P|230:133|268:178,1,120,10|0,3:2|0:0,0:0:0:0:
378,196,189542,2,0,P|325:168|267:179,1,120,2|0,3:2|0:0,0:0:0:0:
255,340,189784,6,0,P|341:256|292:257,1,311.999985717774,10|0,3:2|0:0,0:0:0:0:
108,156,190147,6,0,P|4:270|146:332,1,360.000013732911,6|0,3:3|0:0,0:0:0:0:
345,77,190509,6,0,B|284:-27|180:-29|100:10|67:61|78:133|109:180|137:213|205:233|294:188|305:164|297:91|225:64|183:111,1,630.000006008148,10|0,3:2|0:0,0:0:0:0:
207,96,190993,6,0,P|150:113|108:155,1,120,10|0,3:2|0:0,0:0:0:0:
0,226,191235,2,0,P|43:266|101:281,1,120,10|0,3:2|0:0,0:0:0:0:
216,340,191477,2,0,P|229:282|213:224,1,120,2|0,3:2|0:0,0:0:0:0:
323,107,191719,6,0,P|413:187|293:186,1,311.999985717774,10|0,3:2|0:0,0:0:0:0:
119,263,192082,6,0,P|77:114|231:119,1,360.000013732911,6|0,3:3|0:0,0:0:0:0:
358,311,192445,6,0,B|297:415|193:417|113:378|80:327|91:255|122:207|150:174|218:154|307:199|318:224|310:297|238:324|196:277,1,630.000006008148,10|0,3:2|0:0,0:0:0:0:
220,293,192929,6,0,P|174:254|165:196,1,120,10|0,3:2|0:0,0:0:0:0:
376,201,193171,2,0,P|365:259|319:296,1,120,10|0,3:2|0:0,0:0:0:0:
218,112,193413,2,0,P|273:91|329:112,1,120,2|0,3:2|0:0,0:0:0:0:
454,168,193655,6,0,P|461:288|376:202,1,311.999985717774,10|0,3:2|0:0,0:0:0:0:
176,270,194018,6,0,P|308:198|312:349,1,360.000013732911,6|0,3:3|0:0,0:0:0:0:
0,95,194380,6,0,B|61:-9|165:-11|245:28|278:79|267:151|236:198|208:231|140:251|51:206|40:182|48:109|120:82|163:132,1,630.000006008148,10|0,3:2|0:0,0:0:0:0:
512,0,194864,5,10,3:2:0:0:
256,384,195106,1,10,3:2:0:0:
0,0,195348,1,10,3:2:0:0:
247,174,195590,6,0,B|203:120|230:52|230:52|286:63|295:105|295:105|288:63|326:30|326:30|381:67|369:150,1,431.999986816407,10|0,3:2|0:0,0:0:0:0:
278,342,195953,6,0,B|266:271|326:223|326:223|371:263|357:305|357:305|372:263|424:254|424:254|455:316|400:383,1,455.999987823487,6|0,3:3|0:0,0:0:0:0:
46,216,196316,6,0,B|-25:128|20:16|20:16|111:34|126:103|126:103|113:32|177:-21|177:-21|268:40|247:176,1,720,10|0,3:2|0:0,0:0:0:0:
202,277,196800,6,0,P|180:333|147:383,1,120,10|0,3:2|0:0,0:0:0:0:
356,195,197042,2,0,P|416:186|475:190,1,120,10|0,3:2|0:0,0:0:0:0:
208,102,197284,2,0,P|171:56|144:2,1,120,2|0,3:2|0:0,0:0:0:0:
288,129,197526,6,0,B|309:28|364:-16|364:-16|420:36|423:138|423:138|391:84|352:84,1,431.999986816407,10|0,3:2|0:0,0:0:0:0:
69,214,197889,6,0,B|63:104|107:42|107:42|179:81|211:186|211:186|162:139|123:150,1,455.999987823487,6|0,3:3|0:0,0:0:0:0:
167,360,198251,6,0,B|201:200|288:129|288:129|376:212|381:375|381:375|329:289|269:289,1,683.99998173523,10|0,3:2|0:0,0:0:0:0:
268,289,198735,6,0,P|210:315|167:361,1,125.999996154785,10|0,3:2|0:0,0:0:0:0:
166,154,198977,2,0,P|173:92|155:31,1,125.999996154785,10|0,3:2|0:0,0:0:0:0:
333,133,199219,2,0,P|383:170|444:184,1,125.999996154785,2|0,3:2|0:0,0:0:0:0:
53,50,199461,6,0,B|7:64|-64:117|-16:241|57:260|163:225|129:123|129:123|56:138,1,431.999986816407,10|0,3:2|0:0,0:0:0:0:
287,203,199824,6,0,B|237:191|143:202|121:342|179:398|295:422|318:310|318:310|242:285,1,455.999987823487,6|0,3:3|0:0,0:0:0:0:
374,7,200187,6,0,B|300:29|187:113|264:311|380:341|549:285|495:123|495:123|378:147,1,720,10|0,3:2|0:0,0:0:0:0:
379,147,200671,6,0,P|345:194|340:253,1,120,10|0,3:2|0:0,0:0:0:0:
233,321,200913,2,0,P|209:266|160:233,1,120,10|0,3:2|0:0,0:0:0:0:
155,107,201155,2,0,P|214:114|267:88,1,120,2|0,3:2|0:0,0:0:0:0:
121,328,201397,6,0,B|165:120|277:28|277:28|391:136|398:347|398:347|330:236|253:236,1,863.999973632813,10|2,3:2|0:0,0:0:0:0:
274,238,202606,5,2,0:0:0:0:
207,183,202848,1,2,0:0:0:0:
287,154,203090,1,2,0:0:0:0:
