osu file format v14

[General]
AudioFilename: audio.mp3
AudioLeadIn: 0
PreviewTime: 82182
Countdown: 0
SampleSet: Soft
StackLeniency: 0.7
Mode: 0
LetterboxInBreaks: 0
WidescreenStoryboard: 0

[Editor]
Bookmarks: 175,14189,28204,42218,56233,70247,82291,82510,82729,82948,83167,83386,83605,83824,84043,84262,98277,112291,126306,140320,154335,168350,182364,196379,199883,210393,224408,238423
DistanceSpacing: 1
BeatDivisor: 4
GridSize: 32
TimelineZoom: 1

[Metadata]
Title:HAVE A NICE DAY
TitleUnicode:HAVE A NICE DAY
Artist:WORLD ORDER
ArtistUnicode:WORLD ORDER
Creator:-Rei
Version:Kyou mo Ganbarou
Source:
Tags:SINGULARITY pop j-pop jpop Sudou Genki Sudo 須藤 元気 Yusuke Morisawa 森澤 祐介 Hayato Uchiyama 内山 隼人 Masato Ochiai 落合 将人 Takashi Jonishi 上西 隆史 Akihiro Takahashi 高橋 昭博 Ryuta Tomita 富田 竜太 Group male vocalist electro electronic techno japanese AKIHIRO TAKAHASHI HAYATO UCHIYAMA YUSUKE MORISAWA TAKASHI JONISHI RYUTA TOMITA kyou wa takekii hanasaka yui nana abe usaha bongo
BeatmapID:3708170
BeatmapSetID:1808105

[Difficulty]
HPDrainRate:5
CircleSize:4.5
OverallDifficulty:7
ApproachRate:8
SliderMultiplier:1.8
SliderTickRate:1

[Events]
//Background and Video events
Video,-1189,"kyou wa have a nice day.mp4"
0,0,"aaaasasas_jpg_92.jpg",0,0
//Break Periods
//Storyboard Layer 0 (Background)
//Storyboard Layer 1 (Fail)
//Storyboard Layer 2 (Pass)
//Storyboard Layer 3 (Foreground)
//Storyboard Layer 4 (Overlay)
//Storyboard Sound Samples

[TimingPoints]
175,437.956204379562,4,2,1,80,1,0
175,-166.666666666667,4,2,1,40,0,0
14189,-125,4,2,1,60,0,0
27547,-250,4,2,1,70,0,0
28204,-125,4,2,1,70,0,0
42218,-125,4,2,2,80,0,0
77255,-125,4,2,1,80,0,0
84262,-100,4,2,1,80,0,0
112291,-125,4,2,1,50,0,0
140320,-125,4,2,2,60,0,0
175357,-125,4,2,1,80,0,0
180393,-152.51493330322,4,2,1,80,0,0
182364,-100,4,2,1,80,0,0
196379,-166.666666666667,4,2,1,80,0,0
196488,-166.666666666667,4,2,1,5,0,0
199773,-166.666666666667,4,2,1,40,0,0
199883,-153.846153846156,4,2,1,80,0,0
199992,-153.846153846156,4,2,1,5,0,0
203277,-153.846153846156,4,2,1,40,0,0
203386,-200,4,2,1,80,0,0
203496,-200,4,2,1,5,0,0
206780,-200,4,2,1,60,0,0
206890,-178.571428571429,4,2,1,80,0,0
206999,-178.571428571429,4,2,1,5,0,0
209956,-178.571428571429,4,2,2,80,0,0
210393,-88.8888888888889,4,2,1,80,0,0

[Colours]
Combo1 : 255,226,128
Combo2 : 201,155,227
Combo3 : 234,170,149
Combo4 : 224,158,201

[HitObjects]
45,13,175,6,0,L|32:72,1,53.9999983520508,2|0,1:0|0:0,0:0:0:0:
11,144,612,1,0,1:0:0:0:
113,41,831,2,0,L|100:100,1,53.9999983520508,2|0,0:0|1:0,0:0:0:0:
79,172,1268,1,0,0:0:0:0:
162,141,1488,6,0,L|231:126,2,53.9999983520508,2|0|0,1:0|0:0|1:0,0:0:0:0:
216,202,2145,2,0,L|286:211,2,53.9999983520508,2|0|0,0:0|1:0|0:0,0:0:0:0:
136,224,2802,6,0,L|123:283,1,53.9999983520508,2|0,1:0|0:0,0:0:0:0:
76,337,3240,1,2,1:0:0:0:
49,269,3459,1,0,0:0:0:0:
185,352,3678,6,0,L|198:293,1,53.9999983520508,2|0,1:0|0:0,0:0:0:0:
212,228,4115,1,0,1:0:0:0:
254,380,4335,2,0,L|267:321,1,53.9999983520508,2|0,0:0|1:0,0:0:0:0:
281,256,4772,1,0,0:0:0:0:
340,306,4991,2,0,P|372:307|405:300,1,53.9999983520508,2|0,1:0|0:0,0:0:0:0:
485,183,5430,6,0,L|493:155,4,26.9999991760254,2|0|2|0|0,1:0|0:0|0:0|0:0|1:0,0:0:0:0:
452,254,6087,1,2,0:0:0:0:
353,129,6306,5,0,1:0:0:0:
303,181,6525,1,2,0:0:0:0:
359,230,6744,1,2,1:0:0:0:
407,176,6963,1,0,0:0:0:0:
235,217,7182,6,0,L|174:204,1,53.9999983520508,2|0,1:0|0:0,0:0:0:0:
113,189,7619,1,0,1:0:0:0:
236,141,7839,2,0,L|175:128,1,53.9999983520508,2|0,0:0|1:0,0:0:0:0:
114,113,8276,1,0,0:0:0:0:
263,72,8495,6,0,L|331:57,2,53.9999983520508,2|0|0,1:0|0:0|1:0,0:0:0:0:
189,54,9153,2,0,L|120:39,2,53.9999983520508,2|0|0,0:0|1:0|0:0,0:0:0:0:
263,72,9810,6,0,L|331:57,1,53.9999983520508,2|0,1:0|0:0,0:0:0:0:
386,80,10247,1,2,1:0:0:0:
413,15,10466,1,0,0:0:0:0:
512,84,10685,6,0,L|435:67,1,53.9999983520508,2|0,1:0|0:0,0:0:0:0:
386,80,11122,1,0,1:0:0:0:
502,154,11342,2,0,L|425:137,1,53.9999983520508,2|0,0:0|1:0,0:0:0:0:
376,150,11779,1,0,0:0:0:0:
312,195,11999,6,0,L|235:178,2,53.9999983520508,2|0|0,1:0|0:0|1:0,0:0:0:0:
460,262,12656,2,0,L|536:245,2,53.9999983520508,2|0|0,0:0|1:0|0:0,0:0:0:0:
389,231,13313,5,2,1:0:0:0:
330,283,13532,1,0,0:0:0:0:
370,349,13751,1,2,1:0:0:0:
444,334,13970,1,2,0:0:0:0:
356,166,14189,1,4,1:2:0:0:
356,166,14408,6,0,P|309:166|286:182,1,72,2|0,0:0|1:0,0:0:0:0:
216,159,14846,1,0,0:0:0:0:
307,145,15065,2,0,P|330:104|328:76,1,72,2|0,1:0|0:0,0:0:0:0:
258,30,15503,1,0,1:0:0:0:
126,127,15722,6,0,P|102:104|172:83,1,144,2|2,0:0|0:0,0:0:0:0:
201,145,16379,2,0,P|198:188|184:215,1,72,0|2,1:0|0:0,0:0:0:0:
112,236,16817,1,0,1:0:0:0:
237,188,17036,2,2,P|212:223|187:240,1,72,0|0,0:0|1:0,0:0:0:0:
128,161,17474,1,0,0:0:0:0:
75,345,17693,6,0,B|175:363|175:363|228:322,1,144,2|0,1:0|1:0,0:0:0:0:
288,336,18350,1,0,0:0:0:0:
288,336,18569,2,0,P|293:292|282:257,1,72,0|0,1:0|0:0,0:0:0:0:
371,253,19007,2,0,P|353:212|326:187,1,72,0|0,1:0|0:0,0:0:0:0:
405,142,19445,5,0,1:0:0:0:
394,133,19554,1,2,0:0:0:0:
382,126,19663,1,2,0:0:0:0:
370,121,19773,1,0,0:0:0:0:
357,117,19882,1,2,1:0:0:0:
344,115,19992,1,0,0:0:0:0:
330,114,20101,1,2,0:0:0:0:
317,115,20211,1,2,0:0:0:0:
304,118,20320,2,0,L|254:127,2,36,0|0|2,1:0|0:0|0:0,0:0:0:0:
375,41,20758,5,0,1:0:0:0:
375,41,20868,1,0,0:0:0:0:
375,41,20977,1,2,0:0:0:0:
417,194,21196,6,0,P|480:174|476:108,1,144,2|0,1:0|1:0,0:0:0:0:
386,121,21853,1,0,0:0:0:0:
348,225,22072,2,0,P|351:269|365:296,1,72,2|0,1:0|0:0,0:0:0:0:
441,319,22510,1,0,1:0:0:0:
301,349,22729,6,0,L|227:362,1,72,2|0,0:0|1:0,0:0:0:0:
197,288,23167,2,2,P|200:244|214:217,1,72,0|0,0:0|1:0,0:0:0:0:
356,200,23605,2,0,P|316:219|286:220,1,72,2|0,0:0|1:0,0:0:0:0:
181,150,24043,2,0,P|149:132|114:128,1,72,0|0,0:0|1:0,0:0:0:0:
40,181,24481,1,2,0:0:0:0:
162,114,24700,6,0,P|175:63|93:7,1,144,2|0,1:0|1:0,0:0:0:0:
94,86,25357,1,0,0:0:0:0:
197,48,25576,2,0,P|238:57|267:84,1,72,0|0,1:0|0:0,0:0:0:0:
314,19,26014,1,0,1:0:0:0:
314,19,26233,2,0,P|336:54|338:93,1,72,0|0,0:0|1:0,0:0:0:0:
292,145,26671,6,0,L|307:234,1,72,0|0,0:0|1:0,0:0:0:0:
452,255,27109,2,0,P|420:237|384:236,1,72,0|0,0:0|1:0,0:0:0:0:
328,282,27547,2,0,L|320:327,2,36,0|0|0,0:0|1:0|0:0,0:0:0:0:
254,277,28204,6,0,L|95:243,1,144,4|0,1:2|1:0,0:0:0:0:
113,247,28861,1,0,0:0:0:0:
157,361,29080,2,0,P|180:320|178:292,1,72,2|0,1:0|0:0,0:0:0:0:
168,190,29518,1,0,1:0:0:0:
168,190,29737,1,2,0:0:0:0:
51,291,29956,6,0,P|15:294|10:202,1,144,2|0,1:0|1:0,0:0:0:0:
111,126,30612,2,0,P|71:138|31:143,1,72,2|0,0:0|1:0,0:0:0:0:
239,201,31050,2,0,P|198:192|161:176,1,72,2|0,0:0|1:0,0:0:0:0:
183,102,31489,1,0,0:0:0:0:
320,241,31708,6,0,P|395:217|408:141,1,144,2|0,1:0|1:0,0:0:0:0:
277,141,32365,1,0,0:0:0:0:
277,141,32584,2,0,L|358:123,1,72,2|0,1:0|0:0,0:0:0:0:
282,65,33021,2,0,L|363:47,1,72,2|0,1:0|0:0,0:0:0:0:
493,76,33459,5,0,1:0:0:0:
475,72,33568,1,2,0:0:0:0:
457,69,33677,1,2,0:0:0:0:
439,65,33787,1,0,0:0:0:0:
422,62,33896,1,2,1:0:0:0:
404,59,34006,1,0,0:0:0:0:
386,55,34115,1,2,0:0:0:0:
369,52,34225,1,2,0:0:0:0:
351,49,34335,2,0,L|356:10,3,36,0|0|2|0,1:0|0:0|0:0|0:0,0:0:0:0:
341,126,34773,5,2,1:0:0:0:
341,126,34883,1,2,0:0:0:0:
341,126,34992,1,2,0:0:0:0:
196,155,35211,6,0,P|144:138|139:53,1,144,2|0,1:0|1:0,0:0:0:0:
209,68,35868,1,0,0:0:0:0:
209,68,36087,1,2,1:0:0:0:
123,134,36306,2,0,P|82:123|52:97,1,72,2|0,0:0|1:0,0:0:0:0:
3,195,36744,6,0,P|67:192|147:238,1,144,2|0,0:0|0:0,0:0:0:0:
191,281,37401,2,0,P|174:313|145:279,1,72,2|0,1:0|0:0,0:0:0:0:
136,227,37839,1,2,1:0:0:0:
76,295,38058,2,0,P|38:283|-3:259,1,72,2|0,0:0|1:0,0:0:0:0:
136,227,38496,1,2,0:0:0:0:
126,382,38715,6,0,P|174:332|254:371,1,144,2|0,1:0|1:0,0:0:0:0:
240,350,39372,1,0,0:0:0:0:
272,284,39591,2,0,P|306:308|322:344,1,72,2|0,1:0|0:0,0:0:0:0:
217,235,40029,2,0,P|252:213|291:212,1,72,2|0,1:0|0:0,0:0:0:0:
432,259,40466,5,0,1:0:0:0:
361,247,40685,2,0,L|346:158,1,72,2|0,0:0|1:0,0:0:0:0:
390,107,41123,1,0,0:0:0:0:
284,140,41342,2,0,L|269:51,1,72,0|0,1:0|0:0,0:0:0:0:
328,18,41780,1,0,1:0:0:0:
208,126,41999,1,0,0:0:0:0:
427,182,42218,1,4,0:1:0:0:
155,248,42656,6,0,P|143:275|160:334,1,72,8|0,0:0|0:0,0:0:0:0:
276,331,43094,2,0,P|294:285|226:306,1,144,10|8,0:0|0:0,0:0:0:0:
32,184,43970,6,0,P|14:230|82:209,1,144,10|8,0:0|0:0,0:0:0:0:
102,151,44627,1,0,0:0:0:0:
102,151,44846,2,0,P|99:110|117:70,1,72,10|0,0:0|0:0,0:0:0:0:
215,20,45284,2,0,L|188:162,1,144,10|8,0:0|0:0,0:0:0:0:
378,368,46160,6,0,P|392:330|381:291,1,72,8|0,0:0|0:0,0:0:0:0:
270,289,46598,2,0,L|122:315,1,144,10|8,0:0|0:0,0:0:0:0:
360,230,47474,6,0,L|508:204,1,144,10|8,0:0|0:0,0:0:0:0:
415,139,48131,1,2,0:0:0:0:
415,139,48350,1,8,0:0:0:0:
501,205,48569,1,2,0:0:0:0:
479,326,48788,2,0,P|435:331|460:248,1,144,10|8,0:0|0:0,0:0:0:0:
210,298,49664,6,0,L|118:315,1,72,8|0,0:0|0:0,0:0:0:0:
16,261,50102,2,0,P|4:221|88:204,1,144,10|8,0:0|0:0,0:0:0:0:
180,205,50758,1,0,0:0:0:0:
210,298,50977,6,0,P|274:298|276:233,1,144,10|8,0:0|0:0,0:0:0:0:
248,154,51634,1,0,0:0:0:0:
360,87,51853,2,0,P|349:136|321:158,1,72,10|0,0:0|0:0,0:0:0:0:
164,132,52291,2,0,P|192:96|302:98,1,144,10|8,0:0|0:0,0:0:0:0:
364,221,52948,5,2,0:0:0:0:
458,194,53167,1,8,0:0:0:0:
485,274,53386,1,2,0:0:0:0:
364,221,53605,2,0,L|287:184,1,72,10|0,0:0|0:0,0:0:0:0:
208,150,54043,1,8,0:0:0:0:
228,260,54262,6,0,L|211:346,1,72,2|8,0:0|0:0,0:0:0:0:
118,222,54700,2,0,L|101:308,1,72,2|8,0:0|0:0,0:0:0:0:
261,243,55138,2,0,L|244:329,1,72,2|8,0:0|0:0,0:0:0:0:
104,199,55576,1,2,0:0:0:0:
212,181,55795,1,8,0:0:0:0:
314,165,56014,1,2,0:0:0:0:
36,125,56233,1,4,0:2:0:0:
283,30,56671,6,0,L|264:115,1,72,10|0,1:2|0:0,0:0:0:0:
157,101,57109,2,0,P|139:55|207:76,1,144,10|8,1:2|1:2,0:0:0:0:
220,149,57766,1,2,0:0:0:0:
392,139,57985,6,0,P|410:93|342:114,1,144,8|8,1:2|1:2,0:0:0:0:
369,219,58642,1,0,0:0:0:0:
369,219,58861,2,0,L|449:201,1,72,10|0,1:2|0:0,0:0:0:0:
363,318,59299,2,0,L|235:290,1,108,10|0,1:2|0:0,0:0:0:0:
226,300,59737,2,0,P|210:331|204:372,1,72,8|0,1:2|0:0,0:0:0:0:
120,332,60174,6,0,P|114:296|98:264,1,72,10|0,1:2|0:0,0:0:0:0:
2,192,60613,2,0,P|77:198|107:129,1,144,10|8,1:2|1:2,0:0:0:0:
74,78,61269,1,0,0:0:0:0:
180,180,61489,6,0,B|230:149|287:166|287:166|265:221,1,144,10|8,1:2|1:2,0:0:0:0:
262,92,62146,1,0,0:0:0:0:
262,92,62365,1,10,1:2:0:0:
354,202,62584,1,0,0:0:0:0:
481,135,62803,2,0,P|466:82|397:87,1,108,10|0,1:2|0:0,0:0:0:0:
419,72,63240,2,0,P|454:76|453:37,1,72,8|0,1:2|0:0,0:0:0:0:
336,18,63679,6,0,L|343:97,1,72,10|0,1:2|0:0,0:0:0:0:
248,240,64117,2,0,P|291:184|360:210,1,144,10|8,1:2|1:2,0:0:0:0:
407,255,64773,1,2,0:0:0:0:
313,329,64992,6,0,L|161:298,1,144,8|8,1:2|1:2,0:0:0:0:
91,310,65649,1,2,0:0:0:0:
42,252,65868,1,8,1:2:0:0:
83,190,66087,1,2,0:0:0:0:
235,229,66306,2,0,P|290:198|250:148,1,144,10|8,1:2|1:2,0:0:0:0:
83,190,66963,5,2,0:0:0:0:
175,173,67182,1,8,1:2:0:0:
261,161,67401,1,2,0:0:0:0:
117,122,67620,2,0,P|85:97|70:65,1,72,10|0,1:2|0:0,0:0:0:0:
97,2,68058,1,10,1:2:0:0:
275,90,68277,6,0,L|256:180,1,72,2|8,0:0|1:2,0:0:0:0:
418,25,68715,2,0,L|399:115,1,72,2|8,0:0|1:2,0:0:0:0:
299,97,69153,2,0,L|280:187,1,72,2|8,0:0|1:2,0:0:0:0:
384,265,69591,1,2,0:0:0:0:
384,265,69810,1,8,1:2:0:0:
454,199,70029,1,2,0:0:0:0:
267,272,70247,6,0,P|212:269|178:180,1,144,12|8,1:2|1:2,0:0:0:0:
182,275,70904,2,0,P|172:317|153:337,1,72,2|8,0:0|1:2,0:0:0:0:
34,247,71342,1,2,0:0:0:0:
89,198,71561,2,0,P|108:236|106:264,1,72,10|0,1:2|0:0,0:0:0:0:
13,137,71999,6,0,L|170:116,1,144,8|8,1:2|1:2,0:0:0:0:
311,83,72656,1,2,0:0:0:0:
220,57,72875,2,0,L|131:38,1,72,8|2,1:2|0:0,0:0:0:0:
285,13,73313,1,10,1:2:0:0:
285,13,73532,1,0,0:0:0:0:
315,182,73751,6,0,P|370:186|383:102,1,144,8|8,1:2|1:2,0:0:0:0:
243,140,74408,2,0,L|229:229,1,72,2|8,0:0|1:2,0:0:0:0:
278,326,74846,1,2,0:0:0:0:
278,326,75065,2,0,P|298:292|297:258,1,72,10|0,1:2|0:0,0:0:0:0:
161,259,75503,6,0,P|93:263|64:202,1,144,8|8,1:2|1:2,0:0:0:0:
178,183,76160,1,2,0:0:0:0:
232,278,76379,2,0,L|222:383,1,72,8|2,1:2|0:0,0:0:0:0:
331,249,76817,2,0,L|341:144,1,72,10|0,1:2|0:0,0:0:0:0:
263,117,77255,6,0,B|296:152|296:152|405:139,1,144,4|8,1:2|1:2,0:0:0:0:
327,75,77912,1,2,0:0:0:0:
283,178,78131,2,0,P|287:219|308:248,1,72,8|2,1:2|0:0,0:0:0:0:
464,174,78569,1,10,1:2:0:0:
391,140,78788,1,0,0:0:0:0:
292,318,79007,6,0,L|213:308,1,72,8|0,1:2|0:0,0:0:0:0:
337,221,79445,2,0,L|258:211,1,72,8|0,1:2|0:0,0:0:0:0:
340,346,79883,2,0,L|261:336,1,72,8|0,1:2|0:0,0:0:0:0:
395,201,80320,2,0,L|316:191,1,72,8|0,1:2|0:0,0:0:0:0:
160,271,80758,5,8,1:2:0:0:
160,271,80868,2,0,P|151:246|150:227,1,36,8|0,0:0|0:0,0:0:0:0:
238,206,81087,5,8,0:0:0:0:
238,206,81197,2,0,P|241:179|249:162,1,36,8|0,1:2|0:0,0:0:0:0:
332,175,81415,5,8,0:0:0:0:
332,175,81525,1,8,0:0:0:0:
332,175,81634,1,8,1:2:0:0:
332,175,81744,1,8,0:0:0:0:
332,175,81853,2,0,P|348:154|364:143,1,36,8|0,0:0|0:0,0:0:0:0:
465,151,82072,5,0,1:2:0:0:
465,151,82182,1,8,0:0:0:0:
465,151,82291,1,2,0:0:0:0:
268,12,84262,6,0,L|240:202,1,180,4|8,1:0|1:2,0:0:0:0:
48,207,84919,1,2,0:0:0:0:
68,197,85028,1,2,0:0:0:0:
90,192,85137,1,8,1:2:0:0:
112,192,85247,1,2,0:0:0:0:
134,196,85356,1,2,0:0:0:0:
110,349,85576,2,0,P|95:306|109:243,1,90,8|0,1:2|0:0,0:0:0:0:
177,135,86014,5,8,1:2:0:0:
177,135,86123,1,2,0:0:0:0:
177,135,86233,1,2,0:0:0:0:
293,260,86452,2,0,P|318:227|270:238,1,90,8|0,1:2|0:0,0:0:0:0:
220,280,86780,1,2,0:0:0:0:
220,280,86890,2,0,P|225:327|242:383,1,90,10|0,1:2|0:0,0:0:0:0:
312,143,87328,2,0,P|323:99|328:54,1,90,10|0,1:2|0:0,0:0:0:0:
203,205,87766,6,0,P|130:210|87:97,1,180,10|8,1:2|1:2,0:0:0:0:
122,63,88423,1,2,0:0:0:0:
124,52,88532,1,2,0:0:0:0:
127,41,88641,1,8,1:2:0:0:
129,30,88751,1,2,0:0:0:0:
132,19,88860,1,2,0:0:0:0:
253,142,89080,6,0,L|371:118,1,90,8|0,1:2|0:0,0:0:0:0:
341,124,89408,1,2,0:0:0:0:
341,124,89518,1,10,1:2:0:0:
270,64,89737,1,2,0:0:0:0:
337,212,89956,6,0,L|437:190,1,90,8|0,1:2|0:0,0:0:0:0:
254,226,90393,2,0,L|243:166,2,45,10|2|2,1:2|0:0|0:0,0:0:0:0:
399,306,90831,2,0,L|299:284,1,90,8|0,1:2|0:0,0:0:0:0:
95,297,91269,6,0,P|178:278|161:359,1,180,6|8,1:2|1:2,0:0:0:0:
164,190,91926,1,2,0:0:0:0:
182,177,92035,1,2,0:0:0:0:
203,168,92144,1,8,1:2:0:0:
225,163,92254,1,2,0:0:0:0:
247,161,92363,1,2,0:0:0:0:
123,127,92583,2,0,P|146:89|206:48,1,90,8|0,1:2|0:0,0:0:0:0:
257,43,93021,5,8,1:2:0:0:
257,43,93131,1,2,0:0:0:0:
257,43,93240,1,2,0:0:0:0:
406,146,93459,2,0,L|289:123,1,90,8|0,1:2|0:0,0:0:0:0:
251,165,93897,1,10,1:2:0:0:
251,165,94116,1,0,0:0:0:0:
371,285,94335,5,10,1:2:0:0:
397,280,94444,1,2,0:0:0:0:
428,279,94553,1,2,0:0:0:0:
455,279,94663,1,2,0:0:0:0:
486,276,94773,2,0,B|401:281|380:228|294:235,1,180,8|8,1:2|1:2,0:0:0:0:
176,274,95430,5,2,0:0:0:0:
190,272,95539,1,2,0:0:0:0:
203,267,95648,1,8,1:2:0:0:
218,262,95758,1,2,0:0:0:0:
232,260,95867,1,2,0:0:0:0:
274,318,96087,1,8,1:2:0:0:
86,251,96306,6,0,P|89:179|186:199,1,180,2|0,0:0|0:0,0:0:0:0:
203,267,96963,2,0,L|183:359,1,90,10|0,1:2|0:0,0:0:0:0:
19,109,97401,2,0,L|0:201,1,90,10|0,1:2|0:0,0:0:0:0:
183,0,97839,2,0,L|163:92,1,90,10|0,1:2|0:0,0:0:0:0:
296,208,98277,6,0,P|349:214|380:112,1,180,4|8,1:2|1:2,0:0:0:0:
252,92,98934,1,2,0:0:0:0:
253,103,99043,1,2,0:0:0:0:
255,114,99152,1,8,1:2:0:0:
257,125,99262,1,2,0:0:0:0:
258,136,99371,1,2,0:0:0:0:
160,271,99591,6,0,P|99:268|73:244,1,90,8|0,1:2|0:0,0:0:0:0:
181,185,100029,1,8,1:2:0:0:
181,185,100138,1,2,0:0:0:0:
181,185,100247,1,2,0:0:0:0:
294,285,100466,2,0,L|283:385,1,90,8|0,1:2|0:0,0:0:0:0:
259,219,100904,6,0,P|296:195|340:199,1,90,10|0,1:2|0:0,0:0:0:0:
510,304,101342,2,0,P|465:308|428:284,1,90,10|0,1:2|0:0,0:0:0:0:
412,212,101671,5,2,0:0:0:0:
412,212,101780,2,0,L|420:109,1,90,10|0,1:2|0:0,0:0:0:0:
244,68,102218,1,8,1:2:0:0:
399,19,102437,1,0,0:0:0:0:
318,182,102656,6,0,L|301:229,2,45,8|2|2,1:2|0:0|0:0,0:0:0:0:
348,99,103094,1,8,1:2:0:0:
161,172,103313,1,2,0:0:0:0:
161,172,103423,1,2,0:0:0:0:
161,172,103532,1,8,1:2:0:0:
245,147,103751,1,0,0:0:0:0:
222,383,103970,6,0,P|252:349|242:296,1,90,10|0,1:2|0:0,0:0:0:0:
22,264,104408,1,10,1:2:0:0:
28,296,104517,1,2,0:0:0:0:
53,317,104626,1,2,0:0:0:0:
87,318,104736,1,2,0:0:0:0:
113,298,104846,1,10,1:2:0:0:
132,286,104955,1,2,0:0:0:0:
154,287,105064,1,2,0:0:0:0:
171,300,105174,1,2,0:0:0:0:
180,320,105284,6,0,B|216:217|149:238|172:137,1,180,4|8,1:2|1:2,0:0:0:0:
255,174,105941,1,0,0:0:0:0:
174,70,106160,2,0,L|151:29,2,45,8|2|2,1:2|0:0|0:0,0:0:0:0:
84,188,106598,1,8,1:2:0:0:
263,101,106817,6,0,P|296:111|318:131,1,45,2|2,0:0|0:0,0:0:0:0:
352,174,107036,2,0,L|340:283,1,90,8|0,1:2|0:0,0:0:0:0:
169,251,107474,2,0,L|181:360,1,90,8|0,1:2|0:0,0:0:0:0:
364,367,107912,1,8,1:2:0:0:
364,367,108021,1,2,0:0:0:0:
364,367,108131,1,2,0:0:0:0:
267,304,108350,1,8,1:2:0:0:
447,265,108569,1,2,0:0:0:0:
265,183,108788,6,0,P|245:139|350:116,1,180,10|8,1:2|1:2,0:0:0:0:
474,153,109445,1,2,0:0:0:0:
474,153,109554,1,2,0:0:0:0:
474,153,109664,2,0,P|496:105|487:69,1,90,8|0,1:2|0:0,0:0:0:0:
325,13,110102,2,0,L|341:107,1,90,10|0,1:2|0:0,0:0:0:0:
283,144,110430,5,2,0:0:0:0:
286,148,110539,2,0,P|242:152|202:133,2,90,0|0|0,1:0|0:0|1:0,0:0:0:0:
231,12,111196,1,0,0:0:0:0:
150,23,111415,2,0,P|132:57|180:50,1,90,8|0,1:2|0:0,0:0:0:0:
292,84,111853,2,0,P|303:37|286:-4,1,90,8|0,1:2|0:0,0:0:0:0:
55,60,112291,1,4,1:2:0:0:
99,123,112510,6,0,L|198:101,1,72,2|0,0:0|1:0,0:0:0:0:
234,137,112948,1,0,0:0:0:0:
145,215,113167,2,0,L|45:193,1,72,2|0,1:0|0:0,0:0:0:0:
28,142,113605,1,0,1:0:0:0:
141,296,113824,6,0,P|174:298|211:279,1,72,2|0,0:0|1:0,0:0:0:0:
208,282,114262,2,0,P|172:280|140:295,1,72,2|0,0:0|1:0,0:0:0:0:
293,238,114700,2,0,P|312:208|314:172,1,72,2|0,0:0|1:0,0:0:0:0:
288,333,115138,2,0,P|304:364|333:384,1,72,2|0,0:0|1:0,0:0:0:0:
441,300,115575,1,0,0:0:0:0:
334,384,115795,6,0,P|285:330|313:246,1,144,2|0,1:0|1:0,0:0:0:0:
401,153,116452,1,0,0:0:0:0:
401,153,116671,2,0,L|392:233,1,72,0|0,1:0|0:0,0:0:0:0:
487,15,117109,2,0,L|496:95,1,72,0|0,1:0|0:0,0:0:0:0:
295,170,117547,5,0,1:0:0:0:
272,167,117656,1,2,0:0:0:0:
250,164,117765,1,2,0:0:0:0:
228,161,117875,1,0,0:0:0:0:
205,158,117984,1,2,1:0:0:0:
183,155,118094,1,0,0:0:0:0:
161,152,118203,1,2,0:0:0:0:
138,149,118313,1,2,0:0:0:0:
116,146,118423,2,0,L|106:95,3,36,0|0|2|2,1:0|0:0|0:0|0:0,0:0:0:0:
173,46,118860,5,0,1:0:0:0:
173,46,118970,1,0,0:0:0:0:
173,46,119079,1,2,0:0:0:0:
57,211,119298,6,0,P|-6:191|-2:125,1,144,2|0,1:0|1:0,0:0:0:0:
51,75,119955,1,0,0:0:0:0:
149,160,120174,2,0,L|74:141,1,72,2|0,1:0|0:0,0:0:0:0:
231,134,120612,1,0,1:0:0:0:
179,275,120831,6,0,L|105:288,1,72,2|0,0:0|1:0,0:0:0:0:
319,184,121269,2,0,P|336:219|335:265,1,72,0|0,0:0|1:0,0:0:0:0:
246,310,121707,2,0,P|248:274|264:242,1,72,2|0,0:0|1:0,0:0:0:0:
388,335,122145,2,0,L|317:322,1,72,0|0,0:0|1:0,0:0:0:0:
204,206,122583,1,2,0:0:0:0:
337,251,122802,6,0,P|389:231|414:143,1,144,2|0,1:0|1:0,0:0:0:0:
353,42,123459,1,0,0:0:0:0:
298,93,123678,2,0,P|294:114|290:170,1,72,0|0,1:0|0:0,0:0:0:0:
186,246,124116,2,0,P|183:210|177:174,1,72,0|0,1:0|0:0,0:0:0:0:
47,80,124554,5,0,1:0:0:0:
61,96,124663,1,2,0:0:0:0:
81,108,124772,1,2,0:0:0:0:
102,114,124882,1,0,0:0:0:0:
125,113,124991,1,2,1:0:0:0:
146,105,125101,1,0,0:0:0:0:
164,92,125210,1,2,0:0:0:0:
177,74,125320,1,2,0:0:0:0:
185,53,125430,2,0,L|173:-5,3,36,0|0|2|0,1:0|0:0|0:0|0:0,0:0:0:0:
253,121,125868,5,0,1:0:0:0:
253,121,125977,1,0,0:0:0:0:
253,121,126087,1,2,0:0:0:0:
92,246,126306,6,0,P|56:243|28:221,1,72,4|0,1:2|0:0,0:0:0:0:
162,144,126744,2,0,P|177:175|172:210,1,72,8|0,1:2|0:0,0:0:0:0:
145,366,127182,2,0,P|173:318|271:312,1,144,10|8,1:2|1:2,0:0:0:0:
387,351,127839,6,0,L|486:339,1,72,2|8,0:2|1:2,0:0:0:0:
363,341,128277,2,0,L|462:329,1,72,2|8,0:2|1:2,0:0:0:0:
340,327,128715,2,0,L|439:315,1,72,2|8,0:2|1:2,0:0:0:0:
320,317,129153,2,0,L|419:305,1,72,2|8,0:2|1:2,0:0:0:0:
296,301,129591,1,0,0:2:0:0:
451,218,129810,6,0,P|480:181|396:167,1,144,10|8,1:2|1:2,0:0:0:0:
339,190,130466,1,0,0:2:0:0:
273,122,130685,2,0,P|265:77|279:44,1,72,8|0,1:2|0:2,0:0:0:0:
425,33,131123,2,0,P|390:62|354:66,1,72,8|0,1:2|0:2,0:0:0:0:
194,23,131561,6,0,P|142:14|84:86,1,144,8|10,1:2|1:2,0:0:0:0:
106,144,132218,1,2,0:2:0:0:
244,124,132437,2,0,P|213:104|157:106,1,72,8|2,1:2|0:2,0:0:0:0:
173,263,132875,2,0,P|208:258|238:239,1,72,10|2,1:2|0:2,0:0:0:0:
68,177,133313,6,0,B|12:205|12:205|89:245,1,144,10|8,1:2|1:2,0:0:0:0:
171,187,133970,1,0,0:2:0:0:
225,276,134189,2,0,P|231:319|222:354,1,72,10|2,1:2|0:2,0:0:0:0:
153,264,134627,1,8,1:2:0:0:
296,266,134846,6,0,P|329:253|357:230,1,72,2|8,0:2|1:2,0:0:0:0:
437,231,135284,2,0,P|452:198|455:162,1,72,0|10,0:2|1:2,0:0:0:0:
312,123,135722,1,0,0:2:0:0:
312,123,135941,2,0,L|226:107,1,72,10|2,1:2|0:2,0:0:0:0:
359,51,136379,2,0,L|445:67,1,72,8|2,1:2|0:2,0:0:0:0:
243,186,136817,6,0,P|196:184|173:86,1,144,10|8,1:2|1:2,0:0:0:0:
244,105,137474,1,0,0:2:0:0:
121,170,137693,2,0,L|35:182,1,72,10|0,1:2|0:2,0:0:0:0:
229,220,138131,2,0,L|315:232,1,72,10|0,1:2|0:2,0:0:0:0:
72,333,138569,5,8,1:2:0:0:
148,288,138788,2,0,L|158:237,2,36,2|0|8,0:2|0:2|1:2,0:0:0:0:
210,363,139226,1,0,0:2:0:0:
231,373,139335,1,0,0:2:0:0:
255,373,139444,1,8,1:2:0:0:
277,364,139554,1,0,0:2:0:0:
293,347,139663,1,0,0:2:0:0:
301,324,139773,1,0,0:2:0:0:
299,301,139883,2,8,P|290:270|293:253,1,36,8|8,1:2|0:2,0:0:0:0:
405,168,140102,1,0,0:2:0:0:
436,302,140320,1,4,0:1:0:0:
284,71,140758,6,0,L|311:-7,1,72,8|0,0:0|0:0,0:0:0:0:
352,103,141196,2,0,P|336:146|246:139,1,144,10|8,0:0|0:0,0:0:0:0:
59,23,142072,6,0,B|70:83|129:83|129:83|128:61|143:40,1,144,10|8,0:0|0:0,0:0:0:0:
82,177,142729,1,0,0:0:0:0:
82,177,142948,2,0,P|46:155|24:118,1,72,10|0,0:0|0:0,0:0:0:0:
166,142,143386,2,0,L|139:284,1,144,10|8,0:0|0:0,0:0:0:0:
324,21,144262,6,0,L|340:96,1,72,8|0,0:0|0:0,0:0:0:0:
481,125,144700,2,0,P|415:116|404:193,1,144,10|8,0:0|0:0,0:0:0:0:
512,273,145576,6,0,B|456:280|456:280|430:302|430:302|361:311,1,144,10|8,0:0|0:0,0:0:0:0:
356,381,146233,1,2,0:0:0:0:
356,381,146452,1,8,0:0:0:0:
403,232,146671,1,2,0:0:0:0:
322,284,146890,2,0,P|278:289|303:206,1,144,10|8,0:0|0:0,0:0:0:0:
123,384,147766,6,0,P|97:350|50:329,1,72,8|0,0:0|0:0,0:0:0:0:
135,279,148204,2,0,P|138:212|73:200,1,144,10|8,0:0|0:0,0:0:0:0:
27,257,148860,1,0,0:0:0:0:
208,195,149080,6,0,L|296:162,1,72,10|0,0:0|0:0,0:0:0:0:
350,190,149518,1,8,0:0:0:0:
350,190,149736,1,0,0:0:0:0:
262,156,149956,1,10,0:0:0:0:
177,124,150175,1,0,0:0:0:0:
403,135,150393,2,0,P|415:53|364:45,1,144,10|8,0:0|0:0,0:0:0:0:
317,100,151050,5,2,0:0:0:0:
295,29,151269,1,8,0:0:0:0:
262,156,151488,1,2,0:0:0:0:
199,104,151707,2,0,P|155:92|113:92,1,72,10|0,0:0|0:0,0:0:0:0:
63,56,152145,1,8,0:0:0:0:
115,195,152364,6,0,L|190:179,1,72,2|8,0:0|0:0,0:0:0:0:
44,317,152802,2,0,L|119:301,1,72,2|8,0:0|0:0,0:0:0:0:
134,219,153240,2,0,L|209:203,1,72,2|8,0:0|0:0,0:0:0:0:
247,368,153678,1,2,0:0:0:0:
267,272,153897,1,8,0:0:0:0:
285,173,154116,1,2,0:0:0:0:
68,267,154335,1,4,0:2:0:0:
449,194,154773,6,0,P|463:158|444:117,1,72,10|0,1:2|0:0,0:0:0:0:
362,74,155211,2,0,L|214:92,1,144,10|8,1:2|1:2,0:0:0:0:
72,144,155868,5,2,0:0:0:0:
162,43,156087,2,0,P|138:73|193:158,1,144,8|8,1:2|1:2,0:0:0:0:
268,232,156744,1,0,0:0:0:0:
268,232,156963,2,0,P|284:217|249:188,1,72,10|0,1:2|0:0,0:0:0:0:
104,222,157401,2,0,P|105:265|127:293,1,72,10|0,1:2|0:0,0:0:0:0:
243,345,157839,6,0,L|341:331,1,72,8|0,1:2|0:0,0:0:0:0:
365,165,158277,2,0,P|353:209|377:252,1,72,10|0,1:2|0:0,0:0:0:0:
458,378,158715,2,0,P|493:361|429:317,1,144,10|8,1:2|1:2,0:0:0:0:
340,314,159371,1,0,0:0:0:0:
456,224,159591,6,0,L|465:66,1,144,10|8,1:2|1:2,0:0:0:0:
304,26,160248,1,0,0:0:0:0:
335,120,160467,1,10,1:2:0:0:
397,64,160686,1,0,0:0:0:0:
221,116,160904,6,0,B|147:129|147:129|181:159,1,108,10|0,1:2|0:0,0:0:0:0:
171,150,161342,2,0,L|163:248,1,72,8|0,1:2|0:0,0:0:0:0:
313,118,161781,2,0,B|324:148|324:148|303:192,1,72,10|0,1:2|0:0,0:0:0:0:
210,322,162218,1,10,1:2:0:0:
302,351,162437,2,0,L|291:253,1,72,0|8,0:0|1:2,0:0:0:0:
113,338,162875,1,2,0:0:0:0:
157,257,163094,6,0,P|92:237|21:295,1,144,8|8,1:2|1:2,0:0:0:0:
59,163,163751,1,2,0:0:0:0:
143,218,163970,1,8,1:2:0:0:
172,95,164189,1,2,0:0:0:0:
143,218,164408,1,10,1:2:0:0:
251,179,164627,1,0,0:0:0:0:
239,363,164846,6,0,B|277:352|277:352|307:380,1,72,8|2,1:2|0:0,0:0:0:0:
316,247,165284,2,0,B|354:258|354:258|384:230,1,72,8|2,1:2|0:0,0:0:0:0:
414,356,165722,2,0,B|452:345|452:345|482:373,1,72,10|0,1:2|0:0,0:0:0:0:
480,217,166160,1,10,1:2:0:0:
269,191,166379,6,0,L|198:204,1,72,2|8,0:0|1:2,0:0:0:0:
391,130,166817,2,0,L|462:143,1,72,2|8,0:0|1:2,0:0:0:0:
250,79,167255,2,0,L|179:92,1,72,2|8,0:0|1:2,0:0:0:0:
373,45,167693,1,2,0:0:0:0:
297,133,167912,1,8,1:2:0:0:
450,163,168131,1,2,0:0:0:0:
270,284,168350,6,0,B|170:266|170:266|215:214,1,144,12|8,1:2|1:2,0:0:0:0:
197,233,169007,2,0,B|206:336,1,72,2|8,0:0|1:2,0:0:0:0:
100,158,169445,1,2,0:0:0:0:
53,216,169664,2,0,B|43:308,1,72,10|0,1:2|0:0,0:0:0:0:
220,118,170102,6,0,B|189:97|150:113|150:113|136:151|92:159,1,144,8|8,1:2|1:2,0:0:0:0:
75,84,170759,1,2,0:0:0:0:
220,118,170978,2,0,P|248:95|223:78,1,72,8|2,1:2|0:0,0:0:0:0:
99,157,171416,1,10,1:2:0:0:
99,157,171635,1,0,0:0:0:0:
329,243,171854,6,0,B|345:196|317:170|317:170|236:193,1,144,8|8,1:2|1:2,0:0:0:0:
403,212,172511,2,0,B|439:205|439:205|442:183|456:162,1,72,2|8,0:0|1:2,0:0:0:0:
512,220,172949,1,2,0:0:0:0:
512,220,173168,2,0,L|504:301,1,72,10|0,1:2|0:0,0:0:0:0:
360,384,173606,6,0,B|319:334|348:296|387:294|387:294|372:343,1,144,8|8,1:2|1:2,0:0:0:0:
298,256,174263,1,2,0:0:0:0:
243,309,174482,2,0,B|241:344|241:344|246:352|246:352|243:389,1,72,8|2,1:2|0:0,0:0:0:0:
163,179,174919,2,0,B|160:151|160:151|165:143|165:143|163:108,1,72,10|0,1:2|0:0,0:0:0:0:
209,246,175358,6,0,B|183:257|170:279|170:279|136:238|83:241,1,144,4|8,1:2|1:2,0:0:0:0:
24,263,176015,1,2,0:0:0:0:
128,332,176234,2,0,P|161:301|162:248,1,72,8|2,1:2|0:0,0:0:0:0:
70,167,176672,1,10,1:2:0:0:
70,167,176891,1,0,0:0:0:0:
178,71,177110,6,0,P|170:23|138:0,1,72,8|0,1:2|0:0,0:0:0:0:
248,178,177548,2,0,P|253:208|237:253,1,72,8|0,1:2|0:0,0:0:0:0:
371,74,177986,2,0,P|385:34|379:-3,1,72,8|0,1:2|0:0,0:0:0:0:
296,63,178423,2,0,P|298:94|329:134,1,72,8|0,1:2|0:0,0:0:0:0:
437,171,178861,5,8,1:2:0:0:
437,171,178971,2,0,L|389:160,1,36,8|0,0:0|0:0,0:0:0:0:
335,211,179190,5,8,0:0:0:0:
335,211,179299,2,0,L|289:218,1,36,8|0,1:2|0:0,0:0:0:0:
238,168,179518,5,8,0:0:0:0:
238,168,179627,1,8,0:0:0:0:
238,168,179737,2,0,L|196:158,1,36,8|8,1:2|0:0,0:0:0:0:
133,204,179956,5,8,0:0:0:0:
53,119,180175,1,0,1:2:0:0:
0,229,180393,6,1,B|20:286|104:295|143:222|113:166|68:154|68:154|10:139|-6:57|62:12|120:36|136:80,1,472.084919427883,2|0,0:0|0:0,0:0:0:0:
238,205,182364,6,0,B|307:191|307:191|349:204|349:204|433:185,1,180,4|8,1:0|1:2,0:0:0:0:
352,114,183021,1,2,0:0:0:0:
352,114,183131,1,2,0:0:0:0:
352,114,183240,2,0,L|361:63,2,45,8|2|2,1:2|0:0|0:0,0:0:0:0:
288,226,183678,6,0,P|283:277|298:320,1,90,8|0,1:2|0:0,0:0:0:0:
473,278,184116,1,8,1:2:0:0:
387,196,184334,1,2,0:0:0:0:
211,295,184554,6,0,L|121:320,1,90,8|0,1:2|0:0,0:0:0:0:
58,288,184883,1,0,0:0:0:0:
58,288,184992,2,0,P|48:238|66:198,1,90,10|0,1:2|0:0,0:0:0:0:
243,154,185430,2,0,P|204:187|161:192,1,90,10|0,1:2|0:0,0:0:0:0:
114,135,185758,5,0,0:0:0:0:
114,135,185867,2,0,L|122:32,1,90,10|0,1:2|0:0,0:0:0:0:
307,93,186305,1,8,1:2:0:0:
223,8,186524,1,2,0:0:0:0:
240,192,186743,6,0,L|227:245,2,45,8|2|2,1:2|0:0|0:0,0:0:0:0:
356,152,187181,1,8,1:2:0:0:
396,297,187401,1,0,0:0:0:0:
393,307,187510,1,2,0:0:0:0:
390,318,187619,1,10,1:2:0:0:
387,329,187729,1,0,0:0:0:0:
385,340,187838,1,2,0:0:0:0:
313,238,188058,6,0,L|414:224,1,90,8|0,1:2|0:0,0:0:0:0:
478,131,188496,1,10,1:2:0:0:
468,125,188605,1,2,0:0:0:0:
457,123,188714,1,2,0:0:0:0:
446,125,188824,1,0,0:0:0:0:
436,131,188934,5,8,1:2:0:0:
393,144,189043,5,2,0:0:0:0:
349,138,189152,5,2,0:0:0:0:
311,114,189262,5,2,0:0:0:0:
288,76,189372,6,0,B|324:44|324:44|301:199,1,180,6|8,1:2|1:2,0:0:0:0:
189,289,190028,1,2,0:0:0:0:
213,188,190247,2,0,L|190:147,2,45,8|2|2,1:2|0:0|0:0,0:0:0:0:
293,346,190685,1,8,1:2:0:0:
320,253,190904,6,0,P|287:263|265:283,1,45
182,350,191123,2,0,P|119:350|88:322,1,90,8|2,1:2|0:0,0:0:0:0:
136,186,191561,2,0,P|180:188|215:215,1,90,8|0,1:2|0:0,0:0:0:0:
46,272,191999,1,10,1:2:0:0:
46,272,192109,1,2,0:0:0:0:
46,272,192218,2,0,L|34:328,2,45,0|2|10,0:0|0:0|1:2,0:0:0:0:
83,135,192656,1,0,0:0:0:0:
277,209,192875,6,0,P|346:197|310:97,1,180,8|8,1:2|1:2,0:0:0:0:
148,103,193532,1,2,0:0:0:0:
148,103,193641,1,2,0:0:0:0:
148,103,193751,2,0,L|54:116,1,90,8|2,1:2|0:0,0:0:0:0:
253,45,194189,2,0,L|347:32,1,90,8|2,1:2|0:0,0:0:0:0:
366,32,194517,1,0,0:0:0:0:
384,29,194627,1,8,1:2:0:0:
427,165,194846,6,0,P|424:220|403:256,1,90,0|10,0:0|1:2,0:0:0:0:
330,115,195283,1,0,0:0:0:0:
228,221,195503,5,10,1:2:0:0:
232,254,195612,5,0,0:0:0:0:
237,287,195721,5,0,0:0:0:0:
242,321,195831,5,0,0:0:0:0:
247,354,195941,5,10,1:2:0:0:
250,340,196050,1,0,0:0:0:0:
253,327,196159,1,0,0:0:0:0:
256,314,196269,1,0,0:0:0:0:
259,301,196379,38,0,B|254:303|252:383|335:434|461:406|493:254|396:182|300:210|300:210|304:206|304:206|272:103|357:37|443:30|496:57|496:57|421:65|406:116,1,836.999974456788,4|0,1:2|0:0,0:0:0:0:
479,131,199883,6,1,B|494:91|470:38|393:25|351:92|382:140|382:140|405:177|389:236|316:262|263:202|286:149|286:149|296:127|320:106|320:106|287:108|265:106|265:106|243:87|226:57|226:57|218:87|207:112|207:112|184:124|150:129|150:129|180:144|200:162|200:162|203:188|197:220|197:220|218:198|246:182,1,906.749958492281,2|0,0:0|0:0,0:0:0:0:
239,192,203386,6,1,B|247:150|237:106|237:106|264:130|275:179|252:234|222:265|222:265|285:177|383:178|461:272|428:382|304:403|269:359|269:359|245:372,1,697.5,2|0,0:0|0:0,0:0:0:0:
257,366,206890,6,13,B|233:371|211:350|215:322|234:308|252:313|252:313|288:316|318:277|300:235|265:225|239:241|239:241|195:268|133:237|130:171|167:135|218:140|218:140|276:145|330:71|292:-8|224:-20|180:8,1,705.600008613281,2|12,0:2|0:2,0:2:0:0:
368,243,210393,6,0,P|384:296|378:342,1,101.250003862381,4|0,1:0|0:0,0:0:0:0:
214,203,210831,1,10,1:2:0:0:
381,142,211050,1,0,0:0:0:0:
381,142,211160,1,0,0:0:0:0:
381,142,211269,1,10,1:2:0:0:
271,276,211488,1,2,0:1:0:0:
231,88,211707,1,10,1:2:0:0:
296,173,211926,1,0,0:0:0:0:
115,221,212145,6,0,L|1:212,1,101.250003862381,10|0,1:2|0:0,0:0:0:0:
174,157,212583,1,10,1:2:0:0:
93,306,212802,1,0,0:0:0:0:
69,123,213021,1,8,1:2:0:0:
69,123,213131,1,2,0:0:0:0:
69,123,213240,1,2,0:0:0:0:
69,123,213350,1,2,0:0:0:0:
69,123,213459,1,8,1:2:0:0:
115,221,213678,1,2,0:1:0:0:
259,93,213897,5,10,1:2:0:0:
233,287,214116,1,0,0:0:0:0:
332,119,214335,5,10,1:2:0:0:
306,313,214554,1,0,0:0:0:0:
409,135,214773,6,0,L|396:249,1,101.250003862381,10|0,1:2|0:0,0:0:0:0:
467,349,215211,2,0,L|480:235,1,101.250003862381,10|0,1:2|0:0,0:0:0:0:
488,183,215539,5,0,0:0:0:0:
488,183,215649,1,10,1:2:0:0:
271,219,215868,1,2,0:1:0:0:
488,183,216087,2,0,P|497:131|474:88,1,101.250003862381,10|0,1:2|0:0,0:0:0:0:
324,40,216525,5,8,1:2:0:0:
321,47,216634,1,2,0:0:0:0:
320,55,216743,1,2,0:0:0:0:
318,63,216853,1,2,0:0:0:0:
317,70,216963,2,0,L|261:87,2,50.6250019311906,8|2|2,1:2|0:0|0:0,0:0:0:0:
348,165,217401,5,4,1:2:0:0:
147,108,217620,1,0,0:0:0:0:
190,246,217839,1,10,1:2:0:0:
243,176,218058,1,2,0:1:0:0:
60,167,218277,1,10,1:2:0:0:
133,320,218496,5,0,0:0:0:0:
147,108,218715,1,10,1:2:0:0:
75,251,218934,1,2,0:1:0:0:
277,104,219153,5,10,1:2:0:0:
67,54,219372,1,0,0:0:0:0:
138,182,219591,1,10,1:2:0:0:
186,12,219810,1,2,0:1:0:0:
48,153,220029,6,0,P|46:207|72:255,1,101.250003862381,10|2,1:2|0:0,0:0:0:0:
132,278,220357,1,2,0:0:0:0:
132,278,220466,2,0,L|245:258,1,101.250003862381,8|0,1:2|0:0,0:0:0:0:
451,226,220904,5,10,1:2:0:0:
281,174,221123,1,0,0:0:0:0:
325,339,221342,1,10,1:2:0:0:
358,248,221561,1,2,0:1:0:0:
200,368,221780,5,10,1:2:0:0:
412,316,221999,1,0,0:0:0:0:
167,197,222218,1,10,1:2:0:0:
251,283,222437,1,2,0:1:0:0:
350,113,222656,6,0,L|335:3,1,101.250003862381,10|0,1:2|0:0,0:0:0:0:
251,109,223094,1,10,1:2:0:0:
438,161,223313,1,2,0:1:0:0:
350,113,223532,2,0,P|335:169|354:218,1,101.250003862381,10|0,1:2|0:0,0:0:0:0:
433,301,223970,1,8,1:2:0:0:
433,301,224080,1,2,0:0:0:0:
433,301,224189,2,2,L|426:366,1,50.6250019311906
317,372,224408,6,0,P|288:327|283:260,1,101.250003862381,4|0,1:0|0:0,0:0:0:0:
350,113,224846,1,10,1:2:0:0:
387,214,225065,1,0,0:0:0:0:
242,120,225283,1,10,1:2:0:0:
412,33,225502,1,2,0:1:0:0:
275,208,225722,6,0,L|160:192,1,101.250003862381,10|0,1:2|0:0,0:0:0:0:
93,205,226050,1,0,0:0:0:0:
93,205,226160,2,0,P|75:261|68:323,1,101.250003862381,10|0,1:2|0:0,0:0:0:0:
77,382,226598,1,10,1:2:0:0:
175,249,226817,5,0,0:0:0:0:
233,368,227035,1,8,1:2:0:0:
312,260,227254,1,2,0:0:0:0:
147,338,227474,1,8,1:2:0:0:
247,187,227693,1,2,0:1:0:0:
332,351,227912,5,10,1:2:0:0:
332,351,228131,1,0,0:0:0:0:
472,234,228350,5,10,1:2:0:0:
472,234,228569,1,0,0:0:0:0:
396,275,228788,6,0,P|343:267|286:244,1,101.250003862381,10|0,1:2|0:0,0:0:0:0:
329,139,229226,2,0,P|382:147|439:170,1,101.250003862381,10|0,1:2|0:0,0:0:0:0:
472,234,229664,5,10,1:2:0:0:
472,234,229883,1,2,0:1:0:0:
298,250,230102,2,0,P|263:213|254:149,1,101.250003862381,10|0,1:2|0:0,0:0:0:0:
302,16,230540,5,8,1:2:0:0:
302,16,230649,1,2,0:0:0:0:
302,16,230758,1,2,0:0:0:0:
302,16,230868,1,2,0:0:0:0:
302,16,230978,2,0,P|290:52|275:78,1,50.6250019311906,8|2,1:2|0:0,0:0:0:0:
257,141,231196,2,0,P|224:153|193:160,1,50.6250019311906,2|2,0:2|0:0,0:0:0:0:
113,193,231415,6,0,B|-16:165,1,101.250003862381,4|0,1:2|0:0,0:0:0:0:
60,43,231853,1,10,1:2:0:0:
60,43,232073,1,2,0:1:0:0:
99,105,232291,2,0,P|157:96|169:34,1,101.250003862381,10|0,1:2|0:0,0:0:0:0:
130,0,232729,1,10,1:2:0:0:
26,112,232949,1,2,0:1:0:0:
141,234,233168,5,10,1:2:0:0:
52,203,233387,1,0,0:0:0:0:
69,344,233605,2,0,L|187:310,1,101.250003862381,10|2,1:2|0:1,0:0:0:0:
381,353,234044,6,0,P|326:350|279:317,1,101.250003862381,10|2,1:2|0:0,0:0:0:0:
304,256,234372,1,2,0:0:0:0:
304,256,234481,2,0,P|359:259|406:292,1,101.250003862381,8|0,1:2|0:0,0:0:0:0:
451,327,234919,5,10,1:2:0:0:
423,132,235138,1,0,0:0:0:0:
261,170,235357,1,10,1:2:0:0:
353,194,235576,1,2,0:1:0:0:
301,37,235795,5,10,1:2:0:0:
323,122,236014,1,0,0:0:0:0:
421,52,236233,1,10,1:2:0:0:
421,52,236452,1,2,0:1:0:0:
240,140,236671,6,0,P|184:127|143:79,1,101.250003862381,10|0,1:2|0:0,0:0:0:0:
170,25,237109,1,10,1:2:0:0:
43,155,237328,1,2,0:1:0:0:
177,206,237547,5,10,1:2:0:0:
180,230,237656,1,0,0:0:0:0:
174,255,237765,1,0,0:0:0:0:
160,276,237875,1,0,0:0:0:0:
139,290,237984,1,8,1:2:0:0:
114,295,238094,1,2,0:0:0:0:
89,291,238203,1,2,0:0:0:0:
