osu file format v14

[General]
AudioFilename: tumblr_m4vzlgERqS1r5htp5o1.mp3
AudioLeadIn: 0
PreviewTime: 71529
Countdown: 0
SampleSet: None
StackLeniency: 0.7
Mode: 1
LetterboxInBreaks: 0
WidescreenStoryboard: 1

[Editor]
DistanceSpacing: 1.3
BeatDivisor: 4
GridSize: 32
TimelineZoom: 1.3

[Metadata]
Title:Run Boy Run
TitleUnicode:Run Boy Run
Artist:WOODKID
ArtistUnicode:WOODKID
Creator:Stefan
Version:Futsuu
Source:
Tags:yoann lemoine the golden age indie alternative thenutritiousguy tng
BeatmapID:1927445
BeatmapSetID:922996

[Difficulty]
HPDrainRate:6
CircleSize:5
OverallDifficulty:4.5
ApproachRate:5
SliderMultiplier:1.40000000596046
SliderTickRate:1

[Events]
//Background and Video events
0,0,"blue-and-black-background-1.jpg",0,0
//Break Periods
2,57065,63277
2,114379,120591
2,143483,148800
//Storyboard Layer 0 (Background)
//Storyboard Layer 1 (Fail)
//Storyboard Layer 2 (Pass)
//Storyboard Layer 3 (Foreground)
//Storyboard Sound Samples

[TimingPoints]
0,447.761194029851,4,1,0,80,1,0
28656,-90.9090909090909,4,1,0,80,0,0
35820,-100,4,1,0,80,0,0
50149,-90.9090909090909,4,1,0,80,0,0
57313,-100,4,1,0,80,0,0
64253,-100,4,1,0,30,0,0
71529,-90.9090909090909,4,1,0,80,0,0
71641,-90.9090909090909,4,1,0,80,0,1
85970,-100,4,1,0,80,0,0
100298,-90.9090909090909,4,1,0,80,0,1
114626,-100,4,1,0,80,0,0
121567,-100,4,1,0,30,0,0
128843,-100,4,1,0,80,0,0

[HitObjects]
256,192,14328,5,0,0:0:0:0:
256,192,15000,1,0,0:0:0:0:
256,192,15447,1,8,0:0:0:0:
256,192,15671,1,8,0:0:0:0:
256,192,16119,1,0,0:0:0:0:
256,192,16567,1,8,0:0:0:0:
256,192,16791,1,0,0:0:0:0:
256,192,17462,1,0,0:0:0:0:
256,192,17910,1,0,0:0:0:0:
256,192,18582,1,0,0:0:0:0:
256,192,19029,1,8,0:0:0:0:
256,192,19253,1,8,0:0:0:0:
256,192,19701,1,0,0:0:0:0:
256,192,20373,1,8,0:0:0:0:
256,192,21044,1,0,0:0:0:0:
256,192,21492,1,0,0:0:0:0:
256,192,22164,1,0,0:0:0:0:
256,192,22611,1,8,0:0:0:0:
256,192,22835,1,8,0:0:0:0:
256,192,23283,1,0,0:0:0:0:
256,192,23731,1,8,0:0:0:0:
256,192,23955,1,0,0:0:0:0:
256,192,24626,1,0,0:0:0:0:
256,192,25074,1,0,0:0:0:0:
256,192,25746,1,0,0:0:0:0:
256,192,26194,1,8,0:0:0:0:
256,192,26417,1,8,0:0:0:0:
256,192,26865,1,0,0:0:0:0:
256,192,27313,1,8,0:0:0:0:
256,192,27761,1,0,0:0:0:0:
192,128,28656,2,0,L|256:128,12,38.5000011749268
192,128,30447,2,0,L|256:128,8,38.5000011749268
256,192,31791,1,12,0:0:0:0:
192,128,32238,2,0,L|256:128,12,38.5000011749268
192,128,34029,2,0,L|256:128,8,38.5000011749268,0|0|0|0|0|0|0|0|0,0:0|0:0|0:0|0:0|0:0|0:0|0:0|0:0|0:0,0:0:0:0:
256,192,35373,1,12,0:0:0:0:
256,192,35820,1,0,0:0:0:0:
256,192,36492,1,0,0:0:0:0:
256,192,37164,1,8,0:0:0:0:
256,192,37611,1,0,0:0:0:0:
256,192,38059,1,8,0:0:0:0:
256,192,38283,1,0,0:0:0:0:
256,192,38955,1,0,0:0:0:0:
256,192,39402,1,0,0:0:0:0:
256,192,40074,1,0,0:0:0:0:
256,192,40746,1,8,0:0:0:0:
256,192,41194,1,0,0:0:0:0:
256,192,41865,1,8,0:0:0:0:
256,192,42537,1,0,0:0:0:0:
256,192,42985,1,0,0:0:0:0:
256,192,43656,1,0,0:0:0:0:
256,192,44328,1,8,0:0:0:0:
256,192,44776,1,0,0:0:0:0:
256,192,45223,1,8,0:0:0:0:
256,192,45447,1,0,0:0:0:0:
256,192,46119,1,0,0:0:0:0:
256,192,46567,1,0,0:0:0:0:
256,192,47238,1,0,0:0:0:0:
256,192,47910,1,8,0:0:0:0:
256,192,48358,1,0,0:0:0:0:
256,192,48805,1,0,0:0:0:0:
256,192,49029,1,8,0:0:0:0:
256,192,49477,1,0,0:0:0:0:
256,192,49701,1,0,0:0:0:0:
192,128,50149,2,0,L|256:128,12,38.5000011749268
192,128,51940,2,0,L|256:128,8,38.5000011749268
256,192,53283,1,12,0:0:0:0:
192,128,53731,2,0,L|256:128,12,38.5000011749268
192,128,55522,2,0,L|256:128,8,38.5000011749268
256,192,56865,1,12,0:0:0:0:
256,192,64477,5,4,0:0:0:0:
256,192,65373,1,4,0:0:0:0:
256,192,66268,1,4,0:0:0:0:
256,192,67164,1,4,0:0:0:0:
256,192,68059,1,4,0:0:0:0:
256,192,68955,1,4,0:0:0:0:
256,192,69850,1,4,0:0:0:0:
256,192,70746,1,4,0:0:0:0:
192,128,71641,2,0,L|256:128,12,38.5000011749268
192,128,73432,2,0,L|256:128,8,38.5000011749268
256,192,74776,1,12,0:0:0:0:
192,128,75223,2,0,L|256:128,12,38.5000011749268
192,128,77014,2,0,L|256:128,8,38.5000011749268
256,192,78358,1,12,0:0:0:0:
256,192,78805,1,0,0:0:0:0:
256,192,79253,1,8,0:0:0:0:
256,192,79701,1,0,0:0:0:0:
256,192,79925,1,0,0:0:0:0:
256,192,80149,1,8,0:0:0:0:
256,192,80597,1,0,0:0:0:0:
256,192,81492,1,0,0:0:0:0:
256,192,81940,1,12,0:0:0:0:
256,192,82388,1,0,0:0:0:0:
256,192,82835,1,8,0:0:0:0:
256,192,83283,1,0,0:0:0:0:
256,192,83507,1,0,0:0:0:0:
256,192,83731,1,8,0:0:0:0:
256,192,84179,1,0,0:0:0:0:
256,192,85074,1,0,0:0:0:0:
256,192,85522,1,12,0:0:0:0:
256,192,85970,1,0,0:0:0:0:
256,192,86641,1,0,0:0:0:0:
256,192,87089,1,8,0:0:0:0:
256,192,87313,1,8,0:0:0:0:
256,192,87761,1,0,0:0:0:0:
256,192,88208,1,0,0:0:0:0:
256,192,88432,1,8,0:0:0:0:
256,192,88880,1,0,0:0:0:0:
256,192,89552,1,0,0:0:0:0:
256,192,90223,1,0,0:0:0:0:
256,192,90671,1,8,0:0:0:0:
256,192,90895,1,8,0:0:0:0:
256,192,91343,1,0,0:0:0:0:
256,192,91791,1,0,0:0:0:0:
256,192,92014,1,8,0:0:0:0:
256,192,92238,1,0,0:0:0:0:
256,192,92686,1,0,0:0:0:0:
256,192,93134,1,0,0:0:0:0:
256,192,93805,1,0,0:0:0:0:
256,192,94253,1,8,0:0:0:0:
256,192,94477,1,8,0:0:0:0:
256,192,94925,1,0,0:0:0:0:
256,192,95373,1,8,0:0:0:0:
256,192,95597,1,0,0:0:0:0:
256,192,96044,1,0,0:0:0:0:
256,192,96268,1,8,0:0:0:0:
256,192,96716,1,0,0:0:0:0:
256,192,97388,1,0,0:0:0:0:
256,192,97835,1,8,0:0:0:0:
256,192,98059,1,8,0:0:0:0:
256,192,98507,1,0,0:0:0:0:
256,192,98731,1,0,0:0:0:0:
256,192,98955,1,8,0:0:0:0:
256,192,99179,1,8,0:0:0:0:
256,192,99402,1,0,0:0:0:0:
256,192,99626,1,0,0:0:0:0:
192,128,100298,2,0,L|256:128,12,38.5000011749268
192,128,102089,2,0,L|256:128,8,38.5000011749268
256,192,103432,1,12,0:0:0:0:
192,128,103880,2,0,L|256:128,12,38.5000011749268
192,128,105671,2,0,L|256:128,8,38.5000011749268
256,192,107014,1,12,0:0:0:0:
256,192,107462,1,0,0:0:0:0:
256,192,107910,1,8,0:0:0:0:
256,192,108358,1,0,0:0:0:0:
256,192,108582,1,0,0:0:0:0:
256,192,108805,1,8,0:0:0:0:
256,192,109253,1,0,0:0:0:0:
256,192,110149,1,0,0:0:0:0:
256,192,110597,1,12,0:0:0:0:
256,192,111044,1,0,0:0:0:0:
256,192,111492,1,8,0:0:0:0:
256,192,111940,1,0,0:0:0:0:
256,192,112164,1,0,0:0:0:0:
256,192,112388,1,8,0:0:0:0:
256,192,112835,1,0,0:0:0:0:
256,192,113731,1,0,0:0:0:0:
256,192,114179,1,12,0:0:0:0:
256,192,121791,5,4,0:0:0:0:
256,192,122686,1,4,0:0:0:0:
256,192,123582,1,4,0:0:0:0:
256,192,124477,1,4,0:0:0:0:
256,192,125373,1,4,0:0:0:0:
256,192,126268,1,4,0:0:0:0:
256,192,127164,1,4,0:0:0:0:
256,192,128059,1,4,0:0:0:0:
256,192,128955,5,0,0:0:0:0:
256,192,129402,1,8,0:0:0:0:
256,192,129626,1,0,0:0:0:0:
256,192,129850,1,0,0:0:0:0:
256,192,130298,1,8,0:0:0:0:
256,192,130746,1,0,0:0:0:0:
256,192,131641,1,0,0:0:0:0:
256,192,132089,1,8,0:0:0:0:
256,192,132537,1,0,0:0:0:0:
256,192,132761,1,0,0:0:0:0:
256,192,132985,1,8,0:0:0:0:
256,192,133432,1,0,0:0:0:0:
256,192,133880,1,0,0:0:0:0:
256,192,134104,1,8,0:0:0:0:
256,192,134552,1,8,0:0:0:0:
256,192,135223,1,0,0:0:0:0:
256,192,135671,1,8,0:0:0:0:
256,192,136119,1,8,0:0:0:0:
256,192,136343,1,0,0:0:0:0:
256,192,136567,1,0,0:0:0:0:
256,192,137014,1,8,0:0:0:0:
256,192,137910,1,8,0:0:0:0:
256,192,138358,1,0,0:0:0:0:
256,192,138805,1,0,0:0:0:0:
256,192,139253,1,8,0:0:0:0:
256,192,139701,1,0,0:0:0:0:
256,192,140149,1,8,0:0:0:0:
256,192,140597,1,0,0:0:0:0:
256,192,141044,1,0,0:0:0:0:
256,192,141268,1,0,0:0:0:0:
256,192,141940,1,8,0:0:0:0:
256,192,142388,1,0,0:0:0:0:
256,192,142611,1,0,0:0:0:0:
256,192,143283,1,0,0:0:0:0:
256,192,150000,5,8,0:0:0:0:
256,192,150447,1,0,0:0:0:0:
256,192,152238,1,0,0:0:0:0:
256,192,154029,1,0,0:0:0:0:
256,192,154925,1,0,0:0:0:0:
256,192,155820,1,0,0:0:0:0:
256,192,157611,1,0,0:0:0:0:
256,192,159402,1,0,0:0:0:0:
256,192,160298,1,8,0:0:0:0:
256,192,161194,1,0,0:0:0:0:
256,192,162985,1,0,0:0:0:0:
256,192,163880,1,0,0:0:0:0:
256,192,164328,1,8,0:0:0:0:
256,192,164776,1,0,0:0:0:0:
256,192,165671,1,0,0:0:0:0:
256,192,166567,1,8,0:0:0:0:
256,192,167910,1,8,0:0:0:0:
256,192,168358,1,0,0:0:0:0:
256,192,169253,1,0,0:0:0:0:
256,192,170149,1,0,0:0:0:0:
256,192,171492,1,8,0:0:0:0:
256,192,171940,1,0,0:0:0:0:
256,192,172835,1,0,0:0:0:0:
256,192,173731,1,8,0:0:0:0:
256,192,174626,1,8,0:0:0:0:
256,192,175074,1,0,0:0:0:0:
256,192,175522,1,0,0:0:0:0:
256,192,176417,1,0,0:0:0:0:
256,192,177313,1,0,0:0:0:0:
256,192,177761,1,0,0:0:0:0:
256,192,178208,1,0,0:0:0:0:
256,192,178656,1,8,0:0:0:0:
256,192,179104,1,0,0:0:0:0:
256,192,179552,1,0,0:0:0:0:
256,192,179776,1,0,0:0:0:0:
256,192,180000,1,8,0:0:0:0:
256,192,180447,1,0,0:0:0:0:
256,192,180895,1,8,0:0:0:0:
256,192,181791,1,0,0:0:0:0:
256,192,182238,1,8,0:0:0:0:
256,192,182686,1,0,0:0:0:0:
256,192,182910,1,8,0:0:0:0:
256,192,183582,1,0,0:0:0:0:
256,192,183805,1,8,0:0:0:0:
256,192,184477,1,0,0:0:0:0:
256,192,185373,1,0,0:0:0:0:
256,192,185820,1,8,0:0:0:0:
256,192,186268,1,0,0:0:0:0:
256,192,186716,1,0,0:0:0:0:
256,192,186940,1,0,0:0:0:0:
256,192,187164,1,8,0:0:0:0:
256,192,187611,1,0,0:0:0:0:
256,192,188059,1,8,0:0:0:0:
256,192,188955,1,0,0:0:0:0:
256,192,189402,1,8,0:0:0:0:
256,192,189850,1,0,0:0:0:0:
256,192,190746,1,0,0:0:0:0:
256,192,191641,1,0,0:0:0:0:
256,192,192089,1,0,0:0:0:0:
256,192,192537,1,0,0:0:0:0:
256,192,192985,1,8,0:0:0:0:
256,192,193432,1,0,0:0:0:0:
256,192,193880,1,8,0:0:0:0:
256,192,194104,1,0,0:0:0:0:
256,192,194328,1,8,0:0:0:0:
256,192,194776,1,0,0:0:0:0:
256,192,195223,1,8,0:0:0:0:
256,192,196119,1,0,0:0:0:0:
256,192,196567,1,8,0:0:0:0:
256,192,197014,1,0,0:0:0:0:
256,192,197238,1,8,0:0:0:0:
256,192,197686,1,0,0:0:0:0:
256,192,197910,1,0,0:0:0:0:
256,192,198134,1,8,0:0:0:0:
256,192,198805,1,0,0:0:0:0:
256,192,199253,1,0,0:0:0:0:
256,192,199477,1,0,0:0:0:0:
256,192,199701,1,0,0:0:0:0:
256,192,200149,1,8,0:0:0:0:
256,192,200597,1,0,0:0:0:0:
256,192,201044,1,8,0:0:0:0:
256,192,201268,1,0,0:0:0:0:
256,192,201492,1,8,0:0:0:0:
256,192,201940,1,0,0:0:0:0:
256,192,202388,1,8,0:0:0:0:
256,192,203283,1,0,0:0:0:0:
256,192,203731,1,8,0:0:0:0:
256,192,204179,1,0,0:0:0:0:
256,192,204402,1,8,0:0:0:0:
256,192,204850,1,0,0:0:0:0:
256,192,205074,1,0,0:0:0:0:
256,192,205298,1,8,0:0:0:0:
256,192,205746,1,0,0:0:0:0:
256,192,205970,1,0,0:0:0:0:
256,192,206417,1,0,0:0:0:0:
256,192,206865,1,0,0:0:0:0:
256,192,207313,1,12,0:0:0:0:
