osu file format v14

[General]
AudioFilename: audio.mp3
AudioLeadIn: 0
PreviewTime: 106834
Countdown: 0
SampleSet: Soft
StackLeniency: 0.7
Mode: 0
LetterboxInBreaks: 0
WidescreenStoryboard: 0

[Editor]
Bookmarks: 4167,29767,55767,142995,163709,189424,216824,247824
DistanceSpacing: 1.8
BeatDivisor: 4
GridSize: 8
TimelineZoom: 5.299997

[Metadata]
Title:Dotla
TitleUnicode:Dotla
Artist:WLVS
ArtistUnicode:WLVS
Creator:Vik_Vens
Version:Gloomy decay
Source:
Tags:
BeatmapID:1420592
BeatmapSetID:671965

[Difficulty]
HPDrainRate:6.6
CircleSize:3.4
OverallDifficulty:9.1
ApproachRate:9.3
SliderMultiplier:2.1
SliderTickRate:2

[Events]
//Background and Video events
0,0,"1972605.jpg",0,0
//Break Periods
2,68367,77213
2,106767,111370
2,112481,117084
//Storyboard Layer 0 (Background)
//Storyboard Layer 1 (Fail)
//Storyboard Layer 2 (Pass)
//Storyboard Layer 3 (Foreground)
//Storyboard Sound Samples

[TimingPoints]
4167,400,4,2,0,60,1,0
4167,-166.666666666667,4,2,0,60,0,0
29767,-125,4,2,0,60,0,0
41167,-200,4,2,0,60,0,0
41767,-200,4,2,0,60,0,0
41967,-125,4,2,0,60,0,0
54567,-200,4,2,0,60,0,0
54767,-125,4,2,0,60,0,0
61167,-200,4,2,0,60,0,0
61567,-125,4,2,0,60,0,0
80567,-200,4,2,0,60,0,0
80767,-125,4,2,0,60,0,0
82167,-200,4,2,0,60,0,0
82367,-125,4,2,0,60,0,0
85367,-200,4,2,0,60,0,0
85567,-125,4,2,0,60,0,0
96967,-200,4,2,0,60,0,0
97167,-125,4,2,0,60,0,0
106567,357.142857142857,4,2,0,60,1,0
106567,-100,4,2,0,60,0,0
134424,-125,4,2,0,60,0,0
134602,-100,4,2,0,60,0,0
140852,-76.9230769230769,4,2,0,60,0,1
141388,-100,4,2,0,60,0,1
143709,-76.9230769230769,4,2,0,60,0,1
143888,-100,4,2,0,60,0,1
146567,-76.9230769230769,4,2,0,60,0,1
146745,-100,4,2,0,60,0,1
149245,-100,4,2,0,60,0,1
152281,-76.9230769230769,4,2,0,60,0,1
152459,-100,4,2,0,60,0,1
155138,-76.9230769230769,4,2,0,60,0,1
155316,-100,4,2,0,60,0,1
157995,-76.9230769230769,4,2,0,60,0,1
158174,-100,4,2,0,60,0,1
163531,-100,4,2,0,60,0,0
165495,-76.9230769230769,4,2,0,60,0,0
165674,-100,4,2,0,60,0,0
165852,-76.9230769230769,4,2,0,60,0,0
166031,-100,4,2,0,60,0,0
166924,-76.9230769230769,4,2,0,60,0,0
168888,-100,4,2,0,60,0,0
169066,-76.9230769230769,4,2,0,60,0,0
169245,-100,4,2,0,60,0,0
169424,-76.9230769230769,4,2,0,60,0,0
173263,-100,4,2,0,60,0,0
175138,-100,4,2,0,60,0,1
180852,-76.9230769230769,4,2,0,60,0,1
181031,-100,4,2,0,60,0,1
183709,-76.9230769230769,4,2,0,60,0,1
183888,-100,4,2,0,60,0,1
186566,-200,4,2,0,60,0,1
187281,-100,4,2,0,60,0,0
189424,400,4,2,0,60,1,0
201424,-125,4,2,0,60,0,0
201624,-100,4,2,0,60,0,0
211824,-200,4,2,0,60,0,0
212224,-100,4,2,0,60,0,0
212324,-200,4,2,0,60,0,0
212624,-100,4,2,0,60,0,0
212824,-200,4,2,0,60,0,0
213224,-100,4,2,0,60,0,0
213490,-200,4,2,0,60,0,0
213890,-100,4,2,0,60,0,0
214090,-200,4,2,0,60,0,0
214524,-100,4,2,0,60,0,0
214724,-200,4,2,0,60,0,0
215124,-100,4,2,0,60,0,0
215324,-200,4,2,0,60,0,0
215924,-100,4,2,0,60,0,0
216124,-200,4,2,0,60,0,0
216624,-100,4,2,0,60,0,0
217824,-100,4,2,0,60,0,1
248024,-100,4,2,0,60,0,0

[Colours]
Combo1 : 255,255,255
Combo2 : 0,0,0
Combo3 : 192,192,192
Combo4 : 128,128,128

[HitObjects]
256,192,4167,5,0,0:0:0:0:
256,192,4267,12,0,9767,0:0:0:0:
256,72,10167,5,0,0:0:0:0:
256,224,10567,1,0,0:0:0:0:
256,224,10767,1,0,0:0:0:0:
256,224,10967,1,0,0:0:0:0:
56,224,11367,5,0,0:0:0:0:
56,224,11767,2,0,L|184:256,1,125.999996154785
256,120,12567,1,0,0:0:0:0:
456,224,12967,1,0,0:0:0:0:
456,224,13367,5,0,0:0:0:0:
256,192,13767,5,0,0:0:0:0:
256,192,13867,12,0,16167,0:0:0:0:
256,312,16567,6,0,L|256:192,1,94.499997116089
256,160,16967,1,0,0:0:0:0:
456,224,17367,5,0,0:0:0:0:
456,224,17767,2,0,L|328:256,1,125.999996154785
256,120,18567,1,0,0:0:0:0:
56,224,18967,1,0,0:0:0:0:
56,224,19367,5,0,0:0:0:0:
56,224,19767,1,0,0:0:0:0:
256,192,20167,5,0,0:0:0:0:
256,192,20267,12,0,22567,0:0:0:0:
256,312,22967,5,0,0:0:0:0:
256,88,23367,1,0,0:0:0:0:
256,200,23567,1,0,0:0:0:0:
256,88,23767,1,0,0:0:0:0:
56,160,24167,5,0,0:0:0:0:
56,160,24567,2,0,L|184:128,1,125.999996154785
256,264,25367,1,0,0:0:0:0:
456,160,25767,1,0,0:0:0:0:
456,160,26167,5,0,0:0:0:0:
256,192,26567,5,0,0:0:0:0:
256,192,26667,12,0,27767,0:0:0:0:
152,80,28167,5,0,0:0:0:0:
152,80,28367,1,0,0:0:0:0:
360,304,28967,5,0,0:0:0:0:
360,304,29167,1,0,0:0:0:0:
176,120,29767,6,0,L|72:120,1,84
200,112,30167,2,0,P|240:56|280:40,1,84
384,128,30567,5,0,0:0:0:0:
136,304,30967,1,0,0:0:0:0:
384,128,31367,5,0,0:0:0:0:
384,128,31767,5,0,0:0:0:0:
376,304,32167,1,0,0:0:0:0:
128,128,32567,1,0,0:0:0:0:
336,264,32967,6,0,L|440:264,1,84
312,272,33367,2,0,P|272:328|232:344,1,84
128,264,33767,5,0,0:0:0:0:
384,96,34167,1,0,0:0:0:0:
128,264,34567,5,0,0:0:0:0:
128,264,34967,5,0,0:0:0:0:
432,112,35367,1,0,0:0:0:0:
128,120,35567,2,0,B|144:176|144:176|136:200|152:216|152:216|176:224|192:280,1,168
336,312,36167,5,0,0:0:0:0:
336,312,36567,5,0,0:0:0:0:
336,120,36967,2,0,L|440:120,1,84
312,112,37367,2,0,P|272:56|232:40,1,84
112,80,37767,5,0,0:0:0:0:
176,264,38167,2,0,L|72:264,1,84
200,272,38567,2,0,P|240:328|280:344,1,84
360,232,38967,2,0,B|376:192|392:176|392:176|392:136,1,84
168,264,39367,5,0,0:0:0:0:
168,264,39767,5,0,0:0:0:0:
336,120,40167,2,0,P|344:184|328:216,1,84
312,112,40567,2,0,L|264:32,1,84
240,184,40967,5,0,0:0:0:0:
168,320,41167,1,0,0:0:0:0:
120,240,41367,1,0,0:0:0:0:
160,152,41567,1,0,0:0:0:0:
240,104,41767,2,0,L|312:104,1,52.5
216,240,42167,5,0,0:0:0:0:
216,240,42567,5,0,0:0:0:0:
472,80,42967,6,0,L|472:192,1,84
448,64,43367,2,0,P|384:56|344:80,1,84
264,176,43767,1,0,0:0:0:0:
264,176,44167,1,0,0:0:0:0:
40,304,44567,6,0,L|40:192,1,84
64,320,44967,2,0,P|128:328|168:304,1,84
264,224,45367,2,0,B|280:184|296:168|296:168|296:128,1,84
40,304,45767,1,0,0:0:0:0:
40,304,46167,5,0,0:0:0:0:
168,32,46567,1,0,0:0:0:0:
296,304,46967,1,0,0:0:0:0:
168,32,47367,5,0,0:0:0:0:
80,320,47767,5,0,0:0:0:0:
344,176,48167,1,0,0:0:0:0:
80,320,48367,2,0,B|96:264|96:264|88:240|104:224|104:224|128:216|144:160,1,168
280,120,48967,5,0,0:0:0:0:
280,120,49367,5,0,0:0:0:0:
336,264,49767,2,0,L|440:264,1,84
312,272,50167,2,0,P|272:328|232:344,1,84
112,304,50567,1,0,0:0:0:0:
176,120,50967,6,0,L|72:120,1,84
200,112,51367,2,0,P|240:56|280:40,1,84
360,152,51767,2,0,B|376:192|392:208|392:208|392:248,1,84
168,120,52167,5,0,0:0:0:0:
168,120,52567,5,0,0:0:0:0:
336,264,52967,2,0,P|344:200|328:168,1,84
312,272,53367,2,0,L|264:352,1,84
216,200,53767,5,0,0:0:0:0:
288,64,53967,1,0,0:0:0:0:
336,144,54167,1,0,0:0:0:0:
296,232,54367,1,0,0:0:0:0:
216,280,54567,2,0,L|144:280,1,52.5
240,144,54967,1,0,0:0:0:0:
240,144,55367,5,0,0:0:0:0:
72,72,55767,5,0,0:0:0:0:
224,64,55967,1,0,0:0:0:0:
72,72,56167,2,0,L|72:192,1,84
144,288,56567,2,0,P|208:328|240:312,1,84
336,240,56967,1,0,0:0:0:0:
336,240,57367,5,0,0:0:0:0:
336,88,57567,1,0,0:0:0:0:
336,240,57767,2,0,L|224:240,1,84
184,104,58167,2,0,P|128:72|88:96,1,84
32,208,58567,1,0,0:0:0:0:
32,208,58967,5,0,0:0:0:0:
152,296,59167,1,0,0:0:0:0:
176,144,59367,2,0,L|248:96,2,84
80,256,59967,1,0,0:0:0:0:
232,256,60167,2,0,L|336:248,1,84
168,144,60567,2,0,B|128:104|128:104|80:88,1,84
312,256,60967,1,0,0:0:0:0:
312,256,61167,2,0,L|400:184,1,105
256,128,61767,5,0,0:0:0:0:
256,128,62167,6,0,L|160:128,1,84
104,264,62567,2,0,P|144:312|192:320,1,84
304,280,62967,2,0,B|320:216|320:216|360:176,1,84
456,112,63367,1,0,0:0:0:0:
152,80,63767,6,0,L|48:80,1,84
192,168,64167,2,0,P|256:192|264:232,1,84
112,232,64567,2,0,B|72:272|72:272|16:280,1,84
32,128,64967,5,0,0:0:0:0:
328,72,65367,6,0,L|352:176,1,84
208,96,65767,2,0,P|152:56|104:64,1,84
216,184,66167,2,0,B|216:240|216:240|232:288,1,84
368,320,66567,5,0,0:0:0:0:
368,320,66767,1,0,0:0:0:0:
136,80,67367,5,0,0:0:0:0:
136,80,67567,1,0,0:0:0:0:
256,200,68167,5,0,0:0:0:0:
168,80,77767,5,0,0:0:0:0:
200,88,77967,5,0,0:0:0:0:
240,104,78167,5,0,0:0:0:0:
280,128,78367,5,0,0:0:0:0:
320,168,78567,5,0,0:0:0:0:
352,224,78767,5,0,0:0:0:0:
312,288,78967,5,0,0:0:0:0:
240,248,79167,5,0,0:0:0:0:
208,160,79367,5,0,0:0:0:0:
144,80,79567,5,0,0:0:0:0:
56,152,79767,5,0,0:0:0:0:
112,256,79967,5,0,0:0:0:0:
224,192,80167,5,0,0:0:0:0:
320,96,80367,5,0,0:0:0:0:
440,168,80567,6,0,L|440:240,1,52.5
384,32,80967,5,0,0:0:0:0:
248,304,81367,1,0,0:0:0:0:
72,56,81767,1,0,0:0:0:0:
208,192,82167,6,0,L|256:152,1,52.5
56,312,82567,1,0,0:0:0:0:
72,56,82967,5,0,0:0:0:0:
248,304,83367,1,0,0:0:0:0:
416,56,83767,1,0,0:0:0:0:
48,264,84167,5,0,0:0:0:0:
248,40,84567,5,0,0:0:0:0:
248,344,84967,1,0,0:0:0:0:
384,216,85367,6,0,L|456:216,1,52.5
176,216,85767,1,0,0:0:0:0:
440,64,86167,5,0,0:0:0:0:
440,64,86567,2,0,B|448:112|448:112|440:160,1,84
408,168,86967,1,0,0:0:0:0:
384,200,87167,1,0,0:0:0:0:
360,232,87367,6,0,L|336:320,1,84
200,256,87767,2,0,P|136:232|128:208,1,84
136,72,88167,1,0,0:0:0:0:
376,256,88567,1,0,0:0:0:0:
136,72,88967,5,0,0:0:0:0:
136,72,89367,5,0,0:0:0:0:
440,64,89767,1,0,0:0:0:0:
360,360,90167,1,0,0:0:0:0:
64,312,90567,5,0,0:0:0:0:
224,56,90967,5,0,0:0:0:0:
312,344,91367,1,0,0:0:0:0:
464,88,91767,1,0,0:0:0:0:
160,56,92167,6,0,B|128:96|128:96|112:144,1,84
128,168,92567,1,0,0:0:0:0:
144,200,92767,1,0,0:0:0:0:
168,232,92967,2,0,P|152:304|176:328,1,84
304,328,93367,2,0,L|408:328,1,84
368,176,93767,6,0,L|272:184,1,84
144,240,94167,1,0,0:0:0:0:
144,240,94567,2,0,P|136:168|168:144,1,84
144,240,94967,2,0,L|248:240,1,84
376,232,95367,5,0,0:0:0:0:
120,72,95767,5,0,0:0:0:0:
264,336,96167,1,0,0:0:0:0:
472,120,96567,1,0,0:0:0:0:
304,200,96967,6,0,L|232:200,1,52.5
488,200,97367,1,0,0:0:0:0:
216,80,97767,6,0,P|248:40|288:40,1,84
216,80,98167,2,0,L|168:176,1,84
96,280,98567,1,0,0:0:0:0:
336,96,98967,5,0,0:0:0:0:
336,96,99367,2,0,B|368:144|368:144|376:200,1,84
320,312,99767,1,0,0:0:0:0:
392,176,99967,1,0,0:0:0:0:
320,312,100167,6,0,L|232:272,1,84
232,128,100567,2,0,P|280:88|320:88,1,84
432,160,100967,1,0,0:0:0:0:
176,320,101367,1,0,0:0:0:0:
264,32,101767,5,0,0:0:0:0:
72,120,102167,6,0,L|72:224,1,84
224,208,102567,2,0,P|272:168|296:176,1,84
400,272,102967,2,0,B|440:296|440:296|464:328,1,84
216,288,103367,5,0,0:0:0:0:
432,72,103767,6,0,P|352:80|336:96,1,84
432,72,104167,2,0,L|432:168,1,84
288,192,104567,2,0,B|248:168|248:168|208:176,1,84
64,200,104967,6,0,L|112:288,1,84
200,160,105367,1,0,0:0:0:0:
448,200,105767,6,0,L|400:288,1,84
312,160,106167,1,0,0:0:0:0:
256,312,106567,5,0,0:0:0:0:
248,56,111924,6,0,B|264:120|264:120|256:176,1,105
152,312,112281,1,0,0:0:0:0:
264,328,117638,6,0,B|248:264|248:264|256:208,1,105
360,72,117995,1,0,0:0:0:0:
104,80,118352,6,0,L|160:176,1,105
272,320,118709,1,0,0:0:0:0:
368,72,119067,6,0,B|360:128|360:128|328:192,1,105
200,296,119424,1,0,0:0:0:0:
256,120,119602,1,0,0:0:0:0:
384,256,119781,6,0,L|488:256,1,105
200,296,120138,1,0,0:0:0:0:
152,112,120317,5,0,0:0:0:0:
336,88,120495,2,0,B|384:128|384:128|400:160|400:160|400:200|400:200|408:240|408:240|400:296,1,210
72,88,121209,5,0,0:0:0:0:
448,96,121567,2,0,P|440:192|424:208,1,105
272,280,121924,5,0,0:0:0:0:
208,104,122102,2,0,B|176:160|176:160|152:176|152:176|152:208|152:208|128:232|128:232|144:256|144:256|136:304|144:304,1,210
320,352,122638,1,0,0:0:0:0:
72,64,122995,5,0,0:0:0:0:
72,64,123352,5,0,0:0:0:0:
72,64,123709,5,0,0:0:0:0:
448,72,124067,6,0,L|408:200,1,105
320,336,124424,1,0,0:0:0:0:
64,56,124781,6,0,L|128:160,1,105
232,296,125138,1,0,0:0:0:0:
464,144,125495,5,0,0:0:0:0:
288,216,125674,2,0,L|176:216,1,105
480,232,126031,5,0,0:0:0:0:
368,80,126209,1,0,0:0:0:0:
184,120,126388,2,0,B|192:168|192:168|176:192|176:192|176:208|176:208|152:240|152:240|152:272|152:272|112:320,1,210
40,136,126924,5,0,0:0:0:0:
192,32,127102,1,0,0:0:0:0:
312,176,127281,2,0,P|368:240|400:256,1,105
464,80,127638,2,0,P|392:40|352:48,1,105
224,152,127995,5,0,0:0:0:0:
456,320,128263,5,0,0:0:0:0:
464,288,128352,1,0,0:0:0:0:
280,336,128531,1,0,0:0:0:0:
152,200,128709,2,0,P|128:280|88:296,1,105
48,112,129066,1,0,0:0:0:0:
160,64,129245,1,0,0:0:0:0:
248,136,129424,6,0,B|256:176|256:176|288:208|288:208|304:248,1,105
480,208,129781,2,0,P|480:120|440:88,1,105
224,216,130138,1,0,0:0:0:0:
392,48,130316,5,0,0:0:0:0:
336,160,130495,1,0,0:0:0:0:
184,56,130674,1,0,0:0:0:0:
128,232,130852,2,0,B|144:264|144:264|168:280|168:280|176:304|176:304|216:328,1,105
248,136,131209,5,0,0:0:0:0:
304,320,131388,1,0,0:0:0:0:
368,224,131567,1,0,0:0:0:0:
304,48,131745,1,0,0:0:0:0:
200,208,131924,2,0,P|176:288|136:296,1,105
96,112,132281,6,0,B|152:96|152:96|176:88|176:88|192:88|192:88|224:88|224:88|240:96|240:96|264:112|264:112|296:120,1,210
408,272,132817,1,0,0:0:0:0:
240,184,132995,1,0,0:0:0:0:
288,280,133174,1,0,0:0:0:0:
416,72,133352,5,0,0:0:0:0:
320,136,133531,1,0,0:0:0:0:
136,80,133709,2,0,P|112:160|128:216,1,105
248,320,134067,5,0,0:0:0:0:
248,320,134245,1,0,0:0:0:0:
248,320,134424,2,0,L|352:320,1,84
48,320,134781,1,0,0:0:0:0:
328,64,135138,6,0,B|336:96|336:96|336:120|336:120|328:144|328:144|336:208,1,105
176,280,135495,1,0,0:0:0:0:
72,120,135674,1,0,0:0:0:0:
264,120,135852,6,0,L|376:120,1,105
64,208,136209,1,0,0:0:0:0:
368,64,136388,5,0,0:0:0:0:
368,64,136567,2,0,L|368:168,1,105
248,312,136924,1,0,0:0:0:0:
168,144,137102,6,0,P|96:136|72:160,1,105
136,336,137459,1,0,0:0:0:0:
288,224,137638,1,0,0:0:0:0:
248,320,137817,5,0,0:0:0:0:
432,288,137995,2,0,B|440:240|440:240|440:224|440:224|448:200|448:200|440:160,1,105
312,48,138352,1,0,0:0:0:0:
232,216,138531,5,0,0:0:0:0:
216,104,138709,2,0,P|144:136|136:168,1,105
240,312,139067,1,0,0:0:0:0:
416,240,139245,5,0,0:0:0:0:
288,216,139424,2,0,P|288:136|272:112,1,105
240,96,139692,1,0,0:0:0:0:
230,107,139781,1,0,0:0:0:0:
40,112,139959,1,0,0:0:0:0:
312,40,140138,1,0,0:0:0:0:
112,248,140317,6,0,P|144:320|176:328,1,105
296,192,140674,5,0,0:0:0:0:
456,48,140852,2,0,B|456:96|456:96|448:104|448:104|464:128|456:128|456:128|448:152|448:152|447:169|447:169|448:192|448:192|448:208|448:208|432:232|432:232|430:235|430:235|432:256|432:256|424:272|424:272|421:259|421:259|400:288|400:288|381:291|381:291|360:288|360:288|328:312|328:312|312:328|312:328|248:336,1,409.499981254579
128,240,141567,5,0,0:0:0:0:
304,32,141745,1,0,0:0:0:0:
248,168,141924,1,0,0:0:0:0:
440,40,142102,1,0,0:0:0:0:
240,272,142281,5,0,0:0:0:0:
160,104,142459,1,0,0:0:0:0:
328,136,142638,1,0,0:0:0:0:
160,328,142817,1,0,0:0:0:0:
80,160,142995,5,0,0:0:0:0:
248,64,143174,1,0,0:0:0:0:
80,160,143352,1,0,0:0:0:0:
248,64,143531,1,0,0:0:0:0:
352,224,143709,6,0,B|312:272|264:288|208:280,1,136.499993751526
160,128,144067,1,0,0:0:0:0:
416,160,144245,1,0,0:0:0:0:
296,288,144424,1,0,0:0:0:0:
416,48,144602,5,0,0:0:0:0:
400,256,144781,1,0,0:0:0:0:
312,56,144959,1,0,0:0:0:0:
240,232,145138,1,0,0:0:0:0:
72,320,145317,5,0,0:0:0:0:
232,80,145495,1,0,0:0:0:0:
256,264,145674,1,0,0:0:0:0:
112,144,145852,5,0,0:0:0:0:
24,312,146031,1,0,0:0:0:0:
112,144,146209,1,0,0:0:0:0:
24,312,146388,1,0,0:0:0:0:
200,248,146567,6,0,B|248:240|296:224|312:160,1,136.499993751526
192,360,146924,1,0,0:0:0:0:
232,80,147102,1,0,0:0:0:0:
296,208,147281,1,0,0:0:0:0:
120,40,147459,5,0,0:0:0:0:
224,264,147638,1,0,0:0:0:0:
320,112,147817,1,0,0:0:0:0:
96,304,147995,1,0,0:0:0:0:
152,120,148174,5,0,0:0:0:0:
384,328,148352,1,0,0:0:0:0:
240,96,148531,1,0,0:0:0:0:
256,280,148709,5,0,0:0:0:0:
424,184,148888,1,0,0:0:0:0:
256,280,149067,1,0,0:0:0:0:
424,184,149245,1,0,0:0:0:0:
248,120,149424,6,0,L|128:128,1,105
256,280,149781,1,0,0:0:0:0:
384,144,149959,1,0,0:0:0:0:
200,200,150138,1,0,0:0:0:0:
376,272,150317,1,0,0:0:0:0:
264,120,150495,6,0,L|128:112,1,105
208,296,150852,1,0,0:0:0:0:
368,192,151031,1,0,0:0:0:0:
184,208,151209,1,0,0:0:0:0:
336,320,151388,1,0,0:0:0:0:
264,144,151566,6,0,B|239:99|224:71|200:56,1,105
80,168,151924,1,0,0:0:0:0:
90,196,152102,1,0,0:0:0:0:
100,225,152281,6,0,B|120:264|120:264|144:280|144:280|152:296|152:296|168:320|168:320|192:328,1,136.499993751526
368,264,152638,1,0,0:0:0:0:
232,128,152816,1,0,0:0:0:0:
352,168,152995,1,0,0:0:0:0:
232,320,153174,5,0,0:0:0:0:
328,64,153352,1,0,0:0:0:0:
152,256,153531,1,0,0:0:0:0:
200,128,153709,1,0,0:0:0:0:
304,288,153888,5,0,0:0:0:0:
328,48,154066,1,0,0:0:0:0:
216,200,154245,1,0,0:0:0:0:
384,288,154424,5,0,0:0:0:0:
410,302,154602,1,0,0:0:0:0:
437,317,154781,1,0,0:0:0:0:
463,332,154959,1,0,0:0:0:0:
216,296,155138,6,0,P|128:256|112:216,1,136.499993751526
192,48,155495,1,0,0:0:0:0:
288,216,155674,1,0,0:0:0:0:
288,96,155852,1,0,0:0:0:0:
168,320,156031,5,0,0:0:0:0:
184,136,156209,1,0,0:0:0:0:
256,312,156388,1,0,0:0:0:0:
408,200,156566,1,0,0:0:0:0:
224,240,156745,5,0,0:0:0:0:
304,24,156924,1,0,0:0:0:0:
312,216,157102,1,0,0:0:0:0:
128,288,157281,5,0,0:0:0:0:
102,302,157459,1,0,0:0:0:0:
75,317,157638,1,0,0:0:0:0:
49,332,157816,1,0,0:0:0:0:
288,288,157995,6,0,P|368:288|424:240,1,136.499993751526
432,72,158352,1,0,0:0:0:0:
296,208,158531,1,0,0:0:0:0:
344,24,158709,1,0,0:0:0:0:
168,304,158888,5,0,0:0:0:0:
240,56,159066,1,0,0:0:0:0:
152,224,159245,1,0,0:0:0:0:
96,40,159424,1,0,0:0:0:0:
296,296,159602,5,0,0:0:0:0:
104,304,159781,1,0,0:0:0:0:
280,216,159959,1,0,0:0:0:0:
384,96,160138,5,0,0:0:0:0:
410,82,160316,1,0,0:0:0:0:
437,67,160495,1,0,0:0:0:0:
463,52,160673,1,0,0:0:0:0:
352,208,160852,6,0,L|264:296,1,105
216,104,161209,1,0,0:0:0:0:
400,128,161388,1,0,0:0:0:0:
304,288,161566,1,0,0:0:0:0:
312,96,161745,1,0,0:0:0:0:
184,240,161924,6,0,L|72:296,1,105
168,112,162281,1,0,0:0:0:0:
304,240,162459,1,0,0:0:0:0:
176,328,162638,1,0,0:0:0:0:
272,168,162816,1,0,0:0:0:0:
128,96,162995,5,0,0:0:0:0:
102,82,163173,1,0,0:0:0:0:
75,67,163352,1,0,0:0:0:0:
49,52,163530,1,0,0:0:0:0:
80,240,163709,5,0,0:0:0:0:
107,271,163798,1,0,0:0:0:0:
138,299,163887,1,0,0:0:0:0:
175,319,163976,1,0,0:0:0:0:
216,327,164066,1,0,0:0:0:0:
256,318,164155,1,0,0:0:0:0:
285,289,164244,1,0,0:0:0:0:
297,248,164333,1,0,0:0:0:0:
302,207,164423,1,0,0:0:0:0:
306,165,164512,1,0,0:0:0:0:
315,124,164601,1,0,0:0:0:0:
333,86,164691,1,0,0:0:0:0:
366,62,164780,1,0,0:0:0:0:
407,68,164869,1,0,0:0:0:0:
433,100,164958,1,0,0:0:0:0:
443,140,165048,1,0,0:0:0:0:
444,182,165137,1,0,0:0:0:0:
441,224,165226,1,0,0:0:0:0:
438,266,165316,1,0,0:0:0:0:
433,308,165405,1,0,0:0:0:0:
422,348,165495,6,0,P|320:336|296:288,1,136.499993751526
264,128,165852,2,0,B|208:104|208:104|184:80|184:80|160:72|160:72|128:64,1,136.499993751526
88,248,166209,1,0,0:0:0:0:
264,104,166388,1,0,0:0:0:0:
408,224,166566,6,0,L|408:360,1,105
80,144,166924,5,0,0:0:0:0:
107,112,167013,1,0,0:0:0:0:
138,84,167102,1,0,0:0:0:0:
175,64,167191,1,0,0:0:0:0:
216,56,167281,1,0,0:0:0:0:
256,65,167370,1,0,0:0:0:0:
285,94,167459,1,0,0:0:0:0:
297,135,167548,1,0,0:0:0:0:
302,176,167638,1,0,0:0:0:0:
306,218,167727,1,0,0:0:0:0:
315,259,167816,1,0,0:0:0:0:
333,297,167906,1,0,0:0:0:0:
366,321,167995,1,0,0:0:0:0:
407,315,168084,1,0,0:0:0:0:
433,283,168173,1,0,0:0:0:0:
443,243,168263,1,0,0:0:0:0:
444,201,168352,1,0,0:0:0:0:
441,159,168441,1,0,0:0:0:0:
438,117,168531,1,0,0:0:0:0:
433,75,168620,1,0,0:0:0:0:
422,35,168710,6,0,P|320:48|296:96,1,136.499993751526
112,216,169066,2,0,P|80:128|104:96,1,136.499993751526
344,56,169424,6,0,B|336:120|336:120|344:160|344:160|336:200|336:200|344:232|344:232|328:272|328:272|336:304|336:304|336:328,1,272.999987503052
432,240,169959,5,0,0:0:0:0:
404,271,170048,1,0,0:0:0:0:
373,299,170137,1,0,0:0:0:0:
336,319,170226,1,0,0:0:0:0:
295,327,170316,1,0,0:0:0:0:
255,318,170405,1,0,0:0:0:0:
226,289,170494,1,0,0:0:0:0:
214,248,170583,1,0,0:0:0:0:
209,207,170673,1,0,0:0:0:0:
205,165,170762,1,0,0:0:0:0:
196,124,170851,1,0,0:0:0:0:
178,86,170941,1,0,0:0:0:0:
145,62,171030,1,0,0:0:0:0:
104,68,171119,1,0,0:0:0:0:
78,100,171208,1,0,0:0:0:0:
68,140,171298,1,0,0:0:0:0:
67,182,171387,1,0,0:0:0:0:
70,224,171476,1,0,0:0:0:0:
73,266,171566,5,0,0:0:0:0:
78,308,171655,1,0,0:0:0:0:
89,348,171745,2,0,P|192:336|216:288,1,136.499993751526
376,40,172102,1,0,0:0:0:0:
192,200,172281,1,0,0:0:0:0:
192,200,172638,5,0,0:0:0:0:
424,120,172816,1,0,0:0:0:0:
328,304,172995,2,0,B|272:312|272:312|232:296|232:296|192:304|192:304|160:296|160:296|160:296,1,136.499993751526
8,336,173352,5,0,0:0:0:0:
304,176,173531,1,0,0:0:0:0:
152,64,173709,2,0,L|160:176,1,105
296,304,174066,6,0,P|400:288|424:264,1,105
456,112,174424,1,0,0:0:0:0:
456,112,174602,5,0,0:0:0:0:
456,112,174781,2,0,L|336:112,1,105
192,216,175138,6,0,B|152:224|152:224|128:240|128:240|96:248|96:248|72:280,1,105
296,64,175495,1,0,0:0:0:0:
184,344,175674,1,0,0:0:0:0:
384,112,175852,5,0,0:0:0:0:
120,280,176031,1,0,0:0:0:0:
304,240,176209,1,0,0:0:0:0:
224,24,176388,5,0,0:0:0:0:
200,208,176566,2,0,B|192:256|192:256|192:288|192:288|178:315|178:315|160:344,1,105
296,152,176924,1,0,0:0:0:0:
104,144,177102,5,0,0:0:0:0:
296,152,177281,2,0,L|304:288,1,105
456,152,177638,2,0,P|440:56|400:48,1,105
256,80,177995,6,0,B|232:104|232:104|208:120|208:120|176:128|176:128|144:144,1,105
64,296,178352,1,0,0:0:0:0:
344,128,178531,1,0,0:0:0:0:
64,192,178709,5,0,0:0:0:0:
400,208,178888,1,0,0:0:0:0:
224,144,179066,1,0,0:0:0:0:
288,352,179245,5,0,0:0:0:0:
400,208,179424,2,0,P|416:120|408:80,1,105
232,40,179781,1,0,0:0:0:0:
184,296,179959,5,0,0:0:0:0:
296,176,180138,1,0,0:0:0:0:
104,176,180316,1,0,0:0:0:0:
76,188,180494,1,0,0:0:0:0:
48,201,180673,1,0,0:0:0:0:
288,136,180852,2,0,B|320:144|320:144|352:136|352:136|376:144|376:144|408:136|408:136|464:144,1,136.499993751526
248,312,181209,5,0,0:0:0:0:
192,72,181388,2,0,L|144:200,1,105
328,248,181745,5,0,0:0:0:0:
312,56,181924,2,0,L|448:104,1,105
240,168,182281,5,0,0:0:0:0:
56,144,182459,2,0,L|128:272,1,105
288,280,182816,1,0,0:0:0:0:
315,293,182994,1,0,0:0:0:0:
343,306,183173,1,0,0:0:0:0:
48,160,183352,1,0,0:0:0:0:
400,136,183531,1,0,0:0:0:0:
192,272,183709,2,0,B|152:296|152:296|128:296|128:296|104:312|104:312|72:312|72:312|48:328,1,136.499993751526
224,40,184066,5,0,0:0:0:0:
219,94,184155,1,0,0:0:0:0:
219,150,184244,1,0,0:0:0:0:
228,204,184333,1,0,0:0:0:0:
251,254,184423,1,0,0:0:0:0:
297,271,184512,1,0,0:0:0:0:
324,224,184601,1,0,0:0:0:0:
342,171,184690,1,0,0:0:0:0:
365,122,184780,1,0,0:0:0:0:
404,83,184869,1,0,0:0:0:0:
451,97,184958,1,0,0:0:0:0:
462,151,185048,1,0,0:0:0:0:
460,206,185137,5,0,0:0:0:0:
450,260,185226,1,0,0:0:0:0:
427,310,185315,1,0,0:0:0:0:
383,342,185405,1,0,0:0:0:0:
330,354,185494,1,0,0:0:0:0:
275,357,185583,1,0,0:0:0:0:
220,355,185673,1,0,0:0:0:0:
165,350,185762,1,0,0:0:0:0:
111,339,185852,5,0,0:0:0:0:
77,298,185941,1,0,0:0:0:0:
76,244,186030,1,0,0:0:0:0:
89,190,186119,1,0,0:0:0:0:
112,140,186209,1,0,0:0:0:0:
145,96,186298,1,0,0:0:0:0:
196,86,186387,1,0,0:0:0:0:
241,117,186476,1,0,0:0:0:0:
284,152,186566,6,0,P|328:232|344:152,1,210
120,72,189424,5,0,0:0:0:0:
120,72,189824,2,0,L|112:184,1,105
120,72,190224,2,0,P|200:48|240:72,1,105
296,224,190624,2,0,B|312:256|312:256|336:272|336:272|352:296|352:296|376:304,1,105
456,136,191024,1,0,0:0:0:0:
456,136,191424,5,0,0:0:0:0:
80,152,191824,1,0,0:0:0:0:
408,336,192224,1,0,0:0:0:0:
168,48,192624,1,0,0:0:0:0:
168,48,193024,5,0,0:0:0:0:
456,296,193424,2,0,P|448:224|416:184,1,105
456,296,193824,2,0,L|352:296,1,105
272,128,194224,1,0,0:0:0:0:
272,128,194624,6,0,L|144:128,1,105
464,128,195024,1,0,0:0:0:0:
432,232,195224,1,0,0:0:0:0:
336,168,195424,1,0,0:0:0:0:
192,40,195624,1,0,0:0:0:0:
96,200,195824,6,0,L|88:320,1,105
232,184,196224,2,0,P|280:128|352:144,1,105
440,256,196624,2,0,B|456:296|456:296|480:320|480:320|488:352|488:352|504:360,1,105
312,264,197024,2,0,L|176:256,1,105
448,144,197424,1,0,0:0:0:0:
448,144,197824,5,0,0:0:0:0:
72,104,198224,2,0,L|72:216,1,105
256,184,198624,2,0,P|216:120|168:128,1,105
136,296,199024,6,0,B|101:315|101:315|80:328|80:328|48:336|48:336|32:352,1,105
136,176,199424,2,0,L|248:176,1,105
432,176,199824,2,0,L|448:320,1,105
304,152,200224,2,0,B|264:168|264:168|243:166|243:166|216:184|216:184|184:192,1,105
56,296,200624,5,0,0:0:0:0:
128,120,200824,1,0,0:0:0:0:
208,192,201024,1,0,0:0:0:0:
280,112,201224,1,0,0:0:0:0:
416,240,201424,2,0,L|416:344,1,84
248,232,201824,5,0,0:0:0:0:
248,232,202224,5,0,0:0:0:0:
112,48,202624,5,0,0:0:0:0:
72,232,202824,1,0,0:0:0:0:
112,48,203024,2,0,L|232:56,1,105
384,144,203424,2,0,B|384:184|384:184|400:208|400:208|400:240|400:240|416:288,1,105
224,304,203824,2,0,L|104:304,1,105
160,120,204224,6,0,P|224:64|264:72,1,105
384,184,204624,2,0,L|384:288,1,105
232,176,205024,2,0,L|272:312,1,105
88,200,205424,2,0,B|82:249|82:249|72:272|72:272|66:297|66:297|64:328,1,105
232,208,205824,6,0,L|352:208,1,105
256,40,206224,2,0,P|168:64|168:104,1,105
232,240,206624,2,0,B|236:280|236:280|240:296|240:296|240:320|240:320|248:336|248:336|256:352,1,105
440,344,207024,1,0,0:0:0:0:
200,48,207424,6,0,P|216:136|240:152,1,105
408,112,207824,2,0,B|400:184|400:184|376:224,1,105
344,232,208224,1,0,0:0:0:0:
312,248,208424,1,0,0:0:0:0:
288,264,208624,6,0,L|232:360,1,105
136,192,209024,2,0,P|160:112|192:88,1,105
360,96,209490,2,0,B|368:128|368:128|384:144|384:144|400:176|400:176|424:200,1,105
224,176,209890,2,0,L|208:296,1,105
80,56,210290,1,0,0:0:0:0:
80,56,210624,6,0,L|200:64,1,105
344,168,211090,2,0,B|376:200|376:200|384:224|384:224|400:240|400:240|416:280,1,105
224,104,211524,1,0,0:0:0:0:
208,216,211690,1,0,0:0:0:0:
136,160,211890,6,0,L|40:160,1,78.75
176,280,212357,2,0,L|256:296,1,70
296,112,212890,2,0,B|320:136|320:136|328:160|328:160|351:179|351:179|352:176,1,87.5
216,200,213490,2,0,P|168:144|136:128,1,105
80,200,214090,6,0,B|80:232|80:232|88:248|88:248|87:280|87:280|80:296|80:296|96:320,1,105
256,224,214724,2,0,L|376:184,1,105
224,56,215357,2,0,P|136:72|144:120,1,157.5
280,256,216124,2,0,L|416:256,1,131.25
96,128,216824,5,0,0:0:0:0:
256,192,217024,12,0,248024,0:0:0:0:
