osu file format v14

[General]
AudioFilename: audio.mp3
AudioLeadIn: 0
PreviewTime: 61676
Countdown: 0
SampleSet: Normal
StackLeniency: 0.4
Mode: 0
LetterboxInBreaks: 0
WidescreenStoryboard: 1

[Editor]
DistanceSpacing: 0.6
BeatDivisor: 4
GridSize: 4
TimelineZoom: 2.3

[Metadata]
Title:BeBe
TitleUnicode:BeBe
Artist:WJSN (Cosmic Girls)
ArtistUnicode:WJSN (우주소녀)
Creator:Sidetail
Version:uwu DT
Source:
Tags:kpop 보나 성소 다영 선의 은서 여름 설아 엑시 수빈 루다 다원 미기 연정 Bona ChengXiao Dayoung XuanYi Eunseo Yeoreum SeolA Exy Soobin Luda Dawon MeiQi Yeonjung Wonder Joy Sweet Natural Unit The Secret nuolong [_m_i_n_a_k_o_] minako betastar
BeatmapID:1316933
BeatmapSetID:539135

[Difficulty]
HPDrainRate:5
CircleSize:0
OverallDifficulty:6
ApproachRate:8.7
SliderMultiplier:1.6
SliderTickRate:1

[Events]
//Background and Video events
0,0,"beta.jpg",0,0
//Break Periods
2,48832,54082
2,110332,115582
2,160032,161437
//Storyboard Layer 0 (Background)
//Storyboard Layer 1 (Fail)
//Storyboard Layer 2 (Pass)
//Storyboard Layer 3 (Foreground)
//Storyboard Sound Samples

[TimingPoints]
-667,374.999999999999,4,1,1,75,1,0
832,-133.333333333333,4,1,1,75,0,0
12832,-100,4,1,1,75,0,0
33082,-83.3333333333333,4,1,1,75,0,0
33832,-100,4,1,1,75,0,0
61957,-133.333333333333,4,1,1,75,0,0
62332,-50,4,1,1,75,0,1
68332,-66.6666666666667,4,1,1,75,0,1
72832,-100,4,1,1,75,0,0
74332,-66.6666666666667,4,1,1,75,0,1
86332,-66.6666666666667,4,1,1,75,0,0
92332,-100,4,1,1,75,0,0
94957,-20,4,1,1,75,0,0
95332,-100,4,1,1,75,0,0
103582,-20,4,1,1,75,0,0
104332,-100,4,1,1,75,0,0
121957,-133.333333333333,4,1,1,75,0,0
122332,-50,4,1,1,75,0,1
128332,-66.6666666666667,4,1,1,75,0,1
132832,-100,4,1,1,75,0,0
134332,-66.6666666666667,4,1,1,75,0,1
146332,-200,4,1,1,75,0,0
147832,-200,4,1,1,75,0,0
150082,-100,4,1,1,75,0,0
153082,-33.3333333333333,4,1,1,75,0,0
153832,-66.6666666666667,4,1,1,75,0,0
156082,-58.8235294117647,4,1,1,75,0,0
157395,-50,4,1,1,75,0,0
157957,-55.5555555555556,4,1,1,75,0,0
158520,-50,4,1,1,75,0,0
166957,-133.333333333333,4,1,1,75,0,0
167332,-50,4,1,1,75,0,1
173332,-66.6666666666667,4,1,1,75,0,1
177832,-100,4,1,1,75,0,0
179332,-66.6666666666667,4,1,1,75,0,1
191332,-500,4,1,1,75,0,0
192457,-100,4,1,1,75,0,0
195082,-1000,4,1,1,75,0,0
195832,-1000,4,1,1,5,0,0

[Colours]
Combo1 : 128,128,192
Combo2 : 0,128,0
Combo3 : 0,128,192
Combo4 : 176,11,35
Combo5 : 255,128,0
Combo6 : 128,0,128

[HitObjects]
384,100,457,5,0,0:0:0:0:
384,100,551,1,0,0:0:0:0:
384,100,645,1,0,0:0:0:0:
384,100,739,1,0,0:0:0:0:
384,100,832,6,0,P|428:108|476:176,1,120.000004577637,0|0,0:0|0:0,0:0:0:0:
376,208,1395,2,0,L|244:168,1,120.000004577637,0|0,0:0|0:0,0:0:0:0:
296,272,1957,6,0,L|164:232,1,120.000004577637,0|0,0:0|0:0,0:0:0:0:
212,336,2520,2,0,L|80:296,1,120.000004577637,0|0,0:0|0:0,0:0:0:0:
56,136,3082,1,0,0:0:0:0:
120,176,3270,1,0,0:0:0:0:
192,48,3457,1,0,0:0:0:0:
216,120,3645,1,0,0:0:0:0:
380,168,3832,6,0,P|436:132|448:64,1,120.000004577637,0|0,0:0|0:0,0:0:0:0:
344,68,4395,2,0,L|208:40,1,120.000004577637,0|0,0:0|0:0,0:0:0:0:
260,144,4957,6,0,L|128:187,1,120.000004577637
240,248,5520,2,0,L|147:351,1,120.000004577637,0|0,0:0|0:0,0:0:0:0:
336,332,6082,2,0,P|416:308|352:276,1,180.000006866455
460,144,6832,6,0,P|487:91|481:32,1,120.000004577637,0|0,0:0|0:0,0:0:0:0:
380,67,7395,2,0,L|309:183,1,120.000004577637,0|0,0:0|0:0,0:0:0:0:
272,76,7957,6,0,L|201:192,1,120.000004577637,0|0,0:0|0:0,0:0:0:0:
164,84,8520,2,0,L|96:204,1,120.000004577637,0|0,0:0|0:0,0:0:0:0:
56,264,9082,1,0,0:0:0:0:
12,332,9270,1,0,0:0:0:0:
168,280,9457,1,0,0:0:0:0:
164,358,9645,1,0,0:0:0:0:
304,340,9832,6,0,P|368:328|404:276,1,120.000004577637,0|0,0:0|0:0,0:0:0:0:
308,236,10395,2,0,L|360:104,1,120.000004577637,0|0,0:0|0:0,0:0:0:0:
248,148,10957,6,0,L|227:7,1,120.000004577637,0|0,0:0|0:0,0:0:0:0:
152,104,11520,2,0,L|63:-7,1,120.000004577637,0|0,0:0|0:0,0:0:0:0:
36,144,12082,2,0,P|44:220|100:172,1,180.000006866455
208,152,12832,5,4,0:0:0:0:
308,260,13020,1,0,0:0:0:0:
368,128,13207,1,0,0:0:0:0:
200,256,13395,1,0,0:0:0:0:
412,228,13582,1,0,0:0:0:0:
276,52,13770,1,0,0:0:0:0:
352,308,13957,1,0,0:0:0:0:
380,40,14145,1,0,0:0:0:0:
260,316,14332,5,0,0:0:0:0:
80,92,14707,5,0,0:0:0:0:
432,96,15082,6,0,P|448:132|424:184,1,80
368,136,15364,1,0,0:0:0:0:
340,64,15457,2,0,L|228:80,1,80,0|0,0:0|0:0,0:0:0:0:
176,220,15832,5,0,0:0:0:0:
288,152,16020,1,0,0:0:0:0:
140,156,16207,1,0,0:0:0:0:
328,212,16395,1,0,0:0:0:0:
104,220,16582,1,0,0:0:0:0:
360,148,16770,1,0,0:0:0:0:
68,156,16957,1,0,0:0:0:0:
396,212,17145,1,0,0:0:0:0:
32,220,17332,5,0,0:0:0:0:
320,32,17707,6,0,L|424:68,1,80
448,112,17989,1,0,0:0:0:0:
384,152,18082,2,0,B|352:172|320:164|320:164|348:208|320:280,1,160,0|0,0:0|0:0,0:0:0:0:
196,224,18645,1,0,0:0:0:0:
40,124,18832,6,0,L|128:92,1,80,0|0,0:0|0:0,0:0:0:0:
268,160,19207,1,0,0:0:0:0:
92,328,19395,2,0,L|64:252,1,80
168,164,19770,1,0,0:0:0:0:
140,352,19957,6,0,L|80:200,1,160,0|0,0:0|0:0,0:0:0:0:
420,56,20520,2,0,L|448:132,1,80
308,220,20895,1,0,0:0:0:0:
372,32,21082,2,0,L|432:184,1,160
360,328,21645,1,0,0:0:0:0:
176,216,21832,5,0,0:0:0:0:
176,216,21926,1,0,0:0:0:0:
176,216,22020,1,0,0:0:0:0:
384,248,22207,1,0,0:0:0:0:
128,292,22395,1,0,0:0:0:0:
430,180,22582,1,0,0:0:0:0:
88,212,22770,1,0,0:0:0:0:
464,252,22957,1,0,0:0:0:0:
44,284,23145,1,0,0:0:0:0:
384,248,23332,5,0,0:0:0:0:
384,248,23426,1,0,0:0:0:0:
384,248,23520,1,0,0:0:0:0:
172,220,23707,1,0,0:0:0:0:
344,112,23895,1,0,0:0:0:0:
136,304,24082,1,0,0:0:0:0:
440,148,24270,1,0,0:0:0:0:
84,232,24457,1,0,0:0:0:0:
456,248,24645,1,0,0:0:0:0:
80,140,24832,6,0,P|88:100|120:64,1,80
284,176,25207,1,0,0:0:0:0:
8,176,25395,2,0,P|0:132|20:84,1,80
9,98,25676,1,0,0:0:0:0:
9,98,25770,1,0,0:0:0:0:
300,80,25957,1,0,0:0:0:0:
136,240,26145,6,0,P|136:280|148:332,1,80
320,280,26520,1,0,0:0:0:0:
144,160,26707,1,0,0:0:0:0:
368,132,26895,1,0,0:0:0:0:
144,160,27082,2,0,P|137:234|144:322,1,160
143,319,27832,6,0,P|176:304|212:280,1,80
80,112,28207,1,0,0:0:0:0:
266,230,28395,1,0,0:0:0:0:
72,336,28582,1,0,0:0:0:0:
72,336,28957,6,0,B|152:340|152:340|248:312,1,160,0|0,0:0|0:0,0:0:0:0:
104,188,29520,1,0,0:0:0:0:
356,80,29707,1,0,0:0:0:0:
328,344,29895,1,0,0:0:0:0:
104,188,30082,1,0,0:0:0:0:
104,188,30457,6,0,B|128:104|128:104|192:36,1,160,0|0,0:0|0:0,0:0:0:0:
424,252,31020,1,0,0:0:0:0:
424,252,31114,1,0,0:0:0:0:
424,252,31207,1,0,0:0:0:0:
152,312,31395,1,0,0:0:0:0:
240,76,31582,1,0,0:0:0:0:
396,304,31770,1,0,0:0:0:0:
124,260,31957,1,0,0:0:0:0:
288,72,32145,1,0,0:0:0:0:
196,196,32332,6,0,L|116:136,1,80,0|0,0:0|0:0,0:0:0:0:
320,168,32707,2,0,L|404:92,1,80,0|0,0:0|0:0,0:0:0:0:
124,260,33082,6,0,L|40:192,1,95.9999970703126,0|0,0:0|0:0,0:0:0:0:
372,240,33457,2,0,L|456:160,1,95.9999970703126,0|0,0:0|0:0,0:0:0:0:
224,288,33832,5,0,0:0:0:0:
292,72,34020,1,0,0:0:0:0:
292,72,34114,1,0,0:0:0:0:
292,72,34207,1,0,0:0:0:0:
444,244,34395,1,0,0:0:0:0:
188,244,34582,1,0,0:0:0:0:
344,72,34770,1,0,0:0:0:0:
420,296,34957,1,0,0:0:0:0:
156,196,35145,1,0,0:0:0:0:
392,28,35332,6,0,B|428:56|428:56|436:120,1,80,0|0,0:0|0:0,0:0:0:0:
376,136,35614,1,0,0:0:0:0:
312,176,35707,2,0,L|308:268,1,80,0|0,0:0|0:0,0:0:0:0:
400,352,36082,5,0,0:0:0:0:
4,340,36457,5,0,0:0:0:0:
184,64,36832,5,4,0:0:0:0:
172,232,37020,1,0,0:0:0:0:
172,232,37114,1,0,0:0:0:0:
172,232,37207,1,0,0:0:0:0:
376,132,37395,1,0,0:0:0:0:
256,304,37582,2,0,L|258:343,1,40
256,304,37957,1,0,0:0:0:0:
256,304,38520,5,0,0:0:0:0:
120,188,38707,1,0,0:0:0:0:
120,188,38801,1,0,0:0:0:0:
120,188,38895,1,0,0:0:0:0:
336,52,39082,2,0,L|332:128,1,40,0|0,0:0|0:0,0:0:0:0:
336,52,39457,1,0,0:0:0:0:
384,228,39832,5,0,0:0:0:0:
116,164,40020,1,0,0:0:0:0:
116,164,40395,5,0,0:0:0:0:
424,152,40582,1,0,0:0:0:0:
72,236,40770,1,0,0:0:0:0:
472,220,40957,1,0,0:0:0:0:
40,148,41145,1,0,0:0:0:0:
472,220,41332,5,0,0:0:0:0:
256,280,41520,1,0,0:0:0:0:
256,280,41895,5,0,0:0:0:0:
192,48,42082,1,0,0:0:0:0:
312,344,42270,1,0,0:0:0:0:
312,48,42457,1,0,0:0:0:0:
200,344,42645,1,0,0:0:0:0:
192,48,42832,5,4,0:0:0:0:
40,284,43020,1,0,0:0:0:0:
40,284,43114,1,0,0:0:0:0:
40,284,43207,1,0,0:0:0:0:
320,300,43395,1,0,0:0:0:0:
320,300,43770,1,0,0:0:0:0:
320,300,43864,1,0,0:0:0:0:
320,300,43957,1,0,0:0:0:0:
320,48,44145,1,0,0:0:0:0:
320,48,44520,5,0,0:0:0:0:
320,48,44614,1,0,0:0:0:0:
320,48,44707,1,0,0:0:0:0:
100,236,44895,1,0,0:0:0:0:
376,324,45082,1,0,0:0:0:0:
376,324,45176,1,0,0:0:0:0:
376,324,45270,1,0,0:0:0:0:
376,324,45364,1,0,0:0:0:0:
376,324,45457,1,0,0:0:0:0:
256,36,45645,1,0,0:0:0:0:
64,264,45832,5,0,0:0:0:0:
64,264,45926,1,0,0:0:0:0:
64,264,46020,1,0,0:0:0:0:
376,64,46207,1,0,0:0:0:0:
324,340,46395,1,0,0:0:0:0:
256,36,46582,1,0,0:0:0:0:
192,320,46770,1,0,0:0:0:0:
192,320,46864,1,0,0:0:0:0:
192,320,46957,1,0,0:0:0:0:
392,104,47145,1,0,0:0:0:0:
92,232,47332,5,0,0:0:0:0:
424,188,47520,1,0,0:0:0:0:
108,132,47707,1,0,0:0:0:0:
456,276,47895,1,0,0:0:0:0:
128,36,48082,1,0,0:0:0:0:
256,192,48457,5,0,0:0:0:0:
180,128,54832,5,4,0:0:0:0:
320,116,55207,1,0,0:0:0:0:
332,256,55582,1,0,0:0:0:0:
192,268,55957,1,0,0:0:0:0:
80,208,56332,5,0,0:0:0:0:
272,368,56707,1,0,0:0:0:0:
432,176,57082,1,0,0:0:0:0:
356,192,57270,1,0,0:0:0:0:
240,16,57457,1,0,0:0:0:0:
216,88,57645,1,0,0:0:0:0:
44,212,57832,5,0,0:0:0:0:
240,168,58020,1,0,0:0:0:0:
44,212,58207,1,0,0:0:0:0:
348,268,58395,1,0,0:0:0:0:
44,212,58582,1,0,0:0:0:0:
396,116,58770,1,0,0:0:0:0:
44,212,58957,1,0,0:0:0:0:
496,284,59145,1,0,0:0:0:0:
256,192,59192,12,0,61770,0:0:0:0:
256,64,61957,6,0,L|256:160,1,90.0000034332277,0|0,0:0|0:0,0:0:0:0:
256,240,62332,5,4,0:0:0:0:
352,116,62520,1,0,0:0:0:0:
176,108,62707,1,8,0:0:0:0:
384,244,62895,1,0,0:0:0:0:
264,16,63082,1,0,0:0:0:0:
116,240,63270,1,0,0:0:0:0:
116,240,63645,1,0,0:0:0:0:
396,144,63832,5,0,0:0:0:0:
176,156,64020,1,0,0:0:0:0:
356,228,64207,1,8,0:0:0:0:
80,160,64395,1,0,0:0:0:0:
456,216,64582,1,0,0:0:0:0:
24,240,64770,1,0,0:0:0:0:
496,132,64957,1,8,0:0:0:0:
288,268,65145,1,0,0:0:0:0:
288,268,65239,1,0,0:0:0:0:
288,268,65333,6,0,B|240:248|196:268|196:268|140:224,1,160,0|0,0:0|0:0,0:0:0:0:
244,348,65707,1,8,0:0:0:0:
344,36,65895,1,0,0:0:0:0:
392,332,66082,2,0,B|371:294|383:255|383:255|360:210|358:162,1,160,0|0,0:0|0:0,0:0:0:0:
184,288,66457,1,8,0:0:0:0:
460,236,66645,1,0,0:0:0:0:
460,236,67020,5,0,0:0:0:0:
272,32,67207,1,8,0:0:0:0:
184,288,67395,1,0,0:0:0:0:
184,288,67489,1,0,0:0:0:0:
184,288,67582,2,0,P|257:309|248:262,1,160,0|0,0:0|0:0,0:0:0:0:
196,24,67957,1,8,0:0:0:0:
48,240,68145,1,0,0:0:0:0:
225,170,68332,6,0,P|198:116|149:84,1,120.000004577637
218,291,68707,1,8,0:0:0:0:
376,140,68895,1,0,0:0:0:0:
376,140,69270,2,0,P|415:75|314:97,1,240.000009155274,0|0,0:0|0:0,0:0:0:0:
120,192,69832,5,0,0:0:0:0:
313,96,70020,1,0,0:0:0:0:
52,128,70207,1,8,0:0:0:0:
392,232,70395,1,0,0:0:0:0:
392,232,70770,2,0,P|424:291|328:256,1,240.000009155274,0|0,0:0|0:0,0:0:0:0:
320,40,71332,5,0,0:0:0:0:
144,168,71520,1,0,0:0:0:0:
144,168,71614,1,0,0:0:0:0:
144,168,71707,1,8,0:0:0:0:
320,40,71895,1,0,0:0:0:0:
336,228,72082,2,0,L|356:288,1,60.0000022888184
380,360,72270,1,0,0:0:0:0:
144,168,72457,2,0,L|105:53,1,120.000004577637,8|0,0:0|0:0,0:0:0:0:
368,168,72832,5,0,0:0:0:0:
406,54,73020,1,0,0:0:0:0:
144,168,73207,1,8,0:0:0:0:
106,54,73395,1,0,0:0:0:0:
64,340,73582,1,0,0:0:0:0:
256,32,73770,1,0,0:0:0:0:
256,32,73864,1,0,0:0:0:0:
256,32,73957,1,8,0:0:0:0:
448,340,74145,1,0,0:0:0:0:
152,240,74332,5,4,0:0:0:0:
256,32,74520,1,0,0:0:0:0:
360,240,74707,1,8,0:0:0:0:
104,84,74895,1,0,0:0:0:0:
432,88,75270,5,0,0:0:0:0:
256,344,75645,5,0,0:0:0:0:
192,216,75832,5,0,0:0:0:0:
256,344,76020,1,0,0:0:0:0:
316,164,76207,1,8,0:0:0:0:
256,344,76395,1,0,0:0:0:0:
144,84,76582,1,0,0:0:0:0:
384,312,76770,1,0,0:0:0:0:
144,84,76957,1,8,0:0:0:0:
384,312,77145,1,0,0:0:0:0:
144,84,77332,5,0,0:0:0:0:
316,164,77520,1,0,0:0:0:0:
161,266,77707,1,8,0:0:0:0:
412,72,77895,1,0,0:0:0:0:
72,88,78270,5,0,0:0:0:0:
244,352,78645,5,0,0:0:0:0:
352,216,78832,5,0,0:0:0:0:
244,352,79020,1,0,0:0:0:0:
256,92,79207,1,8,0:0:0:0:
244,352,79395,1,0,0:0:0:0:
116,52,79582,1,0,0:0:0:0:
393,315,79770,1,0,0:0:0:0:
116,52,79957,1,8,0:0:0:0:
393,315,80145,1,0,0:0:0:0:
392,20,80332,5,0,0:0:0:0:
248,306,80520,1,0,0:0:0:0:
392,20,80707,1,8,0:0:0:0:
248,306,80895,2,0,L|96:292,1,120.000004577637,0|0,0:0|0:0,0:0:0:0:
248,306,81270,2,0,L|5:284,1,240.000009155274,0|0,0:0|0:0,0:0:0:0:
191,24,81832,5,0,0:0:0:0:
405,174,82020,1,0,0:0:0:0:
166,270,82207,1,8,0:0:0:0:
48,84,82395,2,0,P|112:120|148:172,1,120.000004577637,0|0,0:0|0:0,0:0:0:0:
48,84,82770,2,0,P|136:148|158:304,1,240.000009155274,0|0,0:0|0:0,0:0:0:0:
8,284,83332,5,0,0:0:0:0:
288,276,83520,1,0,0:0:0:0:
288,276,83614,1,0,0:0:0:0:
288,276,83707,1,8,0:0:0:0:
8,284,83895,1,0,0:0:0:0:
138,89,84082,2,0,P|144:52|141:18,1,60.0000022888184
127,163,84270,1,0,0:0:0:0:
276,302,84457,2,0,P|329:312|396:294,1,120.000004577637,8|0,0:0|0:0,0:0:0:0:
469,277,84832,5,0,0:0:0:0:
88,219,85020,1,0,0:0:0:0:
461,164,85207,1,8,0:0:0:0:
49,219,85395,1,0,0:0:0:0:
486,346,85582,1,0,0:0:0:0:
11,219,85770,1,0,0:0:0:0:
11,219,85864,1,0,0:0:0:0:
11,219,85957,1,8,0:0:0:0:
500,52,86145,1,0,0:0:0:0:
24,124,86332,6,0,L|144:88,1,120.000004577637,4|0,0:0|0:0,0:0:0:0:
244,56,86614,2,0,L|184:196,1,120.000004577637,0|0,0:0|0:0,0:0:0:0:
176,256,86895,2,0,L|318:210,1,120.000004577637,0|0,0:0|0:0,0:0:0:0:
384,208,87176,2,0,L|311:104,1,120.000004577637,0|0,0:0|0:0,0:0:0:0:
430,47,87457,2,0,P|406:187|352:228,1,180.000006866455,0|0,0:0|0:0,0:0:0:0:
336,284,87832,6,0,B|272:296|272:296|228:340,1,120.000004577637,0|0,0:0|0:0,0:0:0:0:
160,292,88114,2,0,B|181:230|181:230|165:170,1,120.000004577637,0|0,0:0|0:0,0:0:0:0:
240,132,88395,2,0,B|282:181|282:181|342:197,1,120.000004577637,0|0,0:0|0:0,0:0:0:0:
356,88,88676,2,0,P|420:120|440:176,1,120.000004577637
428,260,88957,2,0,P|376:304|308:300,1,120.000004577637
220,100,89332,5,0,0:0:0:0:
260,320,89520,1,0,0:0:0:0:
288,40,89707,1,0,0:0:0:0:
176,352,89895,1,0,0:0:0:0:
100,80,90082,1,0,0:0:0:0:
424,316,90270,1,0,0:0:0:0:
48,332,90457,1,0,0:0:0:0:
464,32,90645,1,0,0:0:0:0:
304,208,90832,5,0,0:0:0:0:
260,256,90926,5,0,0:0:0:0:
199,280,91020,5,0,0:0:0:0:
134,274,91114,5,0,0:0:0:0:
77,240,91207,5,0,0:0:0:0:
43,184,91301,5,0,0:0:0:0:
39,119,91395,5,0,0:0:0:0:
64,58,91489,5,0,0:0:0:0:
104,36,91582,6,0,L|104:68,1,30.0000011444092
140,36,91676,6,0,L|140:68,1,30.0000011444092
176,36,91770,6,0,L|176:68,1,30.0000011444092
212,36,91864,6,0,L|212:68,1,30.0000011444092
248,36,91957,6,0,L|248:68,1,30.0000011444092
284,36,92051,6,0,L|284:112,1,60.0000022888184,0|0,0:0|0:0,0:0:0:0:
352,284,92332,5,0,0:0:0:0:
192,216,92520,1,0,0:0:0:0:
400,172,92707,1,0,0:0:0:0:
138,148,92895,1,0,0:0:0:0:
428,252,93082,1,0,0:0:0:0:
104,228,93270,1,0,0:0:0:0:
487,188,93457,1,0,0:0:0:0:
53,163,93645,1,0,0:0:0:0:
506,265,93832,5,0,0:0:0:0:
23,244,94020,1,0,0:0:0:0:
288,16,94207,1,0,0:0:0:0:
364,356,94395,1,0,0:0:0:0:
256,312,94957,6,0,L|256:224,15,50,0|0|0|0|0|0|0|0|0|0|0|0|0|0|0|0,0:0|0:0|0:0|0:0|0:0|0:0|0:0|0:0|0:0|0:0|0:0|0:0|0:0|0:0|0:0|0:0,0:0:0:0:
256,224,95332,5,0,0:0:0:0:
148,132,95520,1,0,0:0:0:0:
364,132,95707,1,0,0:0:0:0:
256,356,95895,1,0,0:0:0:0:
256,56,96082,1,0,0:0:0:0:
408,284,96270,1,0,0:0:0:0:
104,284,96457,1,0,0:0:0:0:
436,64,96645,1,0,0:0:0:0:
256,356,96832,5,0,0:0:0:0:
256,356,97207,1,0,0:0:0:0:
84,76,97395,2,0,B|116:20|180:44|192:88|172:124|132:136|132:136|164:188,1,240
216,256,98145,6,0,P|292:240|304:224,1,80,0|0,0:0|0:0,0:0:0:0:
268,96,98520,1,0,0:0:0:0:
90,257,98707,1,0,0:0:0:0:
320,328,98895,1,0,0:0:0:0:
268,96,99082,1,0,0:0:0:0:
268,96,99457,2,0,B|296:64|296:64|364:52,1,80,0|0,0:0|0:0,0:0:0:0:
470,152,99832,5,0,0:0:0:0:
312,348,100020,1,0,0:0:0:0:
200,132,100207,1,0,0:0:0:0:
470,152,100395,1,0,0:0:0:0:
312,348,100582,1,0,0:0:0:0:
312,348,100957,6,0,B|240:312|240:312|208:236,1,160,0|0,0:0|0:0,0:0:0:0:
356,31,101520,1,0,0:0:0:0:
394,307,101707,1,0,0:0:0:0:
118,185,101895,1,0,0:0:0:0:
422,161,102082,1,0,0:0:0:0:
227,290,102270,1,0,0:0:0:0:
207,69,102457,1,0,0:0:0:0:
300,180,102645,5,0,0:0:0:0:
300,180,103582,6,0,L|244:180,31,50
328,180,104332,5,0,0:0:0:0:
120,324,104520,1,0,0:0:0:0:
120,324,104614,1,0,0:0:0:0:
120,324,104707,1,0,0:0:0:0:
96,64,104895,1,0,0:0:0:0:
328,180,105082,1,0,0:0:0:0:
44,176,105270,1,0,0:0:0:0:
44,176,105364,1,0,0:0:0:0:
44,176,105457,1,0,0:0:0:0:
260,296,105645,1,0,0:0:0:0:
256,63,105832,5,0,0:0:0:0:
468,176,106020,1,0,0:0:0:0:
468,176,106114,1,0,0:0:0:0:
468,176,106207,1,0,0:0:0:0:
44,176,106395,1,0,0:0:0:0:
256,27,106582,1,0,0:0:0:0:
256,63,106957,5,0,0:0:0:0:
256,95,107332,5,0,0:0:0:0:
336,292,107520,1,0,0:0:0:0:
336,292,107614,1,0,0:0:0:0:
336,292,107707,1,0,0:0:0:0:
160,56,107895,1,0,0:0:0:0:
160,344,108082,1,0,0:0:0:0:
336,92,108270,1,0,0:0:0:0:
336,92,108364,1,0,0:0:0:0:
336,92,108457,1,0,0:0:0:0:
88,188,108645,1,0,0:0:0:0:
352,368,108832,5,0,0:0:0:0:
400,40,109020,1,0,0:0:0:0:
160,344,109207,1,0,0:0:0:0:
468,228,109395,1,0,0:0:0:0:
176,28,109582,1,0,0:0:0:0:
276,193,109957,5,0,0:0:0:0:
336,280,116332,5,4,0:0:0:0:
176,104,116707,5,0,0:0:0:0:
260,310,117082,5,0,0:0:0:0:
251,73,117457,5,0,0:0:0:0:
183,286,117832,5,0,0:0:0:0:
328,97,118207,5,0,0:0:0:0:
139,215,118582,5,0,0:0:0:0:
372,166,118770,1,0,0:0:0:0:
100,145,118957,1,0,0:0:0:0:
435,218,119145,1,0,0:0:0:0:
61,212,119332,5,0,0:0:0:0:
444,133,119520,1,0,0:0:0:0:
21,147,119707,1,0,0:0:0:0:
500,260,119895,1,0,0:0:0:0:
17,277,120082,1,0,0:0:0:0:
512,97,120270,1,0,0:0:0:0:
12,29,120457,1,0,0:0:0:0:
496,352,120645,6,0,L|16:352,1,480,4|0,0:0|0:0,0:0:0:0:
256,200,121957,6,0,L|256:96,1,90.0000034332277
256,25,122332,5,4,0:0:0:0:
87,259,122520,1,0,0:0:0:0:
410,267,122707,1,8,0:0:0:0:
72,73,122895,1,0,0:0:0:0:
253,361,123082,1,0,0:0:0:0:
404,70,123270,1,0,0:0:0:0:
404,70,123645,1,0,0:0:0:0:
253,361,123832,5,0,0:0:0:0:
72,73,124020,1,0,0:0:0:0:
451,281,124207,1,8,0:0:0:0:
60,281,124395,1,0,0:0:0:0:
256,25,124582,1,0,0:0:0:0:
253,361,124770,1,0,0:0:0:0:
72,73,124957,1,8,0:0:0:0:
192,204,125145,1,0,0:0:0:0:
192,204,125239,1,0,0:0:0:0:
192,204,125332,6,0,P|248:144|256:52,1,160,0|0,0:0|0:0,0:0:0:0:
72,73,125707,1,8,0:0:0:0:
130,280,125895,1,0,0:0:0:0:
376,208,126082,2,0,P|356:285|304:344,1,160,0|0,0:0|0:0,0:0:0:0:
130,280,126457,1,8,0:0:0:0:
280,104,126645,1,0,0:0:0:0:
280,104,127020,5,0,0:0:0:0:
303,344,127207,2,0,B|230:313|230:313|164:253,1,160,8|0,0:0|0:0,0:0:0:0:
140,52,127582,2,0,B|232:28|280:104|280:104|376:64|436:160,1,320,0|8,0:0|0:0,0:0:0:0:
303,344,128145,1,0,0:0:0:0:
303,344,128239,1,0,0:0:0:0:
303,344,128332,5,0,0:0:0:0:
104,128,128520,1,0,0:0:0:0:
336,188,128707,1,8,0:0:0:0:
104,128,128895,1,0,0:0:0:0:
104,128,129270,2,0,P|26:116|92:139,1,240.000009155274,0|0,0:0|0:0,0:0:0:0:
336,140,129832,5,0,0:0:0:0:
112,304,130020,1,0,0:0:0:0:
336,140,130207,1,8,0:0:0:0:
68,145,130395,1,0,0:0:0:0:
68,145,130770,2,0,P|48:60|104:128,1,240.000009155274,0|0,0:0|0:0,0:0:0:0:
244,356,131332,5,0,0:0:0:0:
360,160,131520,1,0,0:0:0:0:
360,160,131614,1,0,0:0:0:0:
360,160,131707,1,8,0:0:0:0:
132,292,131895,1,0,0:0:0:0:
256,72,132082,2,0,L|268:161,1,60.0000022888184,0|0,0:0|0:0,0:0:0:0:
280,208,132270,1,0,0:0:0:0:
440,344,132457,2,0,L|444:180,1,120.000004577637,8|0,0:0|0:0,0:0:0:0:
256,72,132832,5,0,0:0:0:0:
256,344,133020,1,0,0:0:0:0:
108,159,133207,1,8,0:0:0:0:
404,159,133395,1,0,0:0:0:0:
80,328,133582,1,0,0:0:0:0:
259,21,133770,1,0,0:0:0:0:
259,21,133864,1,0,0:0:0:0:
259,21,133957,1,8,0:0:0:0:
432,328,134145,1,0,0:0:0:0:
256,344,134332,5,4,0:0:0:0:
108,159,134520,1,0,0:0:0:0:
404,159,134707,1,8,0:0:0:0:
256,344,134895,1,0,0:0:0:0:
256,192,135270,5,0,0:0:0:0:
256,344,135645,5,0,0:0:0:0:
256,80,135832,5,0,0:0:0:0:
160,344,136020,1,0,0:0:0:0:
256,80,136207,1,8,0:0:0:0:
160,344,136395,1,0,0:0:0:0:
328,352,136582,1,0,0:0:0:0:
72,212,136770,1,0,0:0:0:0:
328,352,136957,1,8,0:0:0:0:
72,212,137145,1,0,0:0:0:0:
345,109,137332,5,0,0:0:0:0:
256,276,137520,1,0,0:0:0:0:
159,109,137707,1,8,0:0:0:0:
408,300,137895,1,0,0:0:0:0:
80,296,138270,5,0,0:0:0:0:
256,40,138645,5,0,0:0:0:0:
320,168,138832,5,0,0:0:0:0:
256,40,139020,1,0,0:0:0:0:
204,256,139207,1,8,0:0:0:0:
256,40,139395,1,0,0:0:0:0:
368,300,139582,1,0,0:0:0:0:
128,72,139770,1,0,0:0:0:0:
368,300,139957,1,8,0:0:0:0:
128,72,140145,1,0,0:0:0:0:
328,60,140332,5,0,0:0:0:0:
244,320,140520,1,0,0:0:0:0:
328,60,140707,1,8,0:0:0:0:
244,320,140895,2,0,L|120:344,1,120.000004577637,0|0,0:0|0:0,0:0:0:0:
244,320,141270,2,0,B|120:344|120:344|4:320,1,240.000009155274,0|0,0:0|0:0,0:0:0:0:
16,108,141832,5,0,0:0:0:0:
128,344,142020,1,0,0:0:0:0:
312,124,142207,1,8,0:0:0:0:
184,240,142395,2,0,P|144:188|128:128,1,120.000004577637,0|0,0:0|0:0,0:0:0:0:
184,240,142770,2,0,P|128:112|164:16,1,240.000009155274,0|0,0:0|0:0,0:0:0:0:
400,108,143332,5,0,0:0:0:0:
260,212,143520,1,0,0:0:0:0:
260,212,143614,1,0,0:0:0:0:
260,212,143707,1,8,0:0:0:0:
258,14,143895,1,0,0:0:0:0:
452,288,144082,2,0,L|447:379,1,60.0000022888184,0|0,0:0|0:0,0:0:0:0:
458,212,144270,1,0,0:0:0:0:
260,212,144457,2,0,P|249:153|251:93,1,120.000004577637,8|0,0:0|0:0,0:0:0:0:
258,14,144832,5,0,0:0:0:0:
462,302,145020,1,0,0:0:0:0:
49,302,145207,1,8,0:0:0:0:
258,14,145395,1,0,0:0:0:0:
255,370,145582,1,0,0:0:0:0:
36,32,145770,1,0,0:0:0:0:
36,32,145864,1,0,0:0:0:0:
36,32,145957,1,8,0:0:0:0:
475,32,146145,1,0,0:0:0:0:
252,142,146332,6,0,B|246:154|246:154|256:160|256:160|246:166|246:166|256:172|256:172|246:178|246:178|256:184|256:184|246:190|246:190|256:196|256:196|246:202|246:202|256:208|256:208|246:214|246:214|256:219|256:219|246:226|246:226|256:232|256:232|246:237|246:237|254:259,1,200,4|0,0:0|0:0,0:0:0:0:
257,339,147457,1,0,0:0:0:0:
440,76,147832,6,0,L|472:40,1,40,0|0,0:0|0:0,0:0:0:0:
72,308,148395,2,0,L|40:344,1,40,0|0,0:0|0:0,0:0:0:0:
363,48,148957,2,0,L|377:11,1,40,0|0,0:0|0:0,0:0:0:0:
148,335,149520,6,0,L|134:372,1,40,0|0,0:0|0:0,0:0:0:0:
192,144,150082,2,0,L|352:232,1,160,0|0,0:0|0:0,0:0:0:0:
152,224,150832,6,0,L|44:248,1,80,0|0,0:0|0:0,0:0:0:0:
360,159,151395,2,0,L|468:136,1,80,0|0,0:0|0:0,0:0:0:0:
196,284,151957,2,0,L|130:361,1,80,0|0,0:0|0:0,0:0:0:0:
316,100,152520,6,0,L|382:23,1,80,0|0,0:0|0:0,0:0:0:0:
256,192,153082,6,0,L|256:232,28,30.0000011444092,0|0|0|0|0|0|0|0|0|0|0|0|0|0|0|0|0|0|0|0|0|0|0|0|0|0|0|0|0,0:0|0:0|0:0|0:0|0:0|0:0|0:0|0:0|0:0|0:0|0:0|0:0|0:0|0:0|0:0|0:0|0:0|0:0|0:0|0:0|0:0|0:0|0:0|0:0|0:0|0:0|0:0|0:0|0:0,0:0:0:0:
256,160,153832,6,0,B|192:132|132:160|132:160|72:188|16:160,1,240.000009155274,0|0,0:0|0:0,0:0:0:0:
40,144,154395,2,0,P|119:139|52:225,1,240.000009155274,0|0,0:0|0:0,0:0:0:0:
40,216,154957,6,0,B|0:248|0:248|192:284,1,240.000009155274,0|0,0:0|0:0,0:0:0:0:
116,296,155520,2,0,P|140:228|256:296,1,240.000009155274,0|0,0:0|0:0,0:0:0:0:
324,252,156082,2,0,P|160:144|44:284,1,408.000007781983,0|0,0:0|0:0,0:0:0:0:
64,292,156832,6,0,B|160:292|160:292|216:292|216:196|124:196|124:292,1,272.000005187988,0|0,0:0|0:0,0:0:0:0:
256,312,157395,2,0,B|352:280|396:216|304:164|212:216|256:280|352:312,1,320,0|0,0:0|0:0,0:0:0:0:
464,336,157957,6,0,B|516:260|464:192|464:192|416:124|464:48,1,287.999991210938,0|0,0:0|0:0,0:0:0:0:
352,44,158520,2,0,B|280:108|212:48|212:48|128:116|52:28,1,320
256,192,159082,2,0,L|256:216,32,20,0|0|0|0|0|0|0|0|0|0|0|0|0|0|0|0|0|0|0|0|0|0|0|0|0|0|0|0|0|0|0|0|0,0:0|0:0|0:0|0:0|0:0|0:0|0:0|0:0|0:0|0:0|0:0|0:0|0:0|0:0|0:0|0:0|0:0|0:0|0:0|0:0|0:0|0:0|0:0|0:0|0:0|0:0|0:0|0:0|0:0|0:0|0:0|0:0|0:0,0:0:0:0:
140,228,162082,6,0,L|328:112,1,160,8|8,0:0|0:0,0:0:0:0:
264,152,162457,6,0,P|219:198|292:149,1,320,0|4,0:0|0:0,0:0:0:0:
172,308,163395,5,4,0:0:0:0:
104,232,163957,5,4,0:0:0:0:
88,136,164520,5,0,0:0:0:0:
100,36,165082,5,4,0:0:0:0:
100,36,165176,1,0,0:0:0:0:
100,36,165270,2,0,L|96:120,1,80
256,340,165457,1,0,0:0:0:0:
480,44,165645,1,0,0:0:0:0:
256,312,166957,6,0,L|256:220,1,90.0000034332277,0|0,0:0|0:0,0:0:0:0:
252,132,167332,5,4,0:0:0:0:
160,268,167520,1,0,0:0:0:0:
336,276,167707,1,8,0:0:0:0:
128,140,167895,1,0,0:0:0:0:
248,368,168082,1,0,0:0:0:0:
402,150,168270,1,0,0:0:0:0:
402,150,168645,1,0,0:0:0:0:
116,240,168832,5,0,0:0:0:0:
349,217,169020,1,0,0:0:0:0:
156,156,169207,1,8,0:0:0:0:
450,220,169395,1,0,0:0:0:0:
69,162,169582,1,0,0:0:0:0:
488,144,169770,1,0,0:0:0:0:
32,244,169957,1,8,0:0:0:0:
228,120,170145,1,0,0:0:0:0:
228,120,170239,1,0,0:0:0:0:
228,120,170333,6,0,B|272:88|272:88|324:136|400:92,2,160,0|0|8,0:0|0:0|0:0,0:0:0:0:
336,28,170895,1,0,0:0:0:0:
188,280,171082,2,0,B|144:308|109:294|109:294|85:263|107:213,1,160,0|0,0:0|0:0,0:0:0:0:
369,107,171457,1,8,0:0:0:0:
52,148,171645,1,0,0:0:0:0:
52,148,172020,5,0,0:0:0:0:
240,352,172207,1,8,0:0:0:0:
328,96,172395,1,0,0:0:0:0:
328,96,172489,1,0,0:0:0:0:
328,96,172582,2,0,P|248:40|296:156,1,320,0|8,0:0|0:0,0:0:0:0:
464,144,173145,1,0,0:0:0:0:
220,232,173332,6,0,P|168:200|132:148,1,120.000004577637,0|0,0:0|0:0,0:0:0:0:
417,37,173707,1,8,0:0:0:0:
134,152,173895,1,0,0:0:0:0:
134,152,174270,2,0,P|62:128|132:168,1,240.000009155274,0|0,0:0|0:0,0:0:0:0:
392,192,174832,5,0,0:0:0:0:
108,287,175020,1,0,0:0:0:0:
460,256,175207,1,8,0:0:0:0:
131,169,175395,1,0,0:0:0:0:
131,169,175770,2,0,P|52:149|134:152,1,240.000009155274,0|0,0:0|0:0,0:0:0:0:
244,356,176332,5,0,0:0:0:0:
360,160,176520,1,0,0:0:0:0:
360,160,176614,1,0,0:0:0:0:
360,160,176707,1,8,0:0:0:0:
132,292,176895,1,0,0:0:0:0:
240,104,177082,2,0,L|252:193,1,60.0000022888184,0|0,0:0|0:0,0:0:0:0:
264,240,177270,1,0,0:0:0:0:
440,344,177457,2,0,L|444:180,1,120.000004577637,8|0,0:0|0:0,0:0:0:0:
106,54,177832,5,0,0:0:0:0:
144,168,178020,1,0,0:0:0:0:
406,54,178207,1,8,0:0:0:0:
368,168,178395,1,0,0:0:0:0:
440,344,178582,1,0,0:0:0:0:
256,24,178770,1,0,0:0:0:0:
256,24,178864,1,0,0:0:0:0:
256,24,178957,1,8,0:0:0:0:
72,344,179145,1,0,0:0:0:0:
256,24,179332,5,4,0:0:0:0:
136,256,179520,1,0,0:0:0:0:
376,256,179707,1,8,0:0:0:0:
112,56,179895,1,0,0:0:0:0:
200,356,180270,5,0,0:0:0:0:
200,356,180645,5,0,0:0:0:0:
396,288,180832,5,0,0:0:0:0:
336,232,181020,1,0,0:0:0:0:
416,96,181207,1,8,0:0:0:0:
336,104,181395,1,0,0:0:0:0:
136,308,181582,1,0,0:0:0:0:
336,104,181770,1,0,0:0:0:0:
136,308,181957,1,8,0:0:0:0:
156,104,182145,1,0,0:0:0:0:
272,152,182332,5,0,0:0:0:0:
176,232,182520,1,0,0:0:0:0:
364,288,182707,1,8,0:0:0:0:
260,44,182895,1,0,0:0:0:0:
68,256,183270,5,0,0:0:0:0:
204,104,183645,5,0,0:0:0:0:
408,120,183832,5,0,0:0:0:0:
288,276,184020,1,0,0:0:0:0:
140,24,184207,1,8,0:0:0:0:
488,64,184395,1,0,0:0:0:0:
284,372,184582,1,0,0:0:0:0:
364,144,184770,5,0,0:0:0:0:
304,112,184864,5,0,0:0:0:0:
236,100,184957,5,8,0:0:0:0:
168,108,185051,5,0,0:0:0:0:
104,128,185145,5,0,0:0:0:0:
44,164,185239,5,0,0:0:0:0:
0,216,185332,6,0,L|44:348,1,120.000004577637,0|0,0:0|0:0,0:0:0:0:
312,188,185707,1,8,0:0:0:0:
112,204,185895,2,0,L|152:320,1,120.000004577637,0|0,0:0|0:0,0:0:0:0:
112,204,186270,2,0,B|152:320|152:320|268:364,1,240.000009155274,0|0,0:0|0:0,0:0:0:0:
464,180,186832,5,0,0:0:0:0:
216,260,187020,1,0,0:0:0:0:
464,180,187207,1,8,0:0:0:0:
292,104,187395,2,0,P|280:164|292:236,1,120.000004577637,0|0,0:0|0:0,0:0:0:0:
292,104,187770,2,0,P|284:204|376:336,1,240.000009155274,0|0,0:0|0:0,0:0:0:0:
464,180,188332,5,0,0:0:0:0:
192,56,188520,1,0,0:0:0:0:
192,56,188614,1,0,0:0:0:0:
192,56,188707,1,8,0:0:0:0:
208,340,188895,1,0,0:0:0:0:
464,180,189082,2,0,L|472:260,1,60.0000022888184,0|0,0:0|0:0,0:0:0:0:
456,102,189270,1,0,0:0:0:0:
278,226,189457,2,0,P|339:237|411:218,1,120.000004577637,8|0,0:0|0:0,0:0:0:0:
464,180,189832,5,0,0:0:0:0:
60,168,190020,1,0,0:0:0:0:
456,44,190207,1,8,0:0:0:0:
56,340,190395,1,0,0:0:0:0:
512,353,190582,1,0,0:0:0:0:
0,31,190770,1,0,0:0:0:0:
0,31,190864,1,0,0:0:0:0:
0,31,190957,1,8,0:0:0:0:
512,353,191145,1,0,0:0:0:0:
256,192,191332,6,0,L|256:292,1,96,4|0,0:0|0:0,0:0:0:0:
332,288,192551,5,0,0:0:0:0:
384,232,192645,5,0,0:0:0:0:
364,160,192739,5,0,0:0:0:0:
292,132,192832,6,0,L|104:132,1,160,4|0,0:0|0:0,0:0:0:0:
216,348,193395,2,0,L|404:347,1,160,0|0,0:0|0:0,0:0:0:0:
424,208,193957,6,0,B|452:128|452:128|424:56,1,160,0|0,0:0|0:0,0:0:0:0:
88,176,194520,2,0,B|60:256|60:256|88:328,1,160,0|0,0:0|0:0,0:0:0:0:
304,256,195082,6,0,L|336:256,1,32
