osu file format v14

[General]
AudioFilename: audio.mp3
AudioLeadIn: 0
PreviewTime: 61676
Countdown: 0
SampleSet: Normal
StackLeniency: 0.4
Mode: 0
LetterboxInBreaks: 0
WidescreenStoryboard: 1

[Editor]
DistanceSpacing: 0.6
BeatDivisor: 4
GridSize: 4
TimelineZoom: 1.2

[Metadata]
Title:BeBe
TitleUnicode:BeBe
Artist:WJSN (Cosmic Girls)
ArtistUnicode:WJSN (우주소녀)
Creator:Sidetail
Version:Sexy Nuolong Time
Source:
Tags:kpop 보나 성소 다영 선의 은서 여름 설아 엑시 수빈 루다 다원 미기 연정 Bona ChengXiao Dayoung XuanYi Eunseo Yeoreum SeolA Exy Soobin Luda Dawon MeiQi Yeonjung Wonder Joy Sweet Natural Unit The Secret nuolong [_m_i_n_a_k_o_] minako betastar
BeatmapID:1336662
BeatmapSetID:539135

[Difficulty]
HPDrainRate:6
CircleSize:4
OverallDifficulty:7.5
ApproachRate:9.2
SliderMultiplier:1.6
SliderTickRate:1

[Events]
//Background and Video events
0,0,"nuolong.jpg",0,0
//Break Periods
//Storyboard Layer 0 (Background)
//Storyboard Layer 1 (Fail)
//Storyboard Layer 2 (Pass)
//Storyboard Layer 3 (Foreground)
//Storyboard Sound Samples

[TimingPoints]
-667,374.999999999999,4,1,1,75,1,0
832,-100,4,1,1,75,0,0
6082,-133.333333333333,4,1,1,75,0,0
6832,-100,4,1,1,75,0,0
12832,-66.6666666666667,4,1,1,75,0,0
30457,-100,4,1,1,75,0,0
30832,-66.6666666666667,4,1,1,75,0,0
61957,-133.333333333333,4,1,1,75,0,0
62332,-50,4,1,1,75,0,1
68332,-66.6666666666667,4,1,1,75,0,1
72832,-100,4,1,1,75,0,0
74332,-66.6666666666667,4,1,1,75,0,1
86332,-50,4,1,1,75,0,0
87457,-133.333333333333,4,1,1,75,0,0
87832,-50,4,1,1,75,0,0
88957,-133.333333333333,4,1,1,75,0,0
89332,-50,4,1,1,75,0,0
89426,-50,4,1,1,5,0,0
89520,-50,4,1,1,75,0,0
89614,-50,4,1,1,5,0,0
89707,-50,4,1,1,75,0,0
89801,-50,4,1,1,5,0,0
89895,-50,4,1,1,75,0,0
89989,-50,4,1,1,5,0,0
90082,-50,4,1,1,75,0,0
90176,-50,4,1,1,5,0,0
90270,-50,4,1,1,75,0,0
90364,-50,4,1,1,5,0,0
90457,-50,4,1,1,75,0,0
90551,-50,4,1,1,5,0,0
90645,-50,4,1,1,75,0,0
90739,-50,4,1,1,5,0,0
90832,-100,4,1,1,75,0,0
103582,-66.6666666666667,4,1,1,75,0,0
121957,-133.333333333333,4,1,1,75,0,0
122332,-50,4,1,1,75,0,1
128332,-66.6666666666667,4,1,1,75,0,1
132832,-100,4,1,1,75,0,0
134332,-66.6666666666667,4,1,1,75,0,1
146332,-100,4,1,1,75,0,0
147457,-133.333333333333,4,1,1,75,0,0
147832,-66.6666666666667,4,1,1,75,0,0
159832,-100,4,1,1,75,0,0
162457,-133.333333333333,4,1,1,75,0,0
162832,-100,4,1,1,75,0,0
163395,-80,4,1,1,75,0,0
163957,-66.6666666666667,4,1,1,75,0,0
164520,-66.6666666666667,4,1,1,75,0,0
166957,-133.333333333333,4,1,1,75,0,0
167332,-50,4,1,1,75,0,1
173332,-66.6666666666667,4,1,1,75,0,1
177832,-100,4,1,1,75,0,0
179332,-66.6666666666667,4,1,1,75,0,1
191332,-100,4,1,1,75,0,0
195832,-100,4,1,1,5,0,0

[Colours]
Combo1 : 128,128,192
Combo2 : 0,128,0
Combo3 : 0,128,192
Combo4 : 176,11,35
Combo5 : 255,128,0
Combo6 : 128,0,128

[HitObjects]
92,80,457,6,0,L|88:124,1,40
188,248,645,2,0,L|184:208,1,40
67,328,832,6,0,L|236:343,1,160
184,208,1395,1,0,0:0:0:0:
63,249,1582,2,0,P|58:291|71:336,1,80
258,157,1957,6,0,P|209:123|112:153,1,160
145,285,2520,1,0,0:0:0:0:
257,185,2707,1,0,0:0:0:0:
165,304,2895,1,0,0:0:0:0:
41,211,3082,6,0,L|25:128,1,80
256,184,3457,2,0,L|272:263,1,80
221,35,3832,6,0,L|390:20,1,160
338,155,4395,1,0,0:0:0:0:
217,114,4582,2,0,P|212:72|225:27,1,80
412,206,4957,6,0,P|363:240|266:210,1,160
411,97,5520,1,0,0:0:0:0:
481,269,5707,1,0,0:0:0:0:
476,41,5895,1,0,0:0:0:0:
337,157,6082,6,0,B|288:191|237:161|237:161|187:133|137:173,1,210.000008010865
121,328,6832,6,0,L|290:343,1,160
238,208,7395,1,0,0:0:0:0:
117,249,7582,2,0,P|112:291|125:336,1,80
312,157,7957,6,0,P|263:123|166:153,1,160
311,266,8520,1,0,0:0:0:0:
381,94,8707,1,0,0:0:0:0:
376,322,8895,5,0,0:0:0:0:
237,205,9082,1,0,0:0:0:0:
463,232,9270,1,0,0:0:0:0:
222,291,9457,5,0,0:0:0:0:
497,223,9645,1,0,0:0:0:0:
214,323,9832,6,0,P|136:313|48:302,1,160
184,153,10395,2,0,P|204:110|159:14,1,160
118,217,10957,6,0,P|181:242|269:197,1,160
339,49,11520,2,0,L|370:219,1,160
398,345,12082,5,0,0:0:0:0:
367,206,12270,1,0,0:0:0:0:
427,352,12457,5,0,0:0:0:0:
447,145,12645,1,0,0:0:0:0:
351,112,12832,6,0,P|293:127|219:100,1,120.000004577637
144,65,13114,1,0,0:0:0:0:
144,65,13207,2,0,P|156:127|131:191,1,120.000004577637
30,278,13582,1,0,0:0:0:0:
25,60,13770,1,0,0:0:0:0:
161,207,13957,2,0,P|230:224|279:205,1,120.000004577637
368,100,14332,6,0,B|398:278|398:278|416:220,1,240.000009155274
417,25,14895,1,0,0:0:0:0:
417,25,14989,1,0,0:0:0:0:
417,25,15082,2,0,P|345:13|301:38,1,120.000004577637
286,217,15457,1,0,0:0:0:0:
479,108,15645,1,0,0:0:0:0:
254,202,15832,6,0,P|238:259|257:316,1,120.000004577637
165,261,16114,1,0,0:0:0:0:
165,261,16207,2,0,P|109:244|49:262,1,120.000004577637
165,360,16582,1,0,0:0:0:0:
77,133,16770,1,0,0:0:0:0:
53,343,16957,1,0,0:0:0:0:
51,119,17145,1,0,0:0:0:0:
165,261,17332,6,0,P|221:278|281:260,1,120.000004577637
339,92,17707,2,0,P|283:75|223:93,1,120.000004577637
339,180,17989,1,0,0:0:0:0:
339,180,18082,2,0,B|414:172|433:109|417:67|417:67|431:122|485:129,1,240.000009155274
339,92,18645,1,0,0:0:0:0:
272,241,18832,6,0,P|249:181|272:123,1,120.000004577637
358,261,19207,2,0,P|318:318|264:330,1,120.000004577637
339,180,19582,2,0,B|492:180|492:180|470:206,1,180.000006866455
272,241,19957,2,0,P|249:181|272:123,1,120.000004577637
446,99,20332,5,0,0:0:0:0:
358,261,20520,1,0,0:0:0:0:
256,109,20707,2,0,P|191:89|135:117,1,120.000004577637
358,261,21082,2,0,B|428:304|486:264|486:264|455:312,1,180.000006866455
412,185,21457,2,0,P|356:168|288:192,1,120.000004577637
301,354,21832,5,0,0:0:0:0:
462,300,22020,1,0,0:0:0:0:
298,184,22207,2,0,P|281:110|299:61,1,120.000004577637
460,77,22582,1,0,0:0:0:0:
352,252,22770,1,0,0:0:0:0:
434,40,22957,1,0,0:0:0:0:
462,300,23145,1,0,0:0:0:0:
462,300,23239,1,0,0:0:0:0:
462,300,23332,5,0,0:0:0:0:
249,198,23520,1,0,0:0:0:0:
439,199,23707,1,0,0:0:0:0:
194,273,23895,1,0,0:0:0:0:
291,113,24082,1,0,0:0:0:0:
252,346,24270,1,0,0:0:0:0:
207,63,24457,1,0,0:0:0:0:
283,346,24645,1,0,0:0:0:0:
127,110,24832,6,0,P|70:114|141:210,1,240.000009155274
212,164,25395,1,0,0:0:0:0:
130,314,25582,1,0,0:0:0:0:
127,110,25770,1,0,0:0:0:0:
300,206,25957,1,0,0:0:0:0:
103,303,26145,6,0,B|161:254|221:298|221:298|283:340|341:293,1,240.000009155274
325,294,26614,1,0,0:0:0:0:
325,284,26707,1,0,0:0:0:0:
163,367,26895,1,0,0:0:0:0:
324,304,27082,2,0,L|316:176,1,120.000004577637
183,97,27457,2,0,L|175:225,1,120.000004577637
411,222,27832,6,0,B|401:79|401:79|404:141|457:165,1,240.000009155274
503,68,28395,1,0,0:0:0:0:
468,282,28582,2,0,P|400:303|350:275,1,120.000004577637
175,216,28957,2,0,P|243:195|293:223,1,120.000004577637
287,359,29332,5,0,0:0:0:0:
104,272,29520,1,0,0:0:0:0:
104,272,29614,1,0,0:0:0:0:
104,272,29707,2,0,P|88:199|116:153,1,120.000004577637
159,333,30082,2,0,P|93:354|39:327,1,120.000004577637
284,214,30457,6,0,P|350:193|404:220,1,120.000004577637
249,297,30832,5,0,0:0:0:0:
237,119,31020,1,0,0:0:0:0:
237,119,31114,1,0,0:0:0:0:
237,119,31207,2,0,L|359:101,1,120.000004577637
249,297,31582,2,0,L|127:279,1,120.000004577637
242,89,31957,2,0,L|364:71,1,120.000004577637
441,171,32332,5,0,0:0:0:0:
346,187,32520,1,0,0:0:0:0:
448,272,32707,5,0,0:0:0:0:
421,73,32895,1,0,0:0:0:0:
302,296,33082,5,0,0:0:0:0:
448,272,33270,1,0,0:0:0:0:
327,85,33457,5,0,0:0:0:0:
381,356,33645,1,0,0:0:0:0:
345,184,33832,6,0,P|283:167|220:189,1,120.000004577637
205,208,34114,1,0,0:0:0:0:
174,231,34207,2,0,P|119:250|55:227,1,120.000004577637
286,261,34582,2,0,P|302:327|283:381,1,120.000004577637
174,231,34957,1,0,0:0:0:0:
174,231,35145,6,0,P|158:165|177:111,1,120.000004577637
273,79,35520,1,0,0:0:0:0:
74,138,35707,1,0,0:0:0:0:
74,138,35895,1,0,0:0:0:0:
262,173,36082,2,0,B|321:212|378:177|378:177|438:147|489:185,1,240.000009155274
431,254,36645,1,0,0:0:0:0:
262,173,36832,6,0,P|246:109|266:52,1,120.000004577637
350,58,37207,1,0,0:0:0:0:
161,58,37395,1,0,0:0:0:0:
380,58,37582,6,0,L|389:125,1,60.0000022888184
418,318,37957,6,0,B|346:299|265:317|265:317|318:307|339:259,1,240.000009155274
394,164,38520,1,0,0:0:0:0:
254,219,38707,1,0,0:0:0:0:
432,188,38895,1,0,0:0:0:0:
171,285,39082,6,0,L|162:218,1,60.0000022888184
132,36,39457,2,0,B|178:12|221:32|221:32|264:56|314:28,1,180.000006866455
387,1,39832,5,0,0:0:0:0:
346,184,40020,1,0,0:0:0:0:
467,29,40207,1,0,0:0:0:0:
259,133,40395,1,0,0:0:0:0:
259,133,40489,1,0,0:0:0:0:
259,133,40582,1,0,0:0:0:0:
460,168,40770,1,0,0:0:0:0:
260,223,40957,1,0,0:0:0:0:
495,157,41145,1,0,0:0:0:0:
258,308,41332,5,0,0:0:0:0:
265,51,41520,1,0,0:0:0:0:
336,280,41707,1,0,0:0:0:0:
135,230,41895,1,0,0:0:0:0:
135,230,41989,1,0,0:0:0:0:
135,230,42082,1,0,0:0:0:0:
369,290,42270,1,0,0:0:0:0:
215,251,42457,1,0,0:0:0:0:
457,311,42645,1,0,0:0:0:0:
378,176,42832,5,0,0:0:0:0:
372,140,42926,1,0,0:0:0:0:
374,104,43020,1,0,0:0:0:0:
385,69,43113,1,0,0:0:0:0:
404,37,43207,2,0,P|342:52|270:22,1,120.000004577637
90,118,43582,2,0,P|152:103|224:133,1,120.000004577637
231,147,43864,1,0,0:0:0:0:
263,173,43957,2,0,P|329:189|395:165,1,120.000004577637
289,36,44332,5,0,0:0:0:0:
239,270,44520,1,0,0:0:0:0:
239,270,44614,1,0,0:0:0:0:
239,270,44707,2,0,L|101:281,1,120.000004577637
197,355,44989,1,0,0:0:0:0:
197,355,45082,2,0,L|331:360,1,120.000004577637
393,277,45364,1,0,0:0:0:0:
393,277,45457,2,0,L|332:277,1,60.0000022888184
426,354,45645,2,0,L|492:351,1,60.0000022888184
445,192,45832,6,0,L|295:191,1,120.000004577637
226,190,46114,1,0,0:0:0:0:
226,190,46207,2,0,P|209:128|239:62,1,120.000004577637
135,112,46489,1,0,0:0:0:0:
135,112,46582,2,0,P|75:127|17:110,1,120.000004577637
150,17,46957,1,0,0:0:0:0:
121,221,47145,1,0,0:0:0:0:
121,221,47239,1,0,0:0:0:0:
121,221,47332,5,0,0:0:0:0:
99,11,47520,1,0,0:0:0:0:
147,246,47707,1,0,0:0:0:0:
210,67,47895,1,0,0:0:0:0:
20,111,48082,6,0,L|27:184,1,60.0000022888184
147,246,48270,2,0,L|140:173,1,60.0000022888184
40,150,48457,6,0,L|46:216,1,60.0000022888184
171,278,48645,2,0,L|165:212,1,60.0000022888184
151,93,48832,6,0,P|210:111|266:93,1,120.000004577637
325,36,49207,1,0,0:0:0:0:
290,219,49395,1,0,0:0:0:0:
392,94,49582,2,0,P|455:78|511:99,1,120.000004577637
476,247,49957,1,0,0:0:0:0:
335,158,50145,6,0,P|306:97|327:40,1,120.000004577637
335,158,50520,2,0,P|267:149|225:108,1,120.000004577637
335,158,50895,2,0,B|301:217|234:190|234:190|165:162|114:213,1,240.000009155274
105,301,51457,1,0,0:0:0:0:
60,117,51645,1,0,0:0:0:0:
94,329,51832,6,0,P|160:351|213:325,1,120.000004577637
341,155,52207,2,0,P|295:129|353:224,1,360.000013732911
340,55,52957,1,0,0:0:0:0:
466,184,53145,6,0,L|472:47,1,120.000004577637
337,38,53520,1,0,0:0:0:0:
378,242,53707,1,0,0:0:0:0:
415,7,53895,1,0,0:0:0:0:
236,55,54082,2,0,P|217:114|255:188,1,120.000004577637
378,242,54457,2,0,P|397:183|359:109,1,120.000004577637
235,167,54832,5,0,0:0:0:0:
378,242,55020,1,0,0:0:0:0:
167,235,55207,5,0,0:0:0:0:
381,129,55395,1,0,0:0:0:0:
235,298,55582,5,0,0:0:0:0:
237,76,55770,1,0,0:0:0:0:
149,320,55957,5,0,0:0:0:0:
378,242,56145,1,0,0:0:0:0:
167,235,56332,5,0,0:0:0:0:
462,247,56520,1,0,0:0:0:0:
232,301,56707,5,0,0:0:0:0:
326,44,56895,1,0,0:0:0:0:
308,360,57082,5,0,0:0:0:0:
102,175,57270,1,0,0:0:0:0:
426,171,57457,5,0,0:0:0:0:
151,317,57645,1,0,0:0:0:0:
151,317,57739,1,0,0:0:0:0:
151,317,57832,6,0,L|144:252,1,60.0000022888184
372,257,58020,2,0,L|365:316,1,60.0000022888184
101,174,58207,2,0,L|108:115,1,60.0000022888184
419,111,58395,2,0,L|425:170,1,60.0000022888184
199,168,58582,2,0,L|192:108,1,60.0000022888184
457,261,58770,2,0,L|451:321,1,60.0000022888184
61,321,58957,2,0,L|54:261,1,60.0000022888184
38,113,59145,1,0,0:0:0:0:
256,191,61957,6,0,P|215:205|159:180,1,90.0000034332277
301,116,62332,6,0,P|348:187|319:263,1,160
214,111,62707,2,0,P|265:37|338:45,1,160
408,79,63082,1,0,0:0:0:0:
71,142,63270,1,0,0:0:0:0:
129,310,63457,1,0,0:0:0:0:
118,61,63645,6,0,P|196:30|272:71,1,160
71,142,64020,1,0,0:0:0:0:
71,142,64114,1,0,0:0:0:0:
71,142,64207,2,0,P|26:60|51:-1,1,160
262,58,64582,1,0,0:0:0:0:
219,353,64770,1,0,0:0:0:0:
253,99,64957,1,0,0:0:0:0:
295,309,65145,1,0,0:0:0:0:
101,322,65332,6,0,P|69:249|105:167,1,160
362,252,65707,1,0,0:0:0:0:
218,352,65895,1,0,0:0:0:0:
218,352,65989,1,0,0:0:0:0:
218,352,66082,5,0,0:0:0:0:
198,182,66270,1,0,0:0:0:0:
396,192,66457,2,0,P|419:283|383:348,1,160
200,225,66832,5,0,0:0:0:0:
385,171,67020,1,0,0:0:0:0:
241,41,67207,2,0,P|169:17|85:43,1,160
209,239,67582,2,0,P|281:263|365:237,1,160
156,151,67957,1,0,0:0:0:0:
124,181,68050,1,0,0:0:0:0:
107,221,68144,1,0,0:0:0:0:
108,265,68238,1,0,0:0:0:0:
127,304,68332,6,0,P|71:288|6:313,1,120.000004577637
209,239,68707,1,0,0:0:0:0:
111,83,68895,1,0,0:0:0:0:
108,265,69082,1,0,0:0:0:0:
288,166,69270,2,0,P|305:102|286:35,1,120.000004577637
209,239,69645,1,0,0:0:0:0:
209,239,69739,1,0,0:0:0:0:
209,239,69832,5,0,0:0:0:0:
410,171,70020,1,0,0:0:0:0:
206,98,70207,1,0,0:0:0:0:
208,321,70395,1,0,0:0:0:0:
247,120,70582,1,0,0:0:0:0:
130,286,70770,1,0,0:0:0:0:
386,209,70957,1,0,0:0:0:0:
165,75,71145,1,0,0:0:0:0:
126,321,71332,6,0,P|185:340|259:309,1,120.000004577637
304,250,71614,1,0,0:0:0:0:
304,250,71707,2,0,L|290:126,1,120.000004577637
211,188,71989,1,0,0:0:0:0:
211,188,72082,2,0,P|148:190|207:93,1,240.000009155274
290,130,72645,1,0,0:0:0:0:
239,324,72832,5,0,0:0:0:0:
204,91,73020,1,0,0:0:0:0:
336,278,73207,1,0,0:0:0:0:
125,254,73395,1,0,0:0:0:0:
392,169,73582,2,0,L|401:214,1,40
426,294,73770,1,0,0:0:0:0:
125,254,73957,1,0,0:0:0:0:
158,275,74050,1,0,0:0:0:0:
196,283,74144,1,0,0:0:0:0:
235,277,74238,1,0,0:0:0:0:
270,258,74332,5,0,0:0:0:0:
207,113,74520,1,0,0:0:0:0:
125,350,74707,1,0,0:0:0:0:
291,163,74895,1,0,0:0:0:0:
125,254,75082,2,0,P|63:233|4:258,1,120.000004577637
235,277,75457,1,0,0:0:0:0:
126,148,75645,1,0,0:0:0:0:
235,315,75832,5,0,0:0:0:0:
345,198,76020,1,0,0:0:0:0:
125,274,76207,1,0,0:0:0:0:
366,238,76395,1,0,0:0:0:0:
127,119,76582,2,0,P|187:138|244:116,1,120.000004577637
240,17,76957,1,0,0:0:0:0:
44,91,77145,1,0,0:0:0:0:
44,91,77239,1,0,0:0:0:0:
44,91,77332,6,0,P|45:158|81:199,1,120.000004577637
206,102,77707,1,0,0:0:0:0:
113,277,77895,1,0,0:0:0:0:
162,66,78082,1,0,0:0:0:0:
206,279,78270,1,0,0:0:0:0:
121,33,78457,1,0,0:0:0:0:
298,187,78645,1,0,0:0:0:0:
298,187,78739,1,0,0:0:0:0:
298,187,78832,6,0,P|352:204|418:181,1,120.000004577637
411,93,79207,1,0,0:0:0:0:
391,290,79395,1,0,0:0:0:0:
230,241,79582,1,0,0:0:0:0:
441,104,79770,1,0,0:0:0:0:
375,315,79957,1,0,0:0:0:0:
225,202,80145,1,0,0:0:0:0:
480,116,80332,6,0,L|474:261,1,120.000004577637
360,343,80707,1,0,0:0:0:0:
216,164,80895,2,0,P|280:120|288:232,1,240.000009155274
128,224,81457,2,0,P|108:168|132:104,1,120.000004577637
212,264,81739,1,0,0:0:0:0:
212,264,81832,6,0,P|164:316|92:312,1,120.000004577637
40,268,82207,1,0,0:0:0:0:
216,160,82395,2,0,B|269:118|332:159|332:159|391:190|452:142,1,240.000009155274
378,70,82957,1,0,0:0:0:0:
398,264,83145,1,0,0:0:0:0:
376,49,83332,6,0,L|255:54,1,120.000004577637
121,124,83614,1,0,0:0:0:0:
121,124,83707,2,0,L|260:141,1,120.000004577637
372,153,83989,1,0,0:0:0:0:
372,153,84082,2,0,P|412:217|303:189,1,240.000009155274
240,138,84645,1,0,0:0:0:0:
286,328,84832,5,0,0:0:0:0:
316,81,85020,1,0,0:0:0:0:
166,194,85207,2,0,P|108:213|40:184,1,120.000004577637
316,81,85582,2,0,L|327:150,1,60.0000022888184
339,228,85770,1,0,0:0:0:0:
235,60,85957,1,0,0:0:0:0:
257,22,86050,1,0,0:0:0:0:
295,0,86144,1,0,0:0:0:0:
339,0,86238,1,0,0:0:0:0:
376,23,86332,6,0,P|448:47|504:-18,1,160
235,60,86614,2,0,P|163:36|115:108,1,160
326,142,86895,6,0,P|304:220|393:258,1,160
148,215,87176,2,0,P|170:137|81:99,1,160
70,233,87457,6,0,L|86:332,1,90.0000034332277
176,316,87832,6,0,L|345:304,1,160
484,129,88114,2,0,L|315:141,1,160
203,338,88395,6,0,L|372:326,1,160
511,151,88677,2,0,L|342:163,1,160
229,358,88957,6,0,L|341:351,1,90.0000034332277
418,345,89332,6,0,L|422:256,1,80
320,220,89520,2,0,L|324:131,1,80
229,358,89707,2,0,L|233:269,1,80
131,233,89895,2,0,L|135:144,1,80
138,73,90082,6,0,L|134:162,1,80
236,198,90270,2,0,L|232:287,1,80
327,60,90457,2,0,L|323:149,1,80
425,185,90645,2,0,L|421:274,1,80
236,198,90832,6,0,L|240:109,1,80
247,21,91114,1,0,0:0:0:0:
279,37,91207,1,0,0:0:0:0:
314,44,91301,1,0,0:0:0:0:
349,42,91395,1,0,0:0:0:0:
383,30,91489,1,0,0:0:0:0:
402,21,91582,1,0,0:0:0:0:
382,51,91676,1,0,0:0:0:0:
370,85,91770,1,0,0:0:0:0:
371,120,91864,1,0,0:0:0:0:
384,154,91957,1,0,0:0:0:0:
401,185,92051,1,0,0:0:0:0:
408,221,92145,1,0,0:0:0:0:
401,256,92239,1,0,0:0:0:0:
383,287,92332,5,0,0:0:0:0:
244,233,92520,1,0,0:0:0:0:
479,205,92707,1,0,0:0:0:0:
281,319,92895,1,0,0:0:0:0:
284,135,93082,1,0,0:0:0:0:
352,365,93270,1,0,0:0:0:0:
188,304,93457,1,0,0:0:0:0:
342,184,93645,1,0,0:0:0:0:
218,384,93832,5,0,0:0:0:0:
150,210,94020,1,0,0:0:0:0:
339,244,94207,1,0,0:0:0:0:
93,288,94395,1,0,0:0:0:0:
93,288,95145,5,0,0:0:0:0:
94,113,95332,1,0,0:0:0:0:
239,195,95520,1,0,0:0:0:0:
11,162,95707,1,0,0:0:0:0:
172,72,95895,1,0,0:0:0:0:
167,242,96082,5,0,0:0:0:0:
14,67,96270,1,0,0:0:0:0:
170,155,96457,1,0,0:0:0:0:
9,250,96645,1,0,0:0:0:0:
186,156,96832,6,0,L|316:156,1,120
395,156,97207,2,0,P|402:198|378:252,1,80
250,235,97582,1,0,0:0:0:0:
347,76,97770,1,0,0:0:0:0:
322,280,97957,1,0,0:0:0:0:
176,75,98145,1,0,0:0:0:0:
176,75,98239,1,0,0:0:0:0:
176,75,98332,6,0,L|275:75,1,80
96,117,98707,2,0,P|85:74|97:31,1,80
172,164,99082,2,0,P|126:199|52:191,1,120
111,280,99457,2,0,P|120:320|103:367,1,80
145,356,99739,1,0,0:0:0:0:
181,355,99832,6,0,L|278:355,1,80
146,197,100207,2,0,L|49:197,1,80
211,257,100582,2,0,P|237:209|216:145,1,120
200,111,100957,6,0,P|277:139|351:106,1,160
386,36,101520,1,0,0:0:0:0:
375,211,101707,1,0,0:0:0:0:
299,40,101895,1,0,0:0:0:0:
299,40,101989,1,0,0:0:0:0:
299,40,102082,1,0,0:0:0:0:
452,141,102270,1,0,0:0:0:0:
276,206,102457,1,0,0:0:0:0:
435,318,102645,6,0,B|354:378|268:317|268:317|182:252|102:313,1,360
105,275,103582,6,0,L|110:198,1,60.0000022888184
27,171,103770,2,0,L|32:94,1,60.0000022888184
161,55,103957,2,0,L|156:132,1,60.0000022888184
253,138,104145,2,0,L|248:215,1,60.0000022888184
243,303,104332,6,0,L|371:289,1,120.000004577637
459,280,104614,1,0,0:0:0:0:
459,280,104707,2,0,P|471:211|430:147,1,120.000004577637
243,303,105082,2,0,P|231:338|237:373,1,60.0000022888184
203,223,105270,2,0,P|171:243|155:274,1,60.0000022888184
296,229,105457,2,0,P|279:165|214:132,1,120.000004577637
244,303,105739,1,0,0:0:0:0:
244,303,105832,6,0,P|307:321|356:300,1,120.000004577637
391,217,106114,1,0,0:0:0:0:
391,217,106207,2,0,L|392:84,1,120.000004577637
215,100,106582,2,0,L|221:174,1,60.0000022888184
391,97,106770,2,0,L|384:35,1,60.0000022888184
253,132,106957,2,0,L|260:198,1,60.0000022888184
438,112,107145,2,0,L|431:50,1,60.0000022888184
297,158,107332,6,0,L|311:298,1,120.000004577637
219,252,107614,1,0,0:0:0:0:
219,252,107707,2,0,P|165:234|97:261,1,120.000004577637
308,277,108082,2,0,P|362:295|430:268,1,120.000004577637
442,186,108457,1,0,0:0:0:0:
284,191,108645,1,0,0:0:0:0:
284,191,108739,1,0,0:0:0:0:
284,191,108832,5,0,0:0:0:0:
283,363,109020,1,0,0:0:0:0:
361,135,109207,1,0,0:0:0:0:
211,278,109395,1,0,0:0:0:0:
439,186,109582,2,0,L|439:126,1,60.0000022888184
283,191,109770,2,0,L|283:252,1,60.0000022888184
420,276,109957,2,0,L|485:276,1,60.0000022888184
273,104,110145,2,0,L|204:104,1,60.0000022888184
97,103,110332,6,0,P|116:172|88:224,1,120.000004577637
24,262,110707,1,0,0:0:0:0:
173,259,110895,1,0,0:0:0:0:
97,103,111082,2,0,P|162:84|216:106,1,120.000004577637
251,182,111457,1,0,0:0:0:0:
47,177,111645,6,0,P|12:123|23:62,1,120.000004577637
47,177,112020,2,0,P|87:128|138:156,1,120.000004577637
47,177,112395,2,0,P|82:243|-4:196,1,240.000009155274
18,70,112957,1,0,0:0:0:0:
201,90,113145,1,0,0:0:0:0:
50,287,113332,6,0,P|29:218|55:167,1,120.000004577637
201,90,113707,2,0,B|346:90|346:90|273:211|273:211|213:123,1,360.000013732911
168,13,114457,1,0,0:0:0:0:
152,208,114645,6,0,P|90:227|40:208,1,120.000004577637
40,118,115020,1,0,0:0:0:0:
226,164,115207,1,0,0:0:0:0:
88,298,115395,1,0,0:0:0:0:
241,148,115582,2,0,P|258:212|232:273,1,120.000004577637
365,354,115957,2,0,P|348:290|374:229,1,120.000004577637
437,179,116332,5,0,0:0:0:0:
241,148,116520,1,0,0:0:0:0:
362,3,116707,1,0,0:0:0:0:
327,224,116895,5,0,0:0:0:0:
243,24,117082,1,0,0:0:0:0:
473,60,117270,1,0,0:0:0:0:
320,258,117457,5,0,0:0:0:0:
243,24,117645,1,0,0:0:0:0:
436,180,117832,5,0,0:0:0:0:
189,260,118020,1,0,0:0:0:0:
243,24,118207,1,0,0:0:0:0:
336,290,118395,5,0,0:0:0:0:
111,101,118582,1,0,0:0:0:0:
394,10,118770,1,0,0:0:0:0:
346,314,118957,5,0,0:0:0:0:
243,24,119145,1,0,0:0:0:0:
361,342,119332,6,0,L|284:342,1,60.0000022888184
111,101,119520,2,0,L|188:101,1,60.0000022888184
207,339,119707,2,0,L|163:280,1,60.0000022888184
267,99,119895,2,0,L|311:158,1,60.0000022888184
83,315,120082,2,0,L|83:250,1,60.0000022888184
390,130,120270,2,0,L|390:195,1,60.0000022888184
8,210,120457,2,0,L|44:152,1,60.0000022888184
127,26,120645,1,0,0:0:0:0:
256,191,121957,6,0,P|297:205|353:180,1,90.0000034332277
211,116,122332,6,0,P|164:187|193:263,1,160
298,111,122707,2,0,P|247:37|174:45,1,160
104,79,123082,1,0,0:0:0:0:
441,142,123270,1,0,0:0:0:0:
383,310,123457,1,0,0:0:0:0:
394,61,123645,6,0,P|316:30|240:71,1,160
441,142,124020,1,0,0:0:0:0:
441,142,124114,1,0,0:0:0:0:
441,142,124207,2,0,P|486:60|461:-1,1,160
250,58,124582,1,0,0:0:0:0:
293,353,124770,1,0,0:0:0:0:
259,99,124957,1,0,0:0:0:0:
217,309,125145,1,0,0:0:0:0:
411,322,125332,6,0,P|443:249|407:167,1,160
150,252,125707,1,0,0:0:0:0:
294,352,125895,1,0,0:0:0:0:
294,352,125989,1,0,0:0:0:0:
294,352,126082,5,0,0:0:0:0:
314,182,126270,1,0,0:0:0:0:
116,192,126457,2,0,P|93:283|129:348,1,160
312,225,126832,5,0,0:0:0:0:
127,171,127020,1,0,0:0:0:0:
271,41,127207,2,0,P|343:17|427:43,1,160
303,239,127582,2,0,P|231:263|147:237,1,160
356,151,127957,1,0,0:0:0:0:
388,181,128050,1,0,0:0:0:0:
405,221,128144,1,0,0:0:0:0:
404,265,128238,1,0,0:0:0:0:
385,304,128332,6,0,P|441:288|506:313,1,120.000004577637
303,239,128707,1,0,0:0:0:0:
401,83,128895,1,0,0:0:0:0:
404,265,129082,1,0,0:0:0:0:
224,166,129270,2,0,P|207:102|226:35,1,120.000004577637
303,239,129645,1,0,0:0:0:0:
303,239,129739,1,0,0:0:0:0:
303,239,129832,5,0,0:0:0:0:
102,171,130020,1,0,0:0:0:0:
306,98,130207,1,0,0:0:0:0:
304,321,130395,1,0,0:0:0:0:
265,120,130582,1,0,0:0:0:0:
382,286,130770,1,0,0:0:0:0:
126,209,130957,1,0,0:0:0:0:
347,75,131145,1,0,0:0:0:0:
386,321,131332,6,0,P|327:340|253:309,1,120.000004577637
208,250,131614,1,0,0:0:0:0:
208,250,131707,2,0,L|222:126,1,120.000004577637
301,188,131989,1,0,0:0:0:0:
301,188,132082,2,0,P|364:190|305:93,1,240.000009155274
222,130,132645,1,0,0:0:0:0:
273,324,132832,5,0,0:0:0:0:
308,91,133020,1,0,0:0:0:0:
176,278,133207,1,0,0:0:0:0:
387,254,133395,1,0,0:0:0:0:
120,169,133582,2,0,L|111:214,1,40
86,294,133770,1,0,0:0:0:0:
387,254,133957,1,0,0:0:0:0:
354,275,134050,1,0,0:0:0:0:
316,283,134144,1,0,0:0:0:0:
277,277,134238,1,0,0:0:0:0:
242,258,134332,5,0,0:0:0:0:
305,113,134520,1,0,0:0:0:0:
387,350,134707,1,0,0:0:0:0:
221,163,134895,1,0,0:0:0:0:
387,254,135082,2,0,P|449:233|508:258,1,120.000004577637
277,277,135457,1,0,0:0:0:0:
386,148,135645,1,0,0:0:0:0:
277,315,135832,5,0,0:0:0:0:
167,198,136020,1,0,0:0:0:0:
387,274,136207,1,0,0:0:0:0:
146,238,136395,1,0,0:0:0:0:
385,119,136582,2,0,P|325:138|268:116,1,120.000004577637
272,17,136957,1,0,0:0:0:0:
468,91,137145,1,0,0:0:0:0:
468,91,137239,1,0,0:0:0:0:
468,91,137332,6,0,P|467:158|431:199,1,120.000004577637
306,102,137707,1,0,0:0:0:0:
399,277,137895,1,0,0:0:0:0:
350,66,138082,1,0,0:0:0:0:
306,279,138270,1,0,0:0:0:0:
391,33,138457,1,0,0:0:0:0:
214,187,138645,1,0,0:0:0:0:
214,187,138739,1,0,0:0:0:0:
214,187,138832,6,0,P|160:204|94:181,1,120.000004577637
101,93,139207,1,0,0:0:0:0:
121,290,139395,1,0,0:0:0:0:
282,241,139582,1,0,0:0:0:0:
71,104,139770,1,0,0:0:0:0:
137,315,139957,1,0,0:0:0:0:
287,202,140145,1,0,0:0:0:0:
32,116,140332,6,0,L|38:261,1,120.000004577637
152,343,140707,1,0,0:0:0:0:
296,164,140895,2,0,P|232:120|224:232,1,240.000009155274
384,224,141457,2,0,P|404:168|380:104,1,120.000004577637
300,264,141739,1,0,0:0:0:0:
300,264,141832,6,0,P|348:316|420:312,1,120.000004577637
472,268,142207,1,0,0:0:0:0:
296,160,142395,2,0,B|243:118|180:159|180:159|121:190|60:142,1,240.000009155274
134,70,142957,1,0,0:0:0:0:
114,264,143145,1,0,0:0:0:0:
136,49,143332,6,0,L|257:54,1,120.000004577637
391,124,143614,1,0,0:0:0:0:
391,124,143707,2,0,L|252:141,1,120.000004577637
140,153,143989,1,0,0:0:0:0:
140,153,144082,2,0,P|100:217|209:189,1,240.000009155274
272,138,144645,1,0,0:0:0:0:
226,328,144832,5,0,0:0:0:0:
196,81,145020,1,0,0:0:0:0:
346,194,145207,2,0,P|404:213|472:184,1,120.000004577637
196,81,145582,2,0,L|185:150,1,60.0000022888184
173,228,145770,1,0,0:0:0:0:
277,60,145957,1,0,0:0:0:0:
255,22,146050,1,0,0:0:0:0:
217,0,146144,1,0,0:0:0:0:
173,0,146238,1,0,0:0:0:0:
136,23,146332,5,0,0:0:0:0:
256,191,147457,6,0,L|351:191,1,90.0000034332277
443,191,147832,6,0,L|433:331,1,120.000004577637
349,328,148207,1,0,0:0:0:0:
396,108,148395,2,0,P|463:97|511:123,1,120.000004577637
347,191,148770,2,0,P|303:132|309:75,1,120.000004577637
211,158,149145,1,0,0:0:0:0:
211,158,149239,1,0,0:0:0:0:
211,158,149332,6,0,P|155:180|93:153,1,120.000004577637
43,77,149707,1,0,0:0:0:0:
101,160,149895,2,0,P|118:227|91:278,1,120.000004577637
211,158,150270,2,0,P|194:91|221:40,1,120.000004577637
310,44,150645,1,0,0:0:0:0:
297,235,150832,6,0,L|143:245,1,120.000004577637
346,167,151114,2,0,P|382:231|324:315,1,180.000006866455
291,90,151582,2,0,L|424:83,1,120.000004577637
208,104,151864,2,0,P|223:42|287:11,1,120.000004577637
262,168,152145,6,0,P|197:188|141:159,1,120.000004577637
114,90,152520,1,0,0:0:0:0:
136,261,152707,1,0,0:0:0:0:
208,104,152895,1,0,0:0:0:0:
27,125,153082,1,0,0:0:0:0:
136,261,153270,1,0,0:0:0:0:
136,261,153364,2,0,P|114:321|70:222,1,240.000009155274
214,232,153832,6,0,L|339:232,1,120.000004577637
417,276,154207,1,0,0:0:0:0:
214,232,154395,2,0,P|177:154|221:66,1,180.000006866455
261,73,154770,1,0,0:0:0:0:
87,114,154957,1,0,0:0:0:0:
214,232,155145,1,0,0:0:0:0:
214,232,155239,1,0,0:0:0:0:
214,232,155332,6,0,P|233:298|194:354,1,120.000004577637
121,343,155707,1,0,0:0:0:0:
138,176,155895,2,0,P|217:138|305:212,1,180.000006866455
294,229,156270,1,0,0:0:0:0:
250,65,156457,1,0,0:0:0:0:
138,176,156645,1,0,0:0:0:0:
294,229,156832,6,0,P|353:236|409:196,1,120.000004577637
256,154,157114,2,0,P|208:221|252:303,1,180.000006866455
247,300,157582,2,0,P|191:283|121:310,1,120.000004577637
62,347,157864,2,0,L|36:222,1,120.000004577637
26,180,158145,1,0,0:0:0:0:
134,299,158332,6,0,P|190:315|251:298,1,120.000004577637
318,248,158614,2,0,P|381:232|449:263,1,120.000004577637
428,212,158895,1,0,0:0:0:0:
424,171,158989,1,0,0:0:0:0:
420,127,159082,2,0,L|299:127,1,120.000004577637
179,128,159364,2,0,B|207:258|207:258|218:201,1,180.000006866455
248,25,159832,6,0,L|166:17,1,80
9,145,160207,2,0,L|88:137,1,80
179,128,160582,1,0,0:0:0:0:
125,329,160770,1,0,0:0:0:0:
125,329,161145,6,0,P|195:356|278:327,1,160
335,262,161707,2,0,P|373:253|430:274,1,80
450,339,162082,1,0,0:0:0:0:
433,111,162270,1,0,0:0:0:0:
246,250,162457,6,0,P|202:263|161:248,1,90.0000034332277
148,203,162832,6,0,B|135:73|135:73|159:108,1,160
148,203,163395,6,0,B|270:122|270:122|229:193,1,200
148,203,163957,6,0,B|291:298|291:298|216:288,1,240.000009155274
148,203,164520,6,0,B|102:372|102:372|87:297,1,240.000009155274
86,137,165082,5,0,0:0:0:0:
128,115,165175,1,0,0:0:0:0:
175,116,165269,1,0,0:0:0:0:
217,139,165363,1,0,0:0:0:0:
256,167,165457,1,0,0:0:0:0:
302,178,165550,1,0,0:0:0:0:
348,165,165644,1,0,0:0:0:0:
302,46,165832,5,0,0:0:0:0:
256,192,166957,6,0,L|256:283,1,90.0000034332277
172,178,167332,6,0,P|224:112|300:118,1,160
159,265,167707,2,0,P|87:197|100:131,1,160
131,64,168082,1,0,0:0:0:0:
196,352,168270,1,0,0:0:0:0:
293,114,168457,1,0,0:0:0:0:
159,265,168645,6,0,P|93:293|13:255,1,160
218,192,169020,1,0,0:0:0:0:
218,192,169114,1,0,0:0:0:0:
218,192,169207,2,0,P|252:263|213:343,1,160
122,183,169582,1,0,0:0:0:0:
377,74,169770,1,0,0:0:0:0:
171,114,169957,1,0,0:0:0:0:
309,263,170145,1,0,0:0:0:0:
243,60,170332,6,0,P|174:24|91:70,1,160
135,265,170707,1,0,0:0:0:0:
305,145,170895,1,0,0:0:0:0:
305,145,170989,1,0,0:0:0:0:
305,145,171082,1,0,0:0:0:0:
102,53,171270,1,0,0:0:0:0:
135,265,171457,2,0,P|216:296|286:262,1,160
305,145,171832,5,0,0:0:0:0:
323,352,172020,1,0,0:0:0:0:
135,265,172207,2,0,P|102:184|138:113,1,160
317,208,172582,2,0,P|350:289|314:360,1,160
225,170,172957,1,0,0:0:0:0:
253,136,173050,1,0,0:0:0:0:
291,116,173144,1,0,0:0:0:0:
335,115,173238,1,0,0:0:0:0:
376,132,173332,6,0,P|357:76|378:10,1,120.000004577637
473,73,173707,1,0,0:0:0:0:
317,208,173895,1,0,0:0:0:0:
277,3,174082,1,0,0:0:0:0:
473,73,174270,2,0,P|492:122|463:192,1,120.000004577637
313,124,174645,1,0,0:0:0:0:
313,124,174739,1,0,0:0:0:0:
313,124,174832,5,0,0:0:0:0:
338,284,175020,1,0,0:0:0:0:
471,183,175207,1,0,0:0:0:0:
313,124,175395,1,0,0:0:0:0:
355,368,175582,1,0,0:0:0:0:
394,154,175770,1,0,0:0:0:0:
271,346,175957,1,0,0:0:0:0:
471,183,176145,1,0,0:0:0:0:
234,89,176332,6,0,L|110:89,1,120.000004577637
22,91,176707,1,0,0:0:0:0:
176,4,176895,1,0,0:0:0:0:
150,174,177082,1,0,0:0:0:0:
150,174,177176,2,0,P|157:248|260:251,1,180.000006866455
300,186,177645,1,0,0:0:0:0:
160,91,177832,5,0,0:0:0:0:
246,348,178020,1,0,0:0:0:0:
327,105,178207,1,0,0:0:0:0:
77,80,178395,1,0,0:0:0:0:
327,105,178582,2,0,L|400:110,1,40
458,117,178770,1,0,0:0:0:0:
237,93,178957,1,0,0:0:0:0:
239,132,179050,1,0,0:0:0:0:
242,172,179144,1,0,0:0:0:0:
244,212,179238,1,0,0:0:0:0:
247,252,179332,5,0,0:0:0:0:
85,186,179520,1,0,0:0:0:0:
237,93,179707,1,0,0:0:0:0:
247,252,179895,1,0,0:0:0:0:
237,93,180082,6,0,P|303:74|364:101,1,120.000004577637
375,177,180457,1,0,0:0:0:0:
177,170,180645,1,0,0:0:0:0:
431,110,180832,5,0,0:0:0:0:
247,252,181020,1,0,0:0:0:0:
450,126,181207,2,0,P|469:177|428:248,1,120.000004577637
265,212,181582,1,0,0:0:0:0:
395,55,181770,1,0,0:0:0:0:
395,55,181864,1,0,0:0:0:0:
395,55,181957,2,0,P|462:35|512:58,1,120.000004577637
445,235,182332,5,0,0:0:0:0:
287,94,182520,1,0,0:0:0:0:
390,304,182707,1,0,0:0:0:0:
395,55,182895,1,0,0:0:0:0:
183,130,183082,1,0,0:0:0:0:
350,226,183270,1,0,0:0:0:0:
249,14,183457,1,0,0:0:0:0:
107,195,183645,1,0,0:0:0:0:
107,195,183739,1,0,0:0:0:0:
107,195,183832,6,0,P|172:212|234:182,1,120.000004577637
255,107,184207,1,0,0:0:0:0:
239,300,184395,1,0,0:0:0:0:
161,41,184582,1,0,0:0:0:0:
337,171,184770,1,0,0:0:0:0:
107,195,184957,1,0,0:0:0:0:
257,1,185145,1,0,0:0:0:0:
107,195,185332,6,0,P|80:138|101:86,1,120.000004577637
182,54,185707,1,0,0:0:0:0:
178,268,185895,2,0,B|231:310|294:269|294:269|353:238|414:286,1,240.000009155274
342,355,186457,1,0,0:0:0:0:
235,202,186645,1,0,0:0:0:0:
235,202,186739,1,0,0:0:0:0:
235,202,186832,6,0,P|214:131|236:84,1,120.000004577637
312,35,187207,1,0,0:0:0:0:
235,202,187395,2,0,B|182:244|119:203|119:203|60:172|-1:220,1,240.000009155274
70,293,187957,1,0,0:0:0:0:
46,94,188145,1,0,0:0:0:0:
74,318,188332,6,0,P|133:337|207:308,1,120.000004577637
266,264,188614,1,0,0:0:0:0:
266,264,188707,2,0,P|325:247|391:273,1,120.000004577637
471,309,188989,1,0,0:0:0:0:
471,309,189082,2,0,P|413:198|474:101,1,240.000009155274
321,102,189645,1,0,0:0:0:0:
510,205,189832,5,0,0:0:0:0:
491,0,190020,1,0,0:0:0:0:
321,102,190207,2,0,P|261:120|200:95,1,120.000004577637
115,44,190582,2,0,L|121:118,1,60.0000022888184
128,194,190770,1,0,0:0:0:0:
372,197,190957,1,0,0:0:0:0:
377,160,191050,1,0,0:0:0:0:
382,124,191144,1,0,0:0:0:0:
388,88,191238,1,0,0:0:0:0:
393,52,191332,5,0,0:0:0:0:
393,52,192457,6,0,L|448:54,1,40
377,160,192645,2,0,L|322:158,1,40
213,159,192832,6,0,P|239:232|207:303,1,160
87,302,193395,1,0,0:0:0:0:
207,303,193582,2,0,L|306:303,1,80
403,305,193957,6,0,P|371:239|403:155,1,160
490,158,194520,1,0,0:0:0:0:
489,305,194707,1,0,0:0:0:0:
486,116,194895,1,0,0:0:0:0:
309,187,195082,6,0,P|252:191|343:119,1,320
