osu file format v14

[General]
AudioFilename: Wise Kana Nishino - By Your Side Feat. Kana Nishino.mp3
AudioLeadIn: 0
PreviewTime: 70034
Countdown: 0
SampleSet: Soft
StackLeniency: 0.7
Mode: 0
LetterboxInBreaks: 0
EpilepsyWarning: 1
WidescreenStoryboard: 1

[Editor]
DistanceSpacing: 1.2
BeatDivisor: 8
GridSize: 4
TimelineZoom: 1.6

[Metadata]
Title:By your side feat. Kana Nishino
TitleUnicode:By your side feat. 西野カナ
Artist:WISE
ArtistUnicode:WISE
Creator:Modem
Version:Normal
Source:
Tags:UNIVERSAL MUSIC JAPAN J-Pop 10nya -_t_e_n_n_y_a_- Kanari
BeatmapID:802202
BeatmapSetID:365247

[Difficulty]
HPDrainRate:4
CircleSize:3.3
OverallDifficulty:4
ApproachRate:5
SliderMultiplier:1.6
SliderTickRate:2

[Events]
//Background and Video events
0,0,"bg1.jpg",0,0
//Break Periods
2,13474,17858
2,19258,23643
2,198578,200071
2,201471,211640
2,253531,257916
//Storyboard Layer 0 (Background)
//Storyboard Layer 1 (Fail)
//Storyboard Layer 2 (Pass)
//Storyboard Layer 3 (Foreground)
//Storyboard Sound Samples

[TimingPoints]
1705,723.065798987708,4,2,1,20,1,0
2066,-100,4,2,2,40,0,0
4416,-100,4,2,2,30,0,0
4958,-100,4,2,2,40,0,0
24843,-100,4,2,1,40,0,0
28096,-100,4,2,4,30,0,0
28277,-100,4,2,1,40,0,0
28819,-100,4,2,4,30,0,0
29000,-100,4,2,1,40,0,0
33881,-100,4,2,4,30,0,0
34062,-100,4,2,1,40,0,0
34604,-100,4,2,4,30,0,0
34785,-100,4,2,1,40,0,0
39665,-100,4,2,4,30,0,0
39846,-100,4,2,1,40,0,0
40389,-100,4,2,4,30,0,0
40750,-100,4,2,1,40,0,0
43281,-100,4,2,4,30,0,0
43462,-100,4,2,2,40,0,0
43642,-100,4,2,1,40,0,0
45812,-100,4,2,5,40,0,0
46173,-100,4,2,1,40,0,0
57019,-100,4,2,4,30,0,0
57200,-100,4,2,1,40,0,0
57742,-100,4,2,4,30,0,0
57923,-100,4,2,1,40,0,0
60634,-100,4,2,4,30,0,0
60815,-100,4,2,1,40,0,0
64250,-100,4,2,4,30,0,0
64611,-100,4,2,1,40,0,0
66419,-100,4,2,4,30,0,0
66600,-100,4,2,1,40,0,0
68588,-100,4,2,4,30,0,0
68769,-100,4,2,1,40,0,0
69311,-100,4,2,4,30,0,0
69492,-100,4,2,1,40,0,0
69673,-100,4,2,2,40,0,0
71119,-100,4,2,1,50,0,1
75457,-100,4,2,2,50,0,1
75819,-100,4,2,1,50,0,1
79796,-100,4,2,2,50,0,1
80157,-100,4,2,1,50,0,1
82507,-100,4,2,1,50,0,0
82688,-100,4,2,1,50,0,1
85580,-100,4,2,2,50,0,1
85942,-100,4,2,4,40,0,1
86303,-100,4,2,1,50,0,1
92630,-100,4,2,2,50,0,1
93534,-100,4,2,1,50,0,1
94167,-100,4,2,1,50,0,0
94257,-100,4,2,1,50,0,1
97149,-100,4,2,2,50,0,0
100041,-100,4,2,1,40,0,0
101126,-100,4,2,4,30,0,0
101307,-100,4,2,1,40,0,0
103295,-100,4,2,4,30,0,0
103657,-100,4,2,1,40,0,0
114864,-100,4,2,4,30,0,0
115226,-100,4,2,1,40,0,0
115949,-100,4,2,2,40,0,0
117395,-100,4,2,1,40,0,0
132218,-100,4,2,4,30,0,0
132399,-100,4,2,1,40,0,0
132941,-100,4,2,4,30,0,0
133122,-100,4,2,1,40,0,0
135833,-100,4,2,4,30,0,0
136014,-100,4,2,1,40,0,0
139449,-100,4,2,4,30,0,0
139810,-100,4,2,1,40,0,0
141618,-100,4,2,4,30,0,0
141798,-100,4,2,1,40,0,0
143787,-100,4,2,4,30,0,0
143968,-100,4,2,1,40,0,0
144510,-100,4,2,4,30,0,0
144691,-100,4,2,1,40,0,0
144872,-100,4,2,2,40,0,0
146318,-100,4,2,1,50,0,1
150656,-100,4,2,2,50,0,1
151018,-100,4,2,1,50,0,1
154994,-100,4,2,2,50,0,1
155356,-100,4,2,1,50,0,1
157706,-100,4,2,1,50,0,0
157887,-100,4,2,1,50,0,1
158971,-100,4,2,4,40,0,1
159333,-100,4,2,1,50,0,1
160779,-100,4,2,2,50,0,1
161141,-100,4,2,1,50,0,1
161864,-100,4,2,4,40,0,1
162225,-100,4,2,1,50,0,1
162948,-100,4,2,5,40,0,1
163310,-100,4,2,1,50,0,1
167829,-100,4,2,2,50,0,1
168733,-100,4,2,1,50,0,1
169365,-100,4,2,1,50,0,0
169456,-100,4,2,1,50,0,1
172348,-100,4,2,2,50,0,0
174517,-100,4,2,2,80,0,0
175240,-100,4,2,1,40,0,0
176325,-100,4,2,4,30,0,0
176506,-100,4,2,1,40,0,0
179217,-100,4,2,4,30,0,0
179398,-100,4,2,1,40,0,0
184279,-100,4,2,4,30,0,0
184640,-100,4,2,1,40,0,0
195848,-100,4,2,4,30,0,0
196209,-100,4,2,1,40,0,0
212840,-100,4,2,1,40,0,0
215732,-100,4,2,2,40,0,0
216094,-100,4,2,1,40,0,0
216817,-100,4,2,4,30,0,0
216997,-100,4,2,1,40,0,0
221878,-100,4,2,4,30,0,0
222240,-100,4,2,1,40,0,0
222601,-100,4,2,4,30,0,0
222963,-100,4,2,1,40,0,0
223324,-100,4,2,2,40,0,0
224409,-100,4,2,1,55,0,1
228747,-100,4,2,2,55,0,1
229109,-100,4,2,1,55,0,1
233086,-100,4,2,2,55,0,1
233447,-100,4,2,1,55,0,1
235797,-100,4,2,1,55,0,0
235978,-100,4,2,1,55,0,1
237062,-100,4,2,4,45,0,1
237424,-100,4,2,1,55,0,1
238870,-100,4,2,2,55,0,1
239232,-100,4,2,4,45,0,1
239593,-100,4,2,1,55,0,1
245016,-100,4,2,4,45,0,1
245378,-100,4,2,5,45,0,1
245739,-100,4,2,4,45,0,1
245920,-100,4,2,2,55,0,1
246824,-100,4,2,1,55,0,1
247456,-100,4,2,1,55,0,0
247547,-100,4,2,1,55,0,1
250439,-100,4,2,1,10,0,0
253331,-100,4,2,1,40,0,0
259116,-100,4,2,2,40,0,0
273577,-100,4,2,2,10,0,0
274300,-100,4,2,2,15,0,0
275023,-100,4,2,2,20,0,0
275746,-100,4,2,2,25,0,0
276470,-100,4,2,2,30,0,0

[Colours]
Combo1 : 255,176,138
Combo2 : 255,128,255
Combo3 : 255,128,192
Combo4 : 192,192,192
Combo5 : 151,203,255
Combo6 : 182,255,108
SliderBorder : 255,255,255

[HitObjects]
52,212,1705,6,0,L|124:268,1,80,4|0,0:1|0:0,0:0:0:0:
156,288,2247,1,2,0:0:0:0:
244,324,2608,2,0,B|284:328|284:328|320:292,1,80,2|2,0:0|0:0,0:0:0:0:
344,264,3151,1,0,0:0:0:0:
464,188,3693,2,0,P|444:156|376:136,1,80,2|2,0:0|0:0,0:0:0:0:
320,96,4416,1,4,0:3:0:0:
284,128,4597,6,0,L|216:188,1,80,4|0,0:3|0:0,0:0:0:0:
220,228,5139,2,0,L|152:288,1,80,2|2,0:0|0:0,0:0:0:0:
88,344,5862,1,2,0:0:0:0:
68,152,6585,2,0,L|20:92,2,40,2|2|2,0:0|0:0|0:0,0:0:0:0:
100,188,7127,1,2,0:0:0:0:
196,180,7489,5,4,0:3:0:0:
284,72,8031,1,2,0:0:0:0:
372,36,8393,2,0,P|380:80|368:116,1,80,2|2,0:0|0:0,0:0:0:0:
360,160,8935,1,0,0:0:0:0:
224,200,9477,2,0,P|192:172|136:172,1,80,2|2,0:0|0:0,0:0:0:0:
148,264,10201,1,2,0:0:0:0:
184,292,10381,6,0,P|236:304|300:260,1,120,2|2,0:0|0:0,0:0:0:0:
340,188,11285,1,0,0:0:0:0:
392,104,11647,2,0,P|348:88|296:104,2,80,4|2|2,0:0|0:0|0:0,0:0:0:0:
448,180,12731,2,0,P|452:219|439:257,1,80,2|0,0:0|0:0,0:0:0:0:
424,304,13274,5,4,0:1:0:0:
424,304,19058,5,2,0:0:0:0:
424,304,24843,6,0,P|368:320|292:292,1,120,4|8,0:1|0:1,0:0:0:0:
264,292,25566,2,0,P|224:284|172:300,1,80,8|2,0:0|0:0,0:0:0:0:
140,312,26108,1,2,0:0:0:0:
96,332,26289,2,0,P|56:268|84:176,1,160,8|8,0:1|0:0,0:0:0:0:
128,112,27373,1,8,0:1:0:0:
208,56,27735,6,0,L|352:120,1,120,8|8,0:1|0:1,0:0:0:0:
360,124,28458,2,0,P|408:168|404:248,1,120,8|2,0:0|0:0,0:0:0:0:
400,268,29181,2,0,P|368:292|300:280,1,80,8|8,0:1|0:1,0:0:0:0:
240,256,29904,2,0,P|216:224|228:156,1,80,8|2,0:0|0:3,0:0:0:0:
212,136,30446,1,2,0:3:0:0:
196,92,30627,6,0,P|152:68|44:112,1,160,2|8,0:0|0:0,0:0:0:0:
128,164,31712,1,2,0:0:0:0:
144,260,32073,2,0,L|168:348,1,80,8|8,0:1|0:1,0:0:0:0:
260,340,32796,2,0,L|281:262,1,80,8|8,0:0|0:1,0:0:0:0:
296,216,33339,1,8,0:1:0:0:
308,168,33519,6,0,P|265:128|206:130,1,120,8|8,0:1|0:1,0:0:0:0:
164,156,34242,2,0,P|100:153|61:111,1,120,8|2,0:0|0:0,0:0:0:0:
40,72,34966,1,8,0:1:0:0:
136,80,35327,1,0,0:0:0:0:
220,36,35689,1,8,0:0:0:0:
312,64,36050,2,0,L|376:88,1,40,2|2,0:3|0:3,0:0:0:0:
396,96,36412,6,0,L|336:220,1,120,4|8,0:1|0:1,0:0:0:0:
340,252,37135,2,0,L|240:288,1,80,8|2,0:0|0:0,0:0:0:0:
168,280,37858,2,0,L|92:252,1,80,8|8,0:1|0:1,0:0:0:0:
48,232,38400,1,8,0:1:0:0:
20,192,38581,2,0,P|4:152|20:88,1,80,8|8,0:0|0:1,0:0:0:0:
16,68,39123,1,8,0:1:0:0:
60,48,39304,6,0,P|120:40|184:68,1,120,8|8,0:1|0:1,0:0:0:0:
220,80,40027,2,0,B|260:80|288:116|288:116|312:80|364:80,1,160,8|8,0:0|0:1,0:0:0:0:
452,64,41112,1,8,0:1:0:0:
504,144,41473,1,8,0:0:0:0:
440,216,41835,1,2,0:3:0:0:
364,276,42196,6,0,P|343:220|360:164,1,120,2|8,0:0|0:1,0:0:0:0:
328,128,42919,2,0,P|272:148|215:132,1,120,8|4,0:0|0:0,0:0:0:0:
176,108,43642,1,0,0:0:0:0:
80,124,44004,1,8,0:1:0:0:
60,220,44365,6,0,L|112:284,1,80,8|8,0:0|0:1,0:0:0:0:
116,332,44908,2,0,L|216:348,1,80,8|2,0:1|0:0,0:0:0:0:
244,344,45450,2,0,B|244:304|280:276|280:276|244:252|244:200,1,160,2|0,0:0|0:0,0:0:0:0:
280,120,46535,5,8,0:1:0:0:
200,68,46896,1,0,0:0:0:0:
120,120,47258,1,8,0:0:0:0:
152,212,47619,2,0,L|172:272,1,40,2|2,0:3|0:3,0:0:0:0:
188,292,47981,6,0,P|248:324|360:284,1,160,4|0,0:1|0:0,0:0:0:0:
424,281,49065,1,2,0:0:0:0:
456,245,49246,1,2,0:0:0:0:
484,205,49427,2,0,P|524:145|480:58,1,160,8|8,0:1|0:0,0:0:0:0:
402,44,50511,1,8,0:1:0:0:
440,133,50873,6,0,L|336:165,1,80,8|2,0:1|0:0,0:0:0:0:
340,249,51596,2,0,L|268:321,1,80,8|2,0:0|0:0,0:0:0:0:
252,345,52138,1,2,0:0:0:0:
252,345,52319,2,0,P|168:309|168:241,1,160,8|8,0:1|0:0,0:0:0:0:
208,165,53404,1,2,0:3:0:0:
304,149,53765,6,0,P|268:89|168:77,1,160,4|8,0:1|0:0,0:0:0:0:
118,141,54850,2,0,L|118:217,1,40,2|2,0:0|0:0,0:0:0:0:
126,229,55211,2,0,B|170:245|170:245|206:293|206:293|282:313,1,160,8|8,0:1|0:0,0:0:0:0:
263,210,56296,1,0,0:0:0:0:
231,118,56658,6,0,B|291:118|291:118|347:154,1,120,8|0,0:1|0:0,0:0:0:0:
375,186,57381,2,0,L|339:314,1,120,8|2,0:0|0:0,0:0:0:0:
331,346,58104,1,8,0:1:0:0:
139,352,58827,1,8,0:0:0:0:
100,264,59188,1,8,0:0:0:0:
12,232,59550,6,0,P|40:192|116:172,1,120,4|2,0:1|0:0,0:0:0:0:
144,144,60273,2,0,P|129:86|82:50,1,120,8|2,0:0|0:0,0:0:0:0:
44,24,60996,1,8,0:1:0:0:
0,108,61357,1,2,0:0:0:0:
8,204,61719,6,0,P|0:240|12:292,2,80,8|8|8,0:0|0:1|0:1,0:0:0:0:
68,128,62804,2,0,P|107:120|145:128,1,80,2|8,0:0|0:0,0:0:0:0:
216,196,63527,1,2,0:0:0:0:
268,276,63888,2,0,P|300:240|284:132,1,160,0|8,0:0|0:0,0:0:0:0:
216,196,64973,1,8,0:1:0:0:
200,100,65334,6,0,B|144:84|144:84|68:104,1,120,2|8,0:0|0:1,0:0:0:0:
44,124,66057,2,0,P|16:176|48:264,1,120,8|2,0:0|0:0,0:0:0:0:
72,244,66780,2,0,P|80:302|52:354,1,120,8|8,0:1|0:1,0:0:0:0:
4,368,67503,1,8,0:0:0:0:
196,344,68227,6,0,L|304:288,1,120,8|8,0:1|0:1,0:0:0:0:
348,272,68950,2,0,P|408:292|420:220,1,120,8|2,0:0|0:0,0:0:0:0:
436,204,69673,1,4,0:0:0:0:
100,60,71119,6,0,L|128:136,1,80,4|8,0:1|0:1,0:0:0:0:
96,228,71842,2,0,L|164:272,1,80,8|2,0:0|0:0,0:0:0:0:
208,292,72384,1,2,0:0:0:0:
256,304,72565,2,0,P|324:280|348:192,1,160,8|8,0:1|0:0,0:0:0:0:
340,108,73650,2,0,L|296:52,1,40,8|8,0:1|0:1,0:0:0:0:
284,40,74011,6,0,L|176:40,1,80,8|2,0:1|0:0,0:0:0:0:
164,128,74734,2,0,L|244:128,1,80,8|2,0:0|0:0,0:0:0:0:
284,156,75276,1,2,0:0:0:0:
312,192,75457,2,0,P|324:232|376:268,1,80,4|8,0:0|0:1,0:0:0:0:
408,180,76180,2,0,P|396:140|344:104,1,80,8|2,0:0|0:3,0:0:0:0:
332,84,76723,1,2,0:3:0:0:
292,56,76903,6,0,P|248:92|132:72,1,160,2|8,0:0|0:0,0:0:0:0:
60,56,77988,2,0,L|24:120,1,40,2|2,0:0|0:0,0:0:0:0:
36,140,78349,2,0,L|68:244,1,80,8|8,0:1|0:1,0:0:0:0:
80,260,78892,1,0,0:0:0:0:
108,300,79073,6,0,P|176:328|256:284,1,160,8|4,0:0|0:0,0:0:0:0:
176,232,80157,1,2,0:0:0:0:
236,156,80519,1,8,0:0:0:0:
308,220,80880,2,0,B|336:188|384:200|384:200|420:168|444:104|376:48,1,240,2|8,0:0|0:0,0:0:0:0:
300,28,82326,1,2,0:3:0:0:
208,52,82688,6,0,P|120:96|96:152,1,160,4|8,0:1|0:0,0:0:0:0:
164,216,83772,2,0,L|140:248,1,40,2|2,0:0|0:0,0:0:0:0:
136,296,84134,2,0,B|172:320|172:320|248:300|296:352,1,160,8|8,0:1|0:0,0:0:0:0:
380,328,85219,1,0,0:0:0:0:
420,240,85580,6,0,B|456:204|439:129|439:129|463:93,1,160,4|8,0:0|0:0,0:0:0:0:
384,36,86665,2,0,L|348:88,1,40,2|2,0:0|0:0,0:0:0:0:
320,92,87026,2,0,L|268:164,1,80,8|8,0:1|0:1,0:0:0:0:
220,236,87749,1,8,0:0:0:0:
124,236,88111,1,2,0:3:0:0:
32,204,88472,6,0,P|64:160|168:148,1,160,2|8,0:0|0:0,0:0:0:0:
124,236,89557,2,0,L|124:288,1,40,2|2,0:0|0:0,0:0:0:0:
128,324,89919,2,0,B|208:336|208:336|292:296,1,160,8|8,0:1|0:0,0:0:0:0:
428,180,91365,2,0,P|424:124|392:88,1,80,8|2,0:1|0:0,0:0:0:0:
384,68,91907,1,8,0:1:0:0:
340,52,92088,2,0,B|300:56|300:56|264:80|264:80|196:88,1,120,8|4,0:0|0:0,0:0:0:0:
36,228,93534,5,8,0:0:0:0:
112,292,93895,1,2,0:3:0:0:
152,320,94076,1,2,0:3:0:0:
196,336,94257,2,0,P|264:328|312:228,1,160,4|8,0:1|0:0,0:0:0:0:
260,176,95342,2,0,L|300:112,1,40,2|2,0:0|0:0,0:0:0:0:
304,100,95703,5,8,0:1:0:0:
240,28,96065,1,0,0:0:0:0:
148,56,96426,2,0,P|92:52|60:68,1,80,8|8,0:0|0:1,0:0:0:0:
112,148,97149,2,0,B|60:144|20:180|28:236|68:272|132:240|132:240|156:256|156:256|176:240|176:240|232:272|276:240|288:172|232:144|188:148,1,480,4|2,0:0|0:0,0:0:0:0:
348,30,100041,6,0,P|384:50|430:130,1,120,4|8,0:1|0:1,0:0:0:0:
430,162,100765,2,0,B|423:195|423:195|432:242|432:242|423:288,1,120,8|2,0:0|0:0,0:0:0:0:
420,327,101488,1,8,0:1:0:0:
331,290,101849,1,8,0:1:0:0:
258,353,102211,2,0,P|218:363|153:329,1,80,8|8,0:0|0:1,0:0:0:0:
219,265,102934,6,0,P|194:192|110:175,1,160,0|8,0:0|0:0,0:0:0:0:
31,209,104018,1,2,0:0:0:0:
26,161,104199,1,2,0:0:0:0:
22,113,104380,2,0,L|9:32,1,80,8|8,0:1|0:1,0:0:0:0:
105,30,105103,2,0,P|141:38|203:15,1,80,8|2,0:0|0:3,0:0:0:0:
278,33,105826,6,0,P|351:63|366:118,1,120,2|8,0:0|0:1,0:0:0:0:
365,143,106549,2,0,L|317:207,1,80,8|2,0:0|0:0,0:0:0:0:
248,272,107272,2,0,P|280:296|336:300,1,80,8|8,0:1|0:1,0:0:0:0:
317,207,107995,2,0,P|266:179|176:210,1,160,8|8,0:0|0:1,0:0:0:0:
143,245,108899,1,2,0:0:0:0:
120,288,109080,1,2,0:0:0:0:
48,224,109441,6,0,B|34:186|34:186|48:148,1,80,8|2,0:0|0:0,0:0:0:0:
67,104,109984,1,2,0:0:0:0:
114,102,110164,2,0,L|189:132,1,80,2|2,0:3|0:3,0:0:0:0:
264,72,110887,1,8,0:0:0:0:
336,136,111249,2,0,L|356:185,1,40,2|2,0:3|0:3,0:0:0:0:
361,217,111611,6,0,P|330:278|240:297,1,160,4|8,0:1|0:0,0:0:0:0:
161,343,112695,2,0,L|94:309,1,40,2|2,0:0|0:0,0:0:0:0:
80,305,113057,2,0,B|25:268|25:268|64:223|36:164,1,160,8|8,0:1|0:0,0:0:0:0:
104,107,114141,2,0,L|148:79,1,40,8|8,0:1|0:1,0:0:0:0:
180,63,114503,6,0,B|250:24|250:24|337:45,1,160,0|8,0:0|0:0,0:0:0:0:
350,135,115587,2,0,L|309:124,1,40,2|2,0:0|0:0,0:0:0:0:
264,112,115949,1,4,0:0:0:0:
40,304,117395,6,0,P|100:348|192:316,1,160,4|8,0:1|0:0,0:0:0:0:
120,256,118480,1,2,0:0:0:0:
196,200,118841,1,8,0:1:0:0:
272,256,119203,2,0,L|356:256,2,80,8|8|8,0:1|0:0|0:1,0:0:0:0:
228,236,120107,1,8,0:1:0:0:
196,200,120287,6,0,L|196:120,1,80,8|2,0:1|0:0,0:0:0:0:
292,116,121010,2,0,L|368:68,1,80,8|2,0:0|0:0,0:0:0:0:
444,28,121733,1,8,0:1:0:0:
484,116,122095,1,8,0:1:0:0:
444,204,122456,2,0,L|376:246,1,80,8|2,0:0|0:3,0:0:0:0:
332,268,122999,1,2,0:3:0:0:
288,280,123180,6,0,P|212:252|184:176,1,160,4|8,0:1|0:0,0:0:0:0:
280,184,124264,2,0,L|280:120,1,40,2|2,0:0|0:0,0:0:0:0:
280,96,124626,2,0,B|236:72|236:72|124:72,1,160,8|8,0:1|0:0,0:0:0:0:
32,72,125710,1,8,0:1:0:0:
52,164,126072,6,0,P|72:197|109:210,1,80,8|2,0:1|0:0,0:0:0:0:
200,244,126795,2,0,P|176:280|132:300,1,80,8|2,0:0|0:0,0:0:0:0:
100,316,127337,1,2,0:0:0:0:
52,324,127518,2,0,L|52:164,1,160,8|8,0:1|0:0,0:0:0:0:
112,88,128603,1,2,0:3:0:0:
180,156,128964,6,0,B|216:168|256:148|256:148|300:172|348:152,1,160,4|8,0:1|0:0,0:0:0:0:
304,64,130049,2,0,L|344:36,1,40,2|2,0:0|0:0,0:0:0:0:
384,28,130410,2,0,P|444:64|476:152,1,160,8|8,0:1|0:0,0:0:0:0:
424,228,131495,1,8,0:1:0:0:
340,272,131856,6,0,P|264:276|224:328,1,120,8|8,0:1|0:1,0:0:0:0:
188,304,132579,2,0,P|141:268|82:271,1,120,8|2,0:0|0:0,0:0:0:0:
36,288,133302,1,8,0:1:0:0:
116,112,134026,1,8,0:0:0:0:
208,144,134387,1,8,0:0:0:0:
208,240,134749,6,0,P|284:204|296:140,1,120,4|2,0:1|0:0,0:0:0:0:
343,165,135472,2,0,L|451:225,1,120,8|2,0:0|0:0,0:0:0:0:
488,248,136195,1,8,0:1:0:0:
444,332,136556,1,2,0:0:0:0:
352,308,136918,2,0,P|316:296|268:312,1,80,8|8,0:0|0:1,0:0:0:0:
184,336,137641,2,0,P|145:347|108:335,1,80,8|2,0:1|0:0,0:0:0:0:
44,264,138364,6,0,L|32:180,1,80,8|2,0:0|0:0,0:0:0:0:
8,92,139087,2,0,B|44:80|84:100|84:100|128:76|176:96,1,160,8|8,0:1|0:0,0:0:0:0:
132,184,140172,1,8,0:1:0:0:
60,244,140533,2,0,L|132:348,1,120,2|8,0:0|0:1,0:0:0:0:
176,348,141256,2,0,L|308:356,1,120,8|2,0:0|0:0,0:0:0:0:
340,340,141979,2,0,P|364:288|352:208,1,120,8|8,0:1|0:1,0:0:0:0:
352,180,142702,1,8,0:0:0:0:
176,260,143425,6,0,P|112:220|112:160,1,120,8|8,0:1|0:1,0:0:0:0:
148,156,144148,2,0,P|203:139|227:85,1,120,8|2,0:0|0:0,0:0:0:0:
232,36,144872,1,4,0:0:0:0:
456,384,146318,6,0,L|480:292,1,80,4|8,0:1|0:1,0:0:0:0:
388,228,147041,2,0,L|380:140,1,80,8|2,0:0|0:0,0:0:0:0:
376,100,147583,1,2,0:0:0:0:
372,52,147764,2,0,P|300:28|232:80,1,160,8|8,0:1|0:0,0:0:0:0:
184,152,148848,2,0,P|160:184|148:204,1,40,8|8,0:1|0:1,0:0:0:0:
140,228,149210,6,0,L|140:336,1,80,8|2,0:1|0:0,0:0:0:0:
224,352,149933,2,0,L|224:272,1,80,8|2,0:0|0:0,0:0:0:0:
224,224,150475,1,2,0:0:0:0:
224,176,150656,2,0,P|236:136|280:104,1,80,4|8,0:0|0:1,0:0:0:0:
324,192,151379,2,0,P|364:204|408:188,1,80,8|2,0:0|0:3,0:0:0:0:
440,168,151921,1,2,0:3:0:0:
452,120,152102,6,0,P|412:48|304:36,1,160,2|8,0:0|0:0,0:0:0:0:
248,40,153187,2,0,L|200:64,1,40,2|2,0:0|0:0,0:0:0:0:
168,80,153548,2,0,P|112:124|108:160,1,80,8|8,0:1|0:1,0:0:0:0:
92,176,154091,1,8,0:1:0:0:
92,224,154271,2,0,L|208:296,1,120,8|8,0:0|0:1,0:0:0:0:
236,312,154994,5,4,0:0:0:0:
312,252,155356,2,0,L|224:196,1,80,2|8,0:0|0:0,0:0:0:0:
160,164,156079,2,0,P|132:88|224:144,1,240,2|8,0:0|0:0,0:0:0:0:
324,144,157525,1,0,0:0:0:0:
296,236,157887,6,0,B|332:248|372:228|372:228|416:252|464:232,2,160,4|8|8,0:1|0:0|0:1,0:0:0:0:
324,144,159694,1,0,0:0:0:0:
236,184,160056,2,0,P|220:260|272:312,1,120,8|8,0:0|0:1,0:0:0:0:
280,320,160779,2,0,P|320:328|380:292,1,80,4|2,0:0|0:0,0:0:0:0:
396,292,161321,1,8,0:1:0:0:
424,256,161502,6,0,B|460:180|388:180|440:96,1,160,8|8,0:0|0:1,0:0:0:0:
392,84,162406,1,0,0:0:0:0:
344,96,162587,2,0,P|248:116|208:72,1,160,8|2,0:1|0:3,0:0:0:0:
120,112,163671,2,0,P|156:168|240:216,1,160,2|8,0:0|0:0,0:0:0:0:
324,248,164756,2,0,L|380:208,1,40,2|2,0:0|0:0,0:0:0:0:
392,192,165117,2,0,P|424:128|396:32,1,160,8|8,0:1|0:0,0:0:0:0:
224,104,166564,6,0,L|132:156,1,80,8|2,0:1|0:0,0:0:0:0:
152,240,167287,2,0,L|60:292,1,80,8|2,0:0|0:0,0:0:0:0:
40,304,167829,1,4,0:0:0:0:
188,112,168733,1,8,0:0:0:0:
256,180,169094,1,2,0:3:0:0:
296,208,169275,1,2,0:3:0:0:
332,236,169456,6,0,B|348:268|396:280|396:280|440:248|436:204,1,160,4|8,0:1|0:0,0:0:0:0:
432,120,170540,2,0,L|404:52,1,40,2|2,0:0|0:0,0:0:0:0:
400,40,170902,5,8,0:1:0:0:
305,21,171263,1,0,0:0:0:0:
234,86,171625,1,8,0:0:0:0:
261,177,171986,1,8,0:1:0:0:
297,265,172348,2,0,B|355:238|355:166|355:166|427:166|427:166|428:242|508:272,1,320,4|2,0:0|0:0,0:0:0:0:
471,74,174517,1,4,0:0:0:0:
279,55,175240,6,0,L|179:56,1,80,4|8,0:1|0:1,0:0:0:0:
150,55,175783,1,8,0:1:0:0:
102,57,175963,2,0,P|60:73|29:174,1,120,8|2,0:0|0:0,0:0:0:0:
23,183,176686,1,8,0:1:0:0:
84,256,177048,1,8,0:1:0:0:
132,336,177409,6,0,P|170:292|152:192,1,160,8|8,0:0|0:1,0:0:0:0:
124,108,178494,1,2,0:0:0:0:
220,103,178856,2,0,L|340:63,2,120,8|2|8,0:0|0:0|0:1,0:0:0:0:
124,108,180302,1,8,0:0:0:0:
107,202,180663,1,2,0:3:0:0:
184,260,181025,6,0,P|256:284|284:352,1,120,2|8,0:0|0:1,0:0:0:0:
316,348,181748,1,8,0:0:0:0:
404,308,182109,1,2,0:0:0:0:
344,232,182471,2,0,P|332:180|364:116,1,120,8|8,0:1|0:1,0:0:0:0:
368,72,183194,2,0,L|256:72,1,80,8|8,0:0|0:1,0:0:0:0:
192,72,183917,6,0,P|136:104|120:200,1,160,8|8,0:1|0:0,0:0:0:0:
212,168,185002,2,0,L|212:220,1,40,2|2,0:0|0:0,0:0:0:0:
224,256,185363,2,0,P|312:240|384:260,1,160,8|8,0:1|0:0,0:0:0:0:
472,284,186448,1,2,0:3:0:0:
476,188,186809,6,0,P|464:116|376:72,1,160,4|8,0:1|0:0,0:0:0:0:
308,112,187894,2,0,L|244:112,1,40,2|2,0:0|0:0,0:0:0:0:
220,112,188255,2,0,B|200:160|200:160|212:216|212:216|184:284,1,160,8|8,0:1|0:0,0:0:0:0:
248,340,189340,1,8,0:1:0:0:
336,304,189702,6,0,P|372:288|400:248,2,80,8|2|8,0:1|0:0|0:0,0:0:0:0:
248,340,190786,1,2,0:0:0:0:
200,256,191148,2,0,B|148:244|132:200|132:200|60:200,1,160,8|8,0:1|0:0,0:0:0:0:
24,112,192232,1,2,0:3:0:0:
120,108,192594,6,0,P|176:40|200:104,1,160,2|8,0:0|0:0,0:0:0:0:
272,140,193678,2,0,L|328:192,1,40,2|2,0:0|0:0,0:0:0:0:
332,204,194040,2,0,P|372:284|336:356,1,160,8|8,0:1|0:0,0:0:0:0:
280,280,195125,1,8,0:1:0:0:
212,344,195486,2,0,P|188:270|227:203,1,160,8|8,0:1|0:0,0:0:0:0:
360,68,196932,6,0,B|336:108|336:108|368:156|368:156|336:204|336:204|364:232|372:248|376:284|380:324|332:356,1,320,4|4,0:0|0:1,0:0:0:0:
256,188,201271,5,4,0:0:0:0:
256,228,212840,6,0,P|272:288|356:328,1,160,4|8,0:1|0:0,0:0:0:0:
352,232,213924,2,0,L|384:164,1,40,2|2,0:0|0:0,0:0:0:0:
384,148,214286,2,0,P|368:88|284:48,1,160,8|8,0:1|0:0,0:0:0:0:
92,64,215732,2,0,L|136:160,1,80,4|2,0:0|0:0,0:0:0:0:
100,228,216455,2,0,L|152:340,2,120,8|2|8,0:0|0:0|0:1,0:0:0:0:
156,148,217901,1,8,0:0:0:0:
244,188,218263,2,0,L|300:160,1,40,2|2,0:3|0:3,0:0:0:0:
324,148,218624,6,0,P|388:176|420:260,1,160,2|8,0:0|0:0,0:0:0:0:
356,328,219709,2,0,L|312:344,1,40,2|2,0:0|0:0,0:0:0:0:
272,356,220070,2,0,B|216:308|216:308|128:304,1,160,8|8,0:1|0:0,0:0:0:0:
52,128,221517,6,0,B|84:88|84:88|144:112|200:88,2,160,8|8|8,0:1|0:0|0:1,0:0:0:0:
116,200,223324,1,4,0:0:0:0:
72,284,223686,2,0,P|120:296|172:276,1,80,2|2,0:0|0:0,0:0:0:0:
232,244,224409,6,0,P|276:300|372:296,1,160,4|8,0:1|0:0,0:0:0:0:
324,216,225493,1,2,0:0:0:0:
348,172,225674,1,2,0:0:0:0:
368,128,225855,2,0,P|324:72|228:76,1,160,8|8,0:1|0:0,0:0:0:0:
160,120,226939,2,0,L|128:176,1,40,8|8,0:1|0:1,0:0:0:0:
140,204,227301,6,0,L|88:296,1,80,8|2,0:1|0:0,0:0:0:0:
196,284,228024,2,0,L|288:336,1,80,8|2,0:0|0:0,0:0:0:0:
312,340,228566,1,2,0:0:0:0:
312,340,228747,2,0,L|384:272,1,80,4|8,0:0|0:1,0:0:0:0:
460,256,229470,2,0,P|444:224|376:196,1,80,8|2,0:0|0:3,0:0:0:0:
364,184,230013,1,2,0:3:0:0:
364,184,230193,6,0,P|348:132|244:96,1,160,2|8,0:0|0:0,0:0:0:0:
268,188,231278,2,0,L|228:216,1,40,2|2,0:0|0:0,0:0:0:0:
200,240,231639,2,0,B|164:224|164:224|104:264|104:264|32:240,1,160,8|8,0:1|0:0,0:0:0:0:
92,160,232724,1,8,0:1:0:0:
60,68,233086,6,0,P|108:64|144:80,1,80,4|2,0:0|0:0,0:0:0:0:
228,112,233809,1,8,0:0:0:0:
292,40,234170,2,0,B|320:60|328:88|336:132|308:172|308:172|332:208|332:208|312:272,1,240,2|8,0:0|0:0,0:0:0:0:
252,328,235616,1,0,0:0:0:0:
160,300,235978,6,0,P|88:264|76:172,2,160,4|8|8,0:1|0:0|0:1,0:0:0:0:
164,204,237785,1,8,0:1:0:0:
176,108,238147,2,0,L|236:40,1,80,8|8,0:0|0:1,0:0:0:0:
324,44,238870,6,0,P|404:68|436:164,1,160,4|8,0:0|0:0,0:0:0:0:
340,140,239955,1,2,0:0:0:0:
248,172,240316,2,0,P|200:176|164:160,1,80,8|8,0:1|0:1,0:0:0:0:
216,80,241039,5,8,0:0:0:0:
120,76,241401,1,2,0:3:0:0:
84,164,241762,2,0,P|100:240|176:284,1,160,2|8,0:0|0:0,0:0:0:0:
256,316,242847,1,2,0:0:0:0:
346,282,243208,6,0,P|411:240|436:164,1,160,8|8,0:1|0:0,0:0:0:0:
348,128,244293,1,0,0:0:0:0:
276,64,244655,2,0,B|243:92|243:140|255:180|283:204|283:204|259:228|237:255|249:315|256:316,1,280,8|4,0:1|0:0,0:0:0:0:
56,184,246824,1,8,0:0:0:0:
0,108,247185,2,0,L|12:44,1,40,2|2,0:3|0:3,0:0:0:0:
36,32,247547,6,0,B|100:52|100:52|192:52,1,160,4|8,0:1|0:0,0:0:0:0:
288,64,248631,2,0,L|340:88,1,40,2|2,0:0|0:0,0:0:0:0:
368,100,248993,1,8,0:1:0:0:
448,272,249716,2,0,P|408:280|360:268,1,80,8|8,0:0|0:1,0:0:0:0:
256,192,250439,12,2,253331,0:0:0:0:
416,264,259116,6,0,P|456:220|452:144,2,120,4|2|2,0:3|0:0|0:0,0:0:0:0:
320,264,260562,2,0,P|280:220|284:144,2,120,2|2|2,0:0|0:0|0:0,0:0:0:0:
416,264,262008,6,0,P|456:220|452:144,1,120,4|2,0:3|0:0,0:0:0:0:
424,72,262912,1,0,0:0:0:0:
328,72,263274,2,0,P|288:72|240:116,1,80,4|2,0:0|0:0,0:0:0:0:
180,152,263997,2,0,P|146:172|106:172,1,80,2|2,0:0|0:0,0:0:0:0:
52,304,264900,6,0,P|168:308|168:272,1,160,4|2,0:1|0:0,0:0:0:0:
256,264,265985,1,2,0:0:0:0:
344,304,266347,2,0,P|460:308|460:272,1,160,2|2,0:0|0:0,0:0:0:0:
492,216,267431,1,2,0:0:0:0:
420,152,267793,6,0,B|384:116|384:116|324:100|324:100|288:52,2,160,4|2|2,0:3|0:0|0:0,0:0:0:0:
368,288,269781,1,2,0:0:0:0:
324,308,269962,2,0,L|256:340,1,40,0|2,0:0|0:0,0:0:0:0:
240,328,270323,2,0,L|168:328,1,40,0|2,0:0|0:0,0:0:0:0:
152,324,270685,6,0,P|104:268|176:200,1,160,4|2,0:3|0:0,0:0:0:0:
232,164,271770,1,2,0:0:0:0:
327,160,272131,2,0,B|374:191|374:191|335:240|374:299,1,160,2|2,0:0|0:0,0:0:0:0:
444,344,273216,1,2,0:0:0:0:
256,192,273577,12,4,276470,0:3:0:0:
