osu file format v14

[General]
AudioFilename: Wise Kana Nishino - By Your Side Feat. Kana Nishino.mp3
AudioLeadIn: 0
PreviewTime: 70034
Countdown: 0
SampleSet: Soft
StackLeniency: 0.7
Mode: 0
LetterboxInBreaks: 0
EpilepsyWarning: 1
WidescreenStoryboard: 1

[Editor]
DistanceSpacing: 0.6
BeatDivisor: 8
GridSize: 4
TimelineZoom: 1.6

[Metadata]
Title:By your side feat. Kana Nishino
TitleUnicode:By your side feat. 西野カナ
Artist:WISE
ArtistUnicode:WISE
Creator:Modem
Version:By my side
Source:
Tags:UNIVERSAL MUSIC JAPAN J-Pop 10nya -_t_e_n_n_y_a_- Kanari
BeatmapID:802200
BeatmapSetID:365247

[Difficulty]
HPDrainRate:7.5
CircleSize:4
OverallDifficulty:7
ApproachRate:8.5
SliderMultiplier:2.2
SliderTickRate:1

[Events]
//Background and Video events
0,0,"bg2.jpg",0,0
//Break Periods
2,198578,200596
2,253531,257537
//Storyboard Layer 0 (Background)
//Storyboard Layer 1 (Fail)
//Storyboard Layer 2 (Pass)
//Storyboard Layer 3 (Foreground)
//Storyboard Sound Samples

[TimingPoints]
1705,723.065798987708,4,2,1,20,1,0
2066,-125,4,2,2,40,0,0
2518,-125,4,2,1,5,0,0
2608,-125,4,2,2,40,0,0
4416,-125,4,2,2,30,0,0
4958,-125,4,2,2,40,0,0
5410,-125,4,2,1,10,0,0
5501,-125,4,2,2,40,0,0
5772,-125,4,2,1,5,0,0
5862,-200,4,2,2,40,0,0
6495,-200,4,2,2,5,0,0
6585,-200,4,2,2,40,0,0
7489,-125,4,2,2,40,0,0
11918,-125,4,2,2,10,0,0
12008,-125,4,2,2,40,0,0
12279,-125,4,2,2,10,0,0
12370,-125,4,2,2,40,0,0
12641,-125,4,2,2,10,0,0
12731,-200,4,2,2,40,0,0
13274,-200,4,2,2,30,0,0
13635,-142.857142857143,4,2,2,40,0,0
15352,-142.857142857143,4,2,2,10,0,0
15443,-142.857142857143,4,2,2,40,0,0
21950,-142.857142857143,4,2,1,20,0,0
22493,-142.857142857143,4,2,1,25,0,0
23035,-142.857142857143,4,2,1,30,0,0
23577,-142.857142857143,4,2,1,35,0,0
24120,-142.857142857143,4,2,1,40,0,0
24843,-100,4,2,1,40,0,0
30085,-100,4,2,1,20,0,0
30627,-100,4,2,1,40,0,0
36412,-100,4,2,1,30,0,0
36773,-100,4,2,1,40,0,0
41654,-100,4,2,1,20,0,0
42196,-100,4,2,1,40,0,0
43462,-100,4,2,2,40,0,0
43823,-100,4,2,1,40,0,0
44908,-100,4,2,2,40,0,0
45269,-100,4,2,1,40,0,0
59098,-100,4,2,1,10,0,0
59188,-100,4,2,1,40,0,0
59459,-100,4,2,1,10,0,0
59550,-100,4,2,1,40,0,0
65244,-100,4,2,1,10,0,0
65334,-100,4,2,1,40,0,0
70034,-100,4,2,2,40,0,0
71119,-83.3333333333333,4,2,1,50,0,1
75457,-83.3333333333333,4,2,2,50,0,1
75728,-83.3333333333333,4,2,2,10,0,1
75819,-83.3333333333333,4,2,2,50,0,1
76090,-83.3333333333333,4,2,2,10,0,1
76180,-83.3333333333333,4,2,1,50,0,1
76361,-83.3333333333333,4,2,1,25,0,1
76903,-83.3333333333333,4,2,1,50,0,1
79796,-83.3333333333333,4,2,2,50,0,1
79976,-83.3333333333333,4,2,1,50,0,1
82507,-83.3333333333333,4,2,1,50,0,0
82688,-83.3333333333333,4,2,1,50,0,1
85580,-83.3333333333333,4,2,2,50,0,1
85761,-83.3333333333333,4,2,1,50,0,1
87930,-83.3333333333333,4,2,1,25,0,1
88472,-83.3333333333333,4,2,1,50,0,1
91545,-83.3333333333333,4,2,1,50,0,1
92630,-83.3333333333333,4,2,2,50,0,1
93534,-83.3333333333333,4,2,1,30,0,1
93715,-83.3333333333333,4,2,1,25,0,1
94167,-83.3333333333333,4,2,1,25,0,0
94257,-83.3333333333333,4,2,1,40,0,1
94980,-83.3333333333333,4,2,1,50,0,1
97149,-83.3333333333333,4,2,2,30,0,0
97782,-83.3333333333333,4,2,2,10,0,0
97872,-100,4,2,1,30,0,0
98505,-100,4,2,1,10,0,0
98595,-125,4,2,1,30,0,0
99228,-125,4,2,1,10,0,0
99318,-166.666666666667,4,2,1,30,0,0
99951,-166.666666666667,4,2,1,10,0,0
100041,-100,4,2,1,40,0,0
102482,-100,4,2,1,10,0,0
102572,-100,4,2,1,40,0,0
102843,-100,4,2,1,10,0,0
102934,-100,4,2,1,40,0,0
104651,-100,4,2,1,10,0,0
104741,-100,4,2,1,40,0,0
105284,-100,4,2,1,20,0,0
105826,-100,4,2,1,40,0,0
115949,-200,4,2,2,10,0,0
117033,-200,4,2,2,30,0,0
117305,-200,4,2,1,10,0,0
117395,-100,4,2,1,40,0,0
118660,-100,4,2,2,40,0,0
119022,-100,4,2,1,40,0,0
120107,-100,4,2,2,40,0,0
120468,-100,4,2,1,40,0,0
129597,-100,4,2,1,10,0,0
129687,-100,4,2,1,40,0,0
134297,-100,4,2,1,10,0,0
134387,-100,4,2,1,40,0,0
134658,-100,4,2,1,10,0,0
134749,-100,4,2,1,40,0,0
145233,-100,4,2,2,40,0,0
146318,-80,4,2,1,50,0,1
150656,-80,4,2,2,50,0,1
150927,-80,4,2,1,10,0,1
151018,-80,4,2,2,50,0,1
151289,-80,4,2,1,10,0,1
151379,-80,4,2,1,50,0,1
151650,-80,4,2,1,25,0,1
152102,-80,4,2,1,50,0,1
154994,-80,4,2,2,50,0,1
155175,-80,4,2,1,50,0,1
157706,-80,4,2,1,10,0,0
157887,-80,4,2,1,50,0,1
160779,-80,4,2,2,50,0,1
160960,-80,4,2,1,50,0,1
163129,-80,4,2,1,25,0,1
163671,-80,4,2,1,50,0,1
167829,-80,4,2,2,50,0,1
168733,-80,4,2,1,50,0,1
168913,-80,4,2,1,25,0,1
169365,-80,4,2,1,10,0,0
169456,-80,4,2,1,50,0,1
172348,-80,4,2,1,10,0,0
174517,-80,4,2,2,80,0,0
175240,-100,4,2,1,40,0,0
178042,-100,4,2,1,10,0,0
178133,-100,4,2,1,40,0,0
180483,-100,4,2,1,20,0,0
181025,-100,4,2,1,40,0,0
192052,-100,4,2,1,20,0,0
192594,-100,4,2,1,40,0,0
196842,-100,4,2,1,10,0,0
196932,-200,4,2,1,40,0,0
201271,-142.857142857143,4,2,1,40,0,0
205609,-142.857142857143,4,2,3,50,0,0
206332,-142.857142857143,4,2,1,40,0,0
209947,-142.857142857143,4,2,2,50,0,0
210309,-142.857142857143,4,2,1,40,0,0
211394,-100,4,2,1,40,0,0
215732,-100,4,2,2,40,0,0
215913,-100,4,2,1,40,0,0
218082,-100,4,2,1,20,0,0
218624,-100,4,2,1,40,0,0
223324,-100,4,2,2,40,0,0
224409,-76.9230769230769,4,2,1,55,0,1
228747,-76.9230769230769,4,2,2,55,0,1
228928,-76.9230769230769,4,2,1,55,0,1
229741,-76.9230769230769,4,2,1,30,0,1
230193,-76.9230769230769,4,2,1,55,0,1
233086,-76.9230769230769,4,2,2,55,0,1
233266,-76.9230769230769,4,2,1,55,0,1
235797,-76.9230769230769,4,2,1,55,0,0
235978,-76.9230769230769,4,2,1,55,0,1
238870,-76.9230769230769,4,2,2,55,0,1
239051,-76.9230769230769,4,2,1,55,0,1
241220,-76.9230769230769,4,2,1,30,0,1
241762,-76.9230769230769,4,2,1,55,0,1
245920,-76.9230769230769,4,2,2,55,0,1
246824,-76.9230769230769,4,2,1,55,0,1
247005,-76.9230769230769,4,2,1,30,0,1
247456,-76.9230769230769,4,2,1,30,0,0
247547,-76.9230769230769,4,2,1,55,0,1
250439,-76.9230769230769,4,2,1,10,0,0
253331,-76.9230769230769,4,2,1,30,0,0
258212,-166.666666666667,4,2,2,40,0,0
261195,-166.666666666667,4,2,1,10,0,0
261285,-166.666666666667,4,2,2,40,0,0
264900,-166.666666666667,4,2,2,30,0,0
265262,-166.666666666667,4,2,2,40,0,0
273577,-100,4,2,2,30,0,0

[Colours]
Combo1 : 255,176,138
Combo2 : 255,128,255
Combo3 : 255,128,192
Combo4 : 192,192,192
Combo5 : 151,203,255
Combo6 : 182,255,108
SliderBorder : 255,255,255

[HitObjects]
76,80,1705,5,4,0:1:0:0:
76,80,2066,1,0,0:0:0:0:
48,184,2247,2,0,L|60:256,1,66,2|0,0:0|0:0,0:0:0:0:
84,284,2608,2,0,P|116:252|168:244,1,88,2|2,0:0|0:0,0:0:0:0:
336,324,3151,1,0,0:0:0:0:
336,324,3693,2,0,L|324:224,1,88,2|2,0:0|0:0,0:0:0:0:
464,48,4416,1,4,0:3:0:0:
356,72,4597,6,0,P|328:112|280:124,1,88,4|0,0:3|0:0,0:0:0:0:
168,92,5139,2,0,L|128:168,1,66,2|0,0:0|0:0,0:0:0:0:
144,196,5501,2,0,L|104:272,1,66,2|0,0:0|0:0,0:0:0:0:
132,304,5862,6,0,P|184:304|224:336,1,96.25,2|2,0:0|0:0,0:0:0:0:
264,352,6585,1,2,0:0:0:0:
384,312,6766,1,2,0:0:0:0:
314,201,6947,1,0,0:0:0:0:
435,250,7127,1,2,0:0:0:0:
309,281,7308,1,0,0:0:0:0:
393,181,7489,6,0,P|416:116|380:56,1,132,4|2,0:3|0:0,0:0:0:0:
236,132,8393,1,2,0:0:0:0:
100,244,8754,1,2,0:0:0:0:
56,312,8935,2,0,P|120:324|176:276,1,132,0|2,0:0|0:0,0:0:0:0:
236,132,9839,1,2,0:0:0:0:
440,168,10201,1,2,0:0:0:0:
440,168,10381,6,0,P|420:224|340:260,1,132,2|2,0:0|0:0,0:0:0:0:
236,132,11285,1,2,0:0:0:0:
60,128,11647,2,0,P|52:160|64:208,1,66,4|0,0:0|0:0,0:0:0:0:
84,228,12008,2,0,P|116:236|164:224,1,66,2|0,0:0|0:0,0:0:0:0:
180,200,12370,2,0,L|232:260,1,66,2|0,0:0|0:0,0:0:0:0:
268,252,12731,6,0,P|300:264|328:312,1,82.5,2|4,0:0|0:1,0:0:0:0:
444,204,13635,2,0,L|476:132,1,76.9999976501466,0|2,0:0|0:0,0:0:0:0:
360,28,14358,1,2,0:0:0:0:
208,64,14720,2,0,P|152:96|152:172,1,134.749995887756,2|0,0:0|0:0,0:0:0:0:
132,200,15443,2,0,L|108:244,1,38.4999988250733,2|0,0:0|0:0,0:0:0:0:
164,344,15804,2,0,L|183:311,1,38.4999988250733,2|0,0:0|0:0,0:0:0:0:
388,340,16166,5,4,0:3:0:0:
388,340,16527,2,0,L|396:292,1,38.4999988250733,0|2,0:0|0:0,0:0:0:0:
324,192,16889,2,0,L|317:229,1,38.4999988250733,2|0,0:0|0:0,0:0:0:0:
216,332,17250,2,0,L|224:284,1,38.4999988250733,2|0,0:0|0:0,0:0:0:0:
128,128,17612,5,2,0:0:0:0:
144,128,18154,1,2,0:0:0:0:
204,66,18335,1,0,0:0:0:0:
177,207,18516,1,2,0:0:0:0:
118,49,18697,1,0,0:0:0:0:
238,146,18877,1,2,0:0:0:0:
90,191,19058,6,0,P|47:199|6:178,1,76.9999976501466,4|2,0:3|0:0,0:0:0:0:
56,115,19600,1,0,0:0:0:0:
118,49,19781,2,0,L|208:28,1,76.9999976501466,2|0,0:0|0:0,0:0:0:0:
276,32,20323,1,2,0:0:0:0:
364,132,20504,2,0,L|289:114,1,76.9999976501466,2|0,0:0|0:0,0:0:0:0:
208,148,21047,1,0,0:0:0:0:
148,256,21227,5,2,0:0:0:0:
264,200,21408,1,0,0:0:0:0:
140,180,21589,1,2,0:0:0:0:
228,268,21770,1,0,0:0:0:0:
200,96,21950,5,2,0:3:0:0:
272,32,22131,1,2,0:3:0:0:
200,104,22493,5,2,0:0:0:0:
292,112,22674,1,2,0:0:0:0:
200,112,23035,5,2,0:0:0:0:
308,192,23216,1,2,0:0:0:0:
200,120,23577,5,2,0:0:0:0:
320,272,23758,1,2,0:0:0:0:
200,128,24120,5,2,0:0:0:0:
332,352,24300,1,2,0:0:0:0:
200,136,24662,5,2,0:0:0:0:
168,268,24843,6,0,P|104:236|84:180,1,110,4|8,0:1|0:1,0:0:0:0:
52,120,25385,1,0,0:0:0:0:
124,60,25566,2,0,L|196:32,1,55,8|2,0:0|0:3,0:0:0:0:
288,128,25927,2,0,L|216:100,1,55,2|2,0:0|0:0,0:0:0:0:
168,268,26289,5,8,0:1:0:0:
240,200,26470,1,0,0:0:0:0:
104,232,26650,2,0,P|96:276|132:332,2,110,8|8|8,0:1|0:0|0:1,0:0:0:0:
288,268,27735,5,8,0:1:0:0:
376,236,27916,2,0,L|348:184,1,55,2|2,0:0|0:0,0:0:0:0:
312,100,28277,1,8,0:1:0:0:
220,112,28458,2,0,P|164:120|144:132,1,55,8|8,0:0|0:1,0:0:0:0:
128,240,28819,2,0,P|120:184|108:164,1,55,2|2,0:0|0:0,0:0:0:0:
64,280,29181,6,0,P|112:316|172:300,1,110,8|8,0:1|0:1,0:0:0:0:
212,232,29723,1,2,0:0:0:0:
300,260,29904,1,8,0:0:0:0:
388,296,30085,1,2,0:1:0:0:
392,284,30175,1,2,0:1:0:0:
396,272,30266,1,2,0:1:0:0:
400,260,30356,1,2,0:1:0:0:
404,248,30446,1,2,0:1:0:0:
408,236,30537,1,2,0:1:0:0:
412,224,30627,6,0,P|424:156|392:112,1,110,2|0,0:0|0:0,0:0:0:0:
204,196,31350,2,0,L|152:224,1,55,8|2,0:0|0:3,0:0:0:0:
276,268,31712,2,0,L|328:296,1,55,2|2,0:0|0:0,0:0:0:0:
200,356,32073,1,8,0:1:0:0:
96,272,32254,1,0,0:0:0:0:
200,252,32435,1,8,0:1:0:0:
108,360,32616,1,0,0:0:0:0:
152,192,32796,6,0,P|208:176|256:200,1,110,8|8,0:0|0:1,0:0:0:0:
232,340,33339,1,0,0:0:0:0:
336,220,33519,1,8,0:1:0:0:
200,252,33700,1,2,0:0:0:0:
348,316,33881,1,2,0:0:0:0:
332,128,34062,1,8,0:1:0:0:
299,266,34242,5,8,0:0:0:0:
428,228,34423,1,8,0:1:0:0:
312,144,34604,1,2,0:0:0:0:
308,360,34785,1,2,0:0:0:0:
308,360,35146,5,8,0:1:0:0:
220,320,35326,1,0,0:0:0:0:
212,220,35507,1,8,0:1:0:0:
292,164,35689,2,0,P|312:214|299:267,1,110,8|2,0:0|0:3,0:0:0:0:
220,320,36231,1,2,0:3:0:0:
174,170,36412,6,0,P|178:116|215:76,1,110,4|8,0:1|0:1,0:0:0:0:
292,164,36954,1,0,0:0:0:0:
256,256,37135,2,0,L|292:320,1,55,8|2,0:0|0:3,0:0:0:0:
346,153,37496,2,0,L|292:164,1,55,2|2,0:0|0:0,0:0:0:0:
160,256,37858,1,8,0:1:0:0:
204,112,38039,1,0,0:0:0:0:
234,286,38219,1,8,0:1:0:0:
128,152,38400,1,0,0:0:0:0:
145,333,38581,6,0,P|181:333|237:277,1,110,8|8,0:0|0:1,0:0:0:0:
284,208,39123,1,8,0:1:0:0:
240,124,39304,2,0,P|196:120|172:132,1,55,0|2,0:0|0:0,0:0:0:0:
120,56,39665,2,0,P|96:88|96:124,1,55,2|8,0:0|0:1,0:0:0:0:
8,140,40027,2,0,P|32:176|64:184,1,55,8|8,0:0|0:1,0:0:0:0:
132,224,40389,1,2,0:0:0:0:
132,224,40569,1,2,0:0:0:0:
220,324,40750,6,0,L|252:208,1,110,8|8,0:1|0:1,0:0:0:0:
304,144,41292,1,2,0:0:0:0:
384,92,41473,2,0,L|400:156,1,55,8|8,0:0|0:1,0:0:0:0:
400,160,41744,1,2,0:1:0:0:
404,172,41835,1,2,0:1:0:0:
408,184,41925,1,2,0:1:0:0:
412,196,42015,1,2,0:1:0:0:
416,208,42106,1,2,0:1:0:0:
420,220,42196,6,0,P|432:284|388:332,1,110,2|8,0:0|0:1,0:0:0:0:
240,352,42738,1,0,0:0:0:0:
300,268,42919,2,0,P|328:260|376:268,1,55,8|2,0:0|0:3,0:0:0:0:
340,340,43281,1,2,0:0:0:0:
260,208,43462,2,0,P|316:188|388:196,1,110,4|8,0:0|0:1,0:0:0:0:
216,268,44004,2,0,P|188:228|200:164,2,110,8|8|8,0:1|0:0|0:1,0:0:0:0:
300,312,44908,2,8,L|363:222,1,110,4|2,0:0|0:0,0:0:0:0:
357,133,45450,2,0,P|305:97|241:113,2,110,2|8|2,0:0|0:0|0:0,0:0:0:0:
416,208,46354,1,2,0:0:0:0:
257,268,46535,5,0,0:0:0:0:
237,280,46896,1,0,0:3:0:0:
193,156,47077,1,2,0:0:0:0:
125,324,47258,1,8,0:0:0:0:
105,336,47619,1,2,0:3:0:0:
172,166,47800,1,2,0:3:0:0:
85,344,47981,6,0,P|-15:316|13:216,1,220,4|8,0:1|0:0,0:0:0:0:
36,132,48885,1,2,0:3:0:0:
120,92,49065,2,0,L|144:20,1,55,2|2,0:0|0:0,0:0:0:0:
192,116,49427,2,0,L|216:188,1,55,8|0,0:1|0:0,0:0:0:0:
120,92,49788,2,0,P|152:52|220:44,1,110,8|8,0:1|0:0,0:0:0:0:
368,140,50511,1,8,0:1:0:0:
316,320,50873,6,0,L|256:356,1,55,8|2,0:1|0:0,0:0:0:0:
216,268,51235,2,0,P|168:240|164:168,1,110,2|8,0:0|0:0,0:0:0:0:
268,40,51958,1,2,0:0:0:0:
268,40,52138,1,2,0:0:0:0:
316,120,52319,2,0,L|348:184,1,55,8|2,0:1|0:3,0:0:0:0:
224,324,52861,1,2,0:3:0:0:
216,312,52952,1,2,0:3:0:0:
208,300,53042,2,0,L|183:250,1,55,8|0,0:0|0:0,0:0:0:0:
140,168,53404,1,2,0:3:0:0:
328,160,53765,6,0,P|404:164|376:64,1,192.5,4|0,0:0|0:0,0:0:0:0:
352,60,54488,2,0,P|300:60|284:76,1,55,8|2,0:0|0:3,0:0:0:0:
240,132,54850,2,0,P|240:184|252:200,1,55,2|2,0:0|0:0,0:0:0:0:
296,260,55211,1,8,0:1:0:0:
296,260,55573,1,8,0:1:0:0:
296,260,55934,6,0,P|236:272|176:244,1,110,8|8,0:0|0:1,0:0:0:0:
100,252,56477,1,0,0:0:0:0:
200,132,56658,1,8,0:1:0:0:
72,132,56838,1,2,0:0:0:0:
116,224,57019,1,2,0:0:0:0:
136,68,57200,1,8,0:1:0:0:
136,196,57381,5,8,0:0:0:0:
220,44,57561,1,0,0:0:0:0:
52,44,57742,2,0,L|-4:20,2,55,2|2|8,0:0|0:0|0:1,0:0:0:0:
340,352,58827,2,0,P|336:308|364:268,1,82.5,8|0,0:0|0:0,0:0:0:0:
396,260,59188,2,0,L|336:188,1,82.5,8|0,0:0|0:0,0:0:0:0:
328,152,59550,6,0,P|404:136|380:68,1,165,4|0,0:1|0:0,0:0:0:0:
244,112,60273,1,8,0:0:0:0:
300,32,60454,1,2,0:3:0:0:
328,152,60634,2,0,L|312:224,1,55,2|2,0:0|0:0,0:0:0:0:
228,236,60996,1,8,0:1:0:0:
144,348,61177,1,8,0:3:0:0:
128,248,61357,1,2,0:0:0:0:
128,248,61719,6,0,P|144:176|120:132,1,110,8|0,0:0|0:0,0:0:0:0:
280,32,62442,2,0,L|348:60,1,55,8|2,0:1|0:0,0:0:0:0:
328,152,62804,2,0,L|396:140,1,55,2|0,0:0|0:0,0:0:0:0:
304,220,63165,2,0,P|268:192|264:120,1,110,8|0,0:0|0:0,0:0:0:0:
284,36,63707,1,2,0:0:0:0:
284,36,64069,1,2,0:0:0:0:
368,156,64250,1,2,0:0:0:0:
408,40,64430,1,2,0:0:0:0:
296,116,64611,5,8,0:0:0:0:
168,213,64792,2,0,P|148:141|192:93,1,137.5,2|0,0:0|0:0,0:0:0:0:
220,161,65334,2,0,P|228:257|116:265,1,220,2|8,0:0|0:0,0:0:0:0:
32,276,66238,1,8,0:1:0:0:
96,340,66419,2,0,P|132:356|156:360,1,55,2|2,0:0|0:0,0:0:0:0:
240,352,66780,2,0,P|292:332|360:348,1,110,8|0,0:1|0:0,0:0:0:0:
240,352,67503,2,0,P|208:288|236:192,1,165,8|8,0:0|0:1,0:0:0:0:
424,176,68227,5,8,0:1:0:0:
296,136,68407,1,2,0:0:0:0:
380,92,68588,1,2,0:0:0:0:
344,216,68769,1,8,0:1:0:0:
304,48,68950,1,8,0:0:0:0:
160,144,69130,1,8,0:1:0:0:
48,44,69311,2,0,L|120:28,1,55,2|2,0:0|0:0,0:0:0:0:
268,144,69673,5,8,0:1:0:0:
104,204,70034,1,4,0:0:0:0:
112,252,70396,1,2,0:0:0:0:
148,284,70757,1,2,0:0:0:0:
192,296,71119,6,0,P|226:252|304:235,1,131.99999597168,4|8,0:1|0:1,0:0:0:0:
288,344,71661,1,0,0:0:0:0:
192,296,71842,2,0,L|164:232,1,65.9999979858399,8|2,0:0|0:3,0:0:0:0:
248,104,72203,2,0,L|234:168,1,65.9999979858399,2|2,0:0|0:0,0:0:0:0:
364,316,72565,2,0,B|388:288|376:248|376:248|384:224|384:224|376:168,2,131.99999597168,8|0|8,0:1|0:0|0:0,0:0:0:0:
160,224,73650,2,0,L|124:168,1,65.9999979858399,8|0,0:1|0:1,0:0:0:0:
104,268,74011,6,0,P|152:296|188:288,1,65.9999979858399,8|2,0:1|0:0,0:0:0:0:
216,180,74373,2,0,B|176:116|176:116|124:84,1,131.99999597168,2|8,0:0|0:0,0:0:0:0:
160,295,75096,2,0,L|204:359,1,65.9999979858399,2|2,0:0|0:0,0:0:0:0:
272,260,75457,2,0,P|312:240|384:252,1,98.9999969787599,4|0,0:0|0:0,0:0:0:0:
400,288,75819,2,0,L|420:184,1,98.9999969787599,2|0,0:0|0:0,0:0:0:0:
468,164,76180,2,0,L|456:96,1,65.9999979858399,8|0,0:0|0:0,0:0:0:0:
448,84,76451,1,2,0:1:0:0:
432,76,76542,1,2,0:1:0:0:
416,72,76632,1,2,0:1:0:0:
400,76,76723,1,2,0:1:0:0:
388,84,76813,1,2,0:1:0:0:
376,92,76903,6,0,P|308:84|252:40,1,131.99999597168,2|0,0:0|0:0,0:0:0:0:
156,72,77446,1,8,0:1:0:0:
80,167,77626,2,0,P|112:171|144:161,1,65.9999979858399,8|2,0:0|0:3,0:0:0:0:
248,148,77988,1,2,0:0:0:0:
324,232,78169,1,2,0:0:0:0:
226,248,78349,2,0,P|168:220|144:161,1,131.99999597168,8|0,0:1|0:0,0:0:0:0:
248,148,78892,1,0,0:0:0:0:
360,168,79073,2,0,P|420:140|444:72,1,131.99999597168,8|0,0:0|0:0,0:0:0:0:
336,60,79615,1,8,0:1:0:0:
152,56,79796,6,0,P|116:76|96:124,1,65.9999979858399,4|2,0:0|0:0,0:0:0:0:
148,200,80157,2,0,B|108:220|108:220|8:180,2,131.99999597168,2|8|2,0:0|0:0|0:0,0:0:0:0:
252,248,81061,1,2,0:0:0:0:
252,248,81423,1,2,0:0:0:0:
332,288,81603,1,2,0:0:0:0:
320,208,81784,1,2,0:0:0:0:
252,248,81965,5,8,0:0:0:0:
396,228,82146,1,0,0:0:0:0:
312,128,82326,1,4,0:3:0:0:
332,288,82507,1,4,0:3:0:0:
384,104,82688,6,0,P|312:52|238:142,1,197.99999395752,4|0,0:1|0:0,0:0:0:0:
152,192,83411,2,0,P|132:164|124:132,1,65.9999979858399,8|2,0:0|0:3,0:0:0:0:
208,240,83772,2,0,P|180:260|120:260,1,65.9999979858399,2|2,0:0|0:0,0:0:0:0:
58,102,84134,2,0,P|110:62|178:82,2,131.99999597168,8|0|8,0:1|0:0|0:0,0:0:0:0:
208,240,85219,1,0,0:0:0:0:
296,308,85399,1,8,0:1:0:0:
399,259,85580,6,0,L|369:201,1,65.9999979858399,4|2,0:0|0:0,0:0:0:0:
304,86,85942,1,2,0:0:0:0:
303,86,86303,2,0,L|369:201,1,131.99999597168,8|2,0:0|0:0,0:0:0:0:
296,308,86845,1,2,0:0:0:0:
184,308,87026,1,8,0:1:0:0:
312,316,87207,1,0,0:0:0:0:
168,316,87388,2,0,P|144:264|176:188,1,131.99999597168,8|8,0:1|0:0,0:0:0:0:
148,48,87930,1,2,0:0:0:0:
164,56,88020,1,2,0:1:0:0:
180,60,88111,1,2,0:1:0:0:
196,60,88201,1,2,0:1:0:0:
212,56,88292,1,2,0:1:0:0:
228,48,88382,1,2,0:1:0:0:
240,40,88472,6,0,P|288:136|308:36,1,263.99999194336,2|8,0:0|0:0,0:0:0:0:
404,112,89376,2,0,L|476:164,1,65.9999979858399,2|2,0:3|0:0,0:0:0:0:
472,264,89738,2,0,L|364:184,1,131.99999597168,2|8,0:0|0:1,0:0:0:0:
284,108,90280,1,0,0:0:0:0:
284,108,90461,1,8,0:1:0:0:
284,108,90642,6,0,B|248:76|248:76|244:100|236:124|192:160|148:124|140:100|136:76|136:76|96:116,1,263.99999194336,8|8,0:0|0:1,0:0:0:0:
28,192,91545,1,2,0:0:0:0:
28,192,91726,1,2,0:0:0:0:
192,344,92088,2,0,P|240:304|248:220,1,131.99999597168,8|8,0:0|0:1,0:0:0:0:
236,128,92630,1,4,0:0:0:0:
236,128,93534,5,8,0:0:0:0:
335,141,93715,1,2,0:1:0:0:
335,141,93805,1,2,0:1:0:0:
335,141,93895,1,2,0:1:0:0:
335,141,93986,1,2,0:1:0:0:
335,141,94076,1,2,0:1:0:0:
335,141,94167,1,2,0:1:0:0:
335,141,94257,6,0,P|311:221|255:113,1,263.99999194336,4|8,0:1|0:0,0:0:0:0:
296,32,95161,1,2,0:3:0:0:
164,108,95342,2,0,P|148:168|152:192,1,65.9999979858399,2|2,0:0|0:0,0:0:0:0:
212,280,95703,2,0,P|264:300|344:284,2,131.99999597168,8|0|8,0:1|0:0|0:0,0:0:0:0:
164,88,96788,1,0,0:0:0:0:
164,108,97149,6,0,L|396:140,1,230.99999295044,4|0,0:0|0:0,0:0:0:0:
436,148,97872,6,0,L|244:188,1,192.5,8|0,0:1|0:0,0:0:0:0:
208,204,98595,6,0,L|368:228,1,154,8|0,0:1|0:0,0:0:0:0:
392,244,99318,6,0,L|264:268,1,115.49999647522,8|0,0:1|0:0,0:0:0:0:
228,276,100041,6,0,P|156:284|116:196,1,165,4|8,0:1|0:1,0:0:0:0:
140,60,100764,1,8,0:0:0:0:
48,128,100945,1,2,0:3:0:0:
236,120,101126,1,2,0:0:0:0:
236,120,101307,2,0,L|184:220,1,110,2|8,0:0|0:1,0:0:0:0:
228,300,101849,1,0,0:0:0:0:
416,280,102211,2,0,L|400:176,1,82.5,8|0,0:0|0:0,0:0:0:0:
440,172,102572,2,0,L|472:80,1,82.5,8|0,0:1|0:0,0:0:0:0:
480,48,102934,6,0,L|408:24,1,55,0|2,0:0|0:0,0:0:0:0:
356,92,103295,2,0,P|308:140|244:140,2,110,2|8|2,0:0|0:0|0:0,0:0:0:0:
272,52,104199,1,2,0:0:0:0:
188,92,104380,2,0,P|168:140|184:188,1,82.5,8|0,0:1|0:0,0:0:0:0:
208,200,104741,2,0,P|152:248|104:236,1,110,8|8,0:1|0:0,0:0:0:0:
60,172,105284,1,2,0:1:0:0:
56,160,105374,1,2,0:1:0:0:
52,148,105464,1,2,0:1:0:0:
48,136,105555,1,2,0:1:0:0:
44,124,105645,1,2,0:1:0:0:
40,112,105736,1,2,0:1:0:0:
36,100,105826,6,0,P|72:52|140:48,1,110,2|8,0:0|0:1,0:0:0:0:
208,200,106549,1,8,0:0:0:0:
356,272,106730,1,2,0:3:0:0:
292,160,106911,1,2,0:0:0:0:
252,292,107091,1,2,0:0:0:0:
364,176,107272,6,0,P|352:116|288:88,2,110,0|8|8,0:0|0:1|0:0,0:0:0:0:
252,292,108357,1,8,0:1:0:0:
252,292,108718,1,8,0:1:0:0:
172,244,108899,2,0,L|136:180,1,55,2|2,0:0|0:0,0:0:0:0:
248,40,109441,2,0,P|304:40|352:96,1,110,8|2,0:0|0:0,0:0:0:0:
392,152,109984,1,2,0:0:0:0:
300,264,110164,5,2,0:3:0:0:
432,280,110345,1,0,0:0:0:0:
300,168,110526,1,2,0:3:0:0:
332,288,110707,1,2,0:3:0:0:
420,180,110887,1,8,0:0:0:0:
268,244,111068,1,2,0:3:0:0:
368,120,111249,1,2,0:3:0:0:
364,312,111430,1,2,0:3:0:0:
204,176,111611,6,0,P|152:116|160:32,1,165,4|8,0:1|0:1,0:0:0:0:
368,120,112334,2,0,L|376:188,1,55,8|2,0:0|0:3,0:0:0:0:
276,272,112695,2,0,L|289:218,1,55,2|2,0:0|0:0,0:0:0:0:
336,48,113057,2,0,P|392:44|440:88,2,110,0|8|8,0:0|0:1|0:0,0:0:0:0:
268,220,114141,1,8,0:1:0:0:
180,188,114322,2,0,P|136:148|136:80,1,110,8|2,0:1|0:0,0:0:0:0:
268,220,114864,2,0,P|312:260|312:328,1,110,2|8,0:0|0:0,0:0:0:0:
128,264,115407,1,8,0:1:0:0:
224,300,115587,1,2,0:0:0:0:
180,188,115768,1,2,0:0:0:0:
180,188,115949,6,0,P|162:135|180:80,1,110
256,136,117033,2,0,L|300:156,1,41.25,4|0,0:0|0:0,0:0:0:0:
340,168,117395,6,0,B|376:160|404:180|404:180|364:220|364:280|404:328,1,220,4|8,0:1|0:0,0:0:0:0:
472,252,118299,1,2,0:3:0:0:
484,160,118480,1,2,0:0:0:0:
408,104,118660,2,0,P|348:96|280:116,1,110,4|8,0:0|0:1,0:0:0:0:
307,212,119203,2,0,P|315:158|300:106,1,110,8|8,0:1|0:0,0:0:0:0:
120,64,119926,1,8,0:1:0:0:
120,64,120107,6,0,L|96:180,1,110,4|2,0:0|0:0,0:0:0:0:
206,278,120649,1,2,0:0:0:0:
234,126,120830,1,8,0:1:0:0:
131,247,121010,1,8,0:0:0:0:
282,306,121191,1,8,0:1:0:0:
179,184,121372,1,2,0:0:0:0:
142,326,121553,1,2,0:0:0:0:
314,234,121733,6,0,P|358:290|350:346,1,110,8|0,0:1|0:0,0:0:0:0:
119,147,122456,2,0,P|175:103|231:111,1,110,8|0,0:0|0:0,0:0:0:0:
288,160,122999,1,2,0:3:0:0:
360,216,123180,2,0,L|400:92,1,110,4|0,0:1|0:0,0:0:0:0:
428,296,123903,2,0,L|404:372,1,55,8|2,0:0|0:3,0:0:0:0:
332,300,124264,2,0,L|280:340,1,55,2|2,0:0|0:0,0:0:0:0:
263,243,124626,6,0,P|245:192|264:142,2,110,8|8|0,0:1|0:1|0:0,0:0:0:0:
444,200,125710,1,8,0:1:0:0:
264,142,126072,2,0,L|192:160,1,55,8|2,0:1|0:0,0:0:0:0:
304,208,126433,2,0,P|336:168|324:96,1,110,2|8,0:0|0:0,0:0:0:0:
152,64,127156,1,2,0:0:0:0:
152,64,127337,1,2,0:0:0:0:
68,108,127518,6,0,L|56:184,1,55,8|0,0:1|0:0,0:0:0:0:
136,332,128060,1,2,0:3:0:0:
148,324,128151,1,2,0:3:0:0:
160,316,128241,2,0,P|180:304|220:288,1,55,8|0,0:0|0:0,0:0:0:0:
300,268,128603,1,2,0:3:0:0:
300,268,128964,6,0,B|316:224|316:224|300:180|300:180|316:128|316:128|296:76|296:76,1,192.5,4|0,0:1|0:0,0:0:0:0:
263,55,129687,2,0,L|223:93,1,55,8|2,0:0|0:3,0:0:0:0:
87,121,130049,2,0,L|128:84,1,55,2|2,0:0|0:0,0:0:0:0:
223,93,130410,2,0,B|175:137|175:137|175:189,2,110,8|8|8,0:1|0:1|0:0,0:0:0:0:
256,276,131495,1,0,0:0:0:0:
256,276,131856,6,0,L|312:332,1,55,8|2,0:1|0:0,0:0:0:0:
384,244,132218,2,0,P|384:196|444:140,1,110,2|8,0:0|0:0,0:0:0:0:
452,332,132941,1,2,0:0:0:0:
452,332,133122,2,0,L|372:332,1,55,2|8,0:0|0:1,0:0:0:0:
68,156,134026,2,0,P|96:120|148:112,1,82.5,8|0,0:0|0:0,0:0:0:0:
176,116,134387,2,0,P|212:144|220:196,1,82.5,8|0,0:0|0:0,0:0:0:0:
236,224,134749,6,0,B|312:240|344:176|344:176|372:208,1,165,4|2,0:1|0:0,0:0:0:0:
428,276,135472,1,8,0:0:0:0:
320,360,135652,1,2,0:3:0:0:
367,203,135833,2,0,L|408:148,1,55,2|2,0:0|0:0,0:0:0:0:
452,64,136195,1,8,0:1:0:0:
316,128,136376,1,2,0:0:0:0:
360,40,136556,1,2,0:0:0:0:
360,40,136918,6,0,P|304:28|244:64,1,110,8|0,0:0|0:0,0:0:0:0:
156,208,137641,2,0,P|184:212|224:184,1,55,8|2,0:1|0:0,0:0:0:0:
268,272,138002,2,0,P|292:248|296:216,1,55,2|0,0:0|0:0,0:0:0:0:
168,132,138364,2,0,P|120:140|80:200,1,110,8|2,0:0|0:0,0:0:0:0:
98,319,138906,1,2,0:0:0:0:
98,319,139268,5,2,0:0:0:0:
166,202,139449,1,2,0:0:0:0:
36,260,139630,1,2,0:0:0:0:
178,286,139810,1,8,0:0:0:0:
82,185,139991,1,2,0:0:0:0:
243,343,140533,6,0,P|336:304|308:208,1,220,2|8,0:0|0:0,0:0:0:0:
228,160,141437,1,2,0:3:0:0:
216,253,141618,2,0,L|272:273,1,55,2|2,0:0|0:0,0:0:0:0:
227,159,141979,2,0,L|176:141,1,55,8|0,0:1|0:0,0:0:0:0:
88,108,142341,1,0,0:0:0:0:
88,108,142702,6,0,P|56:168|112:248,1,165,8|8,0:0|0:1,0:0:0:0:
240,256,143425,1,8,0:1:0:0:
136,172,143606,1,2,0:0:0:0:
168,332,143787,1,2,0:0:0:0:
152,156,143968,1,8,0:1:0:0:
240,256,144148,2,0,P|280:240|364:264,1,110,8|2,0:0|0:0,0:0:0:0:
432,288,144691,1,2,0:0:0:0:
432,288,144872,5,8,0:1:0:0:
408,124,145233,1,4,0:0:0:0:
372,100,145595,1,2,0:0:0:0:
328,100,145956,1,2,0:0:0:0:
288,120,146318,6,0,P|244:164|168:156,1,137.5,4|8,0:1|0:1,0:0:0:0:
204,60,146860,1,0,0:0:0:0:
288,120,147041,2,0,L|304:218,1,68.75,8|2,0:0|0:3,0:0:0:0:
383,276,147402,2,0,L|401:203,1,68.75,2|2,0:0|0:0,0:0:0:0:
380,104,147764,2,0,P|356:56|280:28,1,137.5,8|0,0:1|0:0,0:0:0:0:
152,204,148487,2,0,P|176:252|252:280,1,137.5,8|8,0:0|0:1,0:0:0:0:
252,176,149029,1,0,0:0:0:0:
171,109,149210,6,0,L|119:61,1,68.75,8|2,0:1|0:0,0:0:0:0:
223,45,149571,2,0,L|331:153,1,137.5,2|8,0:0|0:0,0:0:0:0:
307,349,150295,1,2,0:0:0:0:
307,349,150475,1,2,0:0:0:0:
411,341,150656,2,0,P|379:297|391:237,1,103.125,4|0,0:0|0:0,0:0:0:0:
411,209,151018,2,0,L|303:149,1,103.125,2|0,0:0|0:0,0:0:0:0:
271,149,151379,2,0,P|239:153|195:193,1,68.75,8|0,0:0|0:0,0:0:0:0:
199,189,151650,1,2,0:1:0:0:
191,205,151741,1,2,0:1:0:0:
187,221,151831,1,2,0:1:0:0:
191,237,151921,1,2,0:1:0:0:
199,253,152012,1,2,0:1:0:0:
208,264,152102,6,0,P|120:288|80:252,1,137.5,2|0,0:0|0:0,0:0:0:0:
104,168,152644,1,8,0:1:0:0:
208,172,152825,2,0,P|237:153|271:149,1,68.75,8|2,0:0|0:3,0:0:0:0:
359,209,153187,1,2,0:0:0:0:
267,253,153368,1,2,0:0:0:0:
271,149,153548,2,0,P|267:85|323:29,1,137.5,8|0,0:1|0:0,0:0:0:0:
371,121,154091,1,0,0:0:0:0:
271,149,154271,2,0,B|211:205|139:165|139:165|187:241,1,206.25,8|8,0:0|0:1,0:0:0:0:
231,301,154994,6,0,P|279:297|311:269,1,68.75,4|2,0:0|0:0,0:0:0:0:
332,192,155356,2,0,B|364:220|420:200|420:200|388:256,2,137.5,2|8|2,0:0|0:0|0:0,0:0:0:0:
380,124,156260,1,2,0:0:0:0:
380,124,156621,1,2,0:0:0:0:
468,40,156801,1,2,0:0:0:0:
317,71,156982,1,2,0:0:0:0:
365,203,157164,5,8,0:0:0:0:
457,103,157344,1,0,0:0:0:0:
305,151,157525,1,4,0:3:0:0:
393,47,157706,1,4,0:3:0:0:
441,183,157887,6,0,P|417:263|305:255,1,206.25,4|0,0:1|0:0,0:0:0:0:
215,221,158610,2,0,P|203:253|208:286,1,68.75,8|2,0:0|0:3,0:0:0:0:
305,151,158971,2,0,P|316:118|311:85,1,68.75,2|2,0:0|0:0,0:0:0:0:
176,97,159333,2,0,P|176:165|215:221,1,137.5,8|0,0:1|0:0,0:0:0:0:
376,336,160056,1,8,0:0:0:0:
376,336,160417,1,0,0:0:0:0:
436,252,160598,1,8,0:1:0:0:
396,156,160779,6,0,P|364:116|360:80,1,68.75,4|2,0:0|0:0,0:0:0:0:
432,28,161141,1,2,0:0:0:0:
432,28,161502,2,0,P|472:96|472:184,1,137.5,8|2,0:0|0:0,0:0:0:0:
436,252,162044,1,2,0:0:0:0:
294,341,162225,1,8,0:1:0:0:
312,196,162406,1,0,0:0:0:0:
364,292,162587,2,0,P|404:328|496:308,1,137.5,8|8,0:1|0:0,0:0:0:0:
428,156,163129,1,2,0:1:0:0:
420,172,163219,1,2,0:1:0:0:
416,188,163310,1,2,0:1:0:0:
416,204,163400,1,2,0:1:0:0:
420,220,163491,1,2,0:1:0:0:
428,236,163581,1,2,0:1:0:0:
436,252,163671,6,0,P|334:214|318:360,1,275,2|8,0:0|0:0,0:0:0:0:
364,292,164575,2,0,P|396:324|432:328,1,68.75,2|2,0:3|0:0,0:0:0:0:
512,284,164937,2,0,P|500:200|444:152,1,137.5,2|8,0:0|0:1,0:0:0:0:
372,124,165479,1,0,0:0:0:0:
372,124,165840,2,0,B|288:140|252:68|252:68|216:140|136:124,1,275,8|8,0:0|0:1,0:0:0:0:
48,164,166744,1,2,0:0:0:0:
72,272,166925,1,2,0:0:0:0:
76,296,167287,6,0,L|224:284,1,137.5,8|8,0:0|0:1,0:0:0:0:
316,244,167829,1,4,0:0:0:0:
316,244,168733,1,0,0:0:0:0:
396,308,168913,1,2,0:1:0:0:
396,308,169004,1,2,0:1:0:0:
396,308,169094,1,2,0:1:0:0:
396,308,169185,1,2,0:1:0:0:
396,308,169275,1,2,0:1:0:0:
396,308,169365,1,2,0:1:0:0:
396,308,169456,6,0,B|434:260|402:196|402:196|414:172|414:172|378:108|426:52,1,275,4|8,0:1|0:0,0:0:0:0:
504,120,170360,1,2,0:3:0:0:
425,52,170540,2,0,L|333:32,1,68.75,2|2,0:0|0:0,0:0:0:0:
276,100,170902,2,0,P|208:108|144:172,2,137.5,8|0|8,0:1|0:0|0:0,0:0:0:0:
276,304,171986,1,0,0:0:0:0:
256,192,172348,12,4,174517,0:0:0:0:
256,192,175240,6,0,P|252:240|300:292,1,110,4|8,0:1|0:1,0:0:0:0:
366,350,175783,1,8,0:1:0:0:
464,340,175963,2,0,L|496:280,1,55,8|2,0:0|0:3,0:0:0:0:
432,216,176325,2,0,L|420:144,1,55,2|2,0:0|0:0,0:0:0:0:
343,107,176686,2,0,P|297:79|244:85,1,110,8|8,0:1|0:1,0:0:0:0:
200,224,177229,1,8,0:1:0:0:
276,172,177409,1,8,0:0:0:0:
244,85,177590,2,0,P|184:112|112:84,1,137.5,8|0,0:1|0:0,0:0:0:0:
72,80,178133,6,0,L|56:148,1,55,8|2,0:1|0:0,0:0:0:0:
128,196,178494,2,0,P|144:280|172:296,1,110,2|8,0:0|0:0,0:0:0:0:
232,348,179036,1,8,0:1:0:0:
308,296,179217,1,2,0:0:0:0:
392,336,179398,1,2,0:0:0:0:
456,268,179579,2,0,P|484:204|472:152,1,110,8|0,0:1|0:0,0:0:0:0:
276,60,180302,1,8,0:0:0:0:
184,84,180483,1,2,0:1:0:0:
172,88,180573,1,2,0:1:0:0:
160,92,180663,1,2,0:1:0:0:
148,96,180754,1,2,0:1:0:0:
136,100,180844,1,2,0:1:0:0:
124,104,180934,1,2,0:1:0:0:
112,108,181025,6,0,L|112:244,1,110,2|8,0:0|0:1,0:0:0:0:
168,300,181567,1,8,0:1:0:0:
256,344,181748,1,8,0:0:0:0:
332,288,181929,1,2,0:3:0:0:
296,200,182109,2,0,L|308:132,1,55,2|2,0:0|0:0,0:0:0:0:
388,100,182471,2,0,L|368:212,1,110,8|0,0:1|0:0,0:0:0:0:
284,276,183013,1,8,0:1:0:0:
208,196,183194,2,0,L|228:88,1,110,8|8,0:0|0:1,0:0:0:0:
412,100,183917,5,8,0:1:0:0:
468,176,184098,1,2,0:0:0:0:
468,176,184279,1,2,0:0:0:0:
356,324,184640,1,8,0:0:0:0:
200,196,185002,1,2,0:0:0:0:
200,196,185182,1,2,0:0:0:0:
108,176,185363,2,0,P|64:132|168:104,1,220,8|8,0:1|0:0,0:0:0:0:
296,232,186448,1,2,0:3:0:0:
296,232,186809,6,0,P|308:164|268:120,1,110,4|8,0:1|0:1,0:0:0:0:
124,44,187532,2,0,L|100:108,1,55,8|2,0:0|0:3,0:0:0:0:
192,132,187894,2,0,L|192:200,1,55,2|2,0:0|0:0,0:0:0:0:
244,264,188255,2,0,P|288:292|352:280,1,110,8|0,0:1|0:0,0:0:0:0:
308,200,188798,1,8,0:1:0:0:
192,208,188979,6,0,P|168:256|188:316,1,110,8|8,0:0|0:1,0:0:0:0:
244,264,189521,2,0,P|268:216|248:156,1,110,8|2,0:1|0:0,0:0:0:0:
200,88,190063,2,0,L|324:48,2,110,2|8|2,0:0|0:0|0:0,0:0:0:0:
132,152,190967,2,0,L|79:168,1,55,2|8,0:0|0:1,0:0:0:0:
224,288,191509,2,0,L|276:271,1,55,8|2,0:1|0:0,0:0:0:0:
368,300,191871,1,8,0:0:0:0:
444,244,192052,1,2,0:1:0:0:
444,244,192142,1,2,0:1:0:0:
444,244,192232,1,2,0:1:0:0:
444,244,192323,1,2,0:1:0:0:
444,244,192413,1,2,0:1:0:0:
444,244,192503,1,2,0:1:0:0:
444,244,192594,6,0,B|476:188|476:188|448:104|448:104|480:20,1,220,2|8,0:0|0:0,0:0:0:0:
380,48,193498,1,2,0:3:0:0:
324,120,193678,1,2,0:0:0:0:
324,120,193859,1,2,0:0:0:0:
300,212,194040,2,0,P|244:184|228:128,1,110,8|0,0:1|0:0,0:0:0:0:
380,48,194763,2,0,P|436:76|452:132,1,110,8|8,0:0|0:1,0:0:0:0:
360,136,195305,1,8,0:1:0:0:
412,216,195486,5,2,0:3:0:0:
328,256,195667,1,2,0:0:0:0:
328,256,195848,1,2,0:0:0:0:
244,92,196209,2,0,P|192:72|72:120,1,192.5,8|0,0:0|0:0,0:0:0:0:
76,168,196932,6,0,B|109:207|109:267|69:307|69:307|88:328|136:320,1,220,4|4,0:0|0:1,0:0:0:0:
36,176,201271,54,0,B|68:184|100:160|100:160|100:320|100:320|136:308|184:324,1,307.999990600586,4|0,0:0|0:0,0:0:0:0:
104,84,203440,1,8,0:1:0:0:
240,316,204163,6,0,B|184:272|132:224|132:164|176:128|232:108|264:164|276:176|276:176|288:164|316:108|384:136|416:156|440:240|328:292|304:328,1,615.999981201173,8|4,0:1|0:0,0:0:0:0:
356,40,207778,1,0,0:0:0:0:
356,40,208501,2,0,B|356:76|356:76|356:140|432:192|508:144|508:68|508:68|508:40,1,307.999990600586,8|4,0:1|0:0,0:0:0:0:
431,79,210309,69,8,0:1:0:0:
476,144,210671,1,0,0:0:0:0:
432,204,211032,1,8,0:1:0:0:
300,336,211394,5,2,0:3:0:0:
228,288,211574,2,0,L|192:264,2,27.5,2|2|2,0:3|0:3|0:3,0:0:0:0:
300,336,211936,1,2,0:3:0:0:
340,204,212117,1,2,0:0:0:0:
228,288,212297,1,4,0:3:0:0:
376,288,212478,1,6,0:3:0:0:
252,204,212659,1,4,0:3:0:0:
300,336,212840,6,0,P|252:371|200:368,1,110,4|8,0:1|0:1,0:0:0:0:
200,148,213563,2,0,L|244:80,1,55,8|2,0:0|0:3,0:0:0:0:
116,168,213924,2,0,L|160:236,1,55,2|2,0:0|0:0,0:0:0:0:
240,228,214286,2,0,P|280:204|360:220,2,110,8|0|8,0:1|0:0|0:0,0:0:0:0:
40,256,215370,1,0,0:0:0:0:
108,320,215551,1,8,0:1:0:0:
64,168,215732,2,0,L|84:104,1,55,4|2,0:0|0:0,0:0:0:0:
208,96,216094,1,2,0:0:0:0:
224,100,216455,6,0,B|188:216|188:216|188:216,1,110,8|2,0:0|0:0,0:0:0:0:
56,324,216997,1,2,0:0:0:0:
108,156,217178,1,8,0:1:0:0:
0,168,217359,1,0,0:0:0:0:
84,252,217540,2,0,P|123:288|131:341,1,110,8|8,0:1|0:0,0:0:0:0:
224,352,218082,1,2,0:1:0:0:
236,348,218172,1,2,0:1:0:0:
248,344,218263,1,2,0:1:0:0:
260,340,218353,1,2,0:1:0:0:
272,336,218443,1,2,0:1:0:0:
284,332,218534,1,2,0:1:0:0:
296,328,218624,6,0,P|320:284|300:216,1,110,2|8,0:0|0:1,0:0:0:0:
288,64,219347,1,8,0:0:0:0:
288,64,219528,1,2,0:3:0:0:
208,112,219709,2,0,L|196:176,1,55,2|2,0:0|0:0,0:0:0:0:
128,340,220251,1,8,0:1:0:0:
128,340,220432,1,0,0:0:0:0:
40,176,220793,1,8,0:0:0:0:
40,176,221517,6,0,L|108:144,1,55,8|2,0:1|0:0,0:0:0:0:
176,116,221878,1,2,0:0:0:0:
184,208,222059,1,8,0:1:0:0:
276,228,222240,2,0,P|324:184|332:120,1,110,8|2,0:0|0:0,0:0:0:0:
300,56,222782,1,2,0:0:0:0:
300,56,222963,1,8,0:1:0:0:
144,184,223324,1,4,0:0:0:0:
116,148,223686,1,2,0:0:0:0:
116,104,224047,1,2,0:0:0:0:
144,72,224409,6,0,P|192:36|284:52,1,142.99999345398,4|8,0:1|0:1,0:0:0:0:
356,132,224951,1,0,0:0:0:0:
252,196,225132,2,0,L|266:126,1,71.4999967269899,8|2,0:0|0:3,0:0:0:0:
160,184,225493,2,0,L|174:253,1,71.4999967269899,2|2,0:0|0:0,0:0:0:0:
244,320,225855,2,0,P|181:291|120:324,2,142.99999345398,8|0|8,0:1|0:0|0:0,0:0:0:0:
448,188,226939,1,8,0:1:0:0:
393,297,227120,1,0,0:0:0:0:
336,160,227301,6,0,L|328:76,1,71.4999967269899,8|2,0:1|0:0,0:0:0:0:
500,48,227663,1,2,0:0:0:0:
500,48,228024,2,0,P|501:128|454:189,1,142.99999345398,8|2,0:0|0:0,0:0:0:0:
376,304,228566,1,2,0:0:0:0:
268,188,228747,2,0,P|208:180|176:192,1,71.4999967269899,4|0,0:0|0:0,0:0:0:0:
376,304,229109,2,0,P|411:307|445:298,1,71.4999967269899,8|0,0:1|0:0,0:0:0:0:
268,188,229470,2,0,P|232:156|180:148,1,71.4999967269899,8|0,0:0|0:0,0:0:0:0:
188,148,229741,1,2,0:1:0:0:
168,148,229832,1,2,0:1:0:0:
148,148,229922,1,2,0:1:0:0:
128,148,230013,1,2,0:1:0:0:
108,148,230103,1,2,0:1:0:0:
88,148,230193,6,0,L|100:300,1,142.99999345398,2|0,0:0|0:0,0:0:0:0:
204,352,230736,1,8,0:1:0:0:
312,304,230916,2,0,L|360:248,1,71.4999967269899,8|2,0:0|0:3,0:0:0:0:
392,100,231278,1,2,0:0:0:0:
456,200,231459,1,2,0:0:0:0:
348,164,231639,2,0,P|320:120|356:32,1,142.99999345398,8|0,0:1|0:0,0:0:0:0:
416,100,232182,1,8,0:1:0:0:
456,200,232362,2,0,P|488:244|444:336,1,142.99999345398,8|0,0:0|0:0,0:0:0:0:
336,272,232905,1,8,0:1:0:0:
212,308,233086,6,0,L|156:248,1,71.4999967269899,4|2,0:0|0:0,0:0:0:0:
76,172,233447,2,0,B|116:144|116:144|156:180|224:144,2,142.99999345398,2|8|2,0:0|0:0|0:0,0:0:0:0:
128,280,234351,1,2,0:0:0:0:
128,280,234712,1,2,0:0:0:0:
284,292,234893,1,2,0:0:0:0:
176,352,235074,1,2,0:0:0:0:
184,212,235255,5,8,0:0:0:0:
304,292,235436,1,0,0:0:0:0:
264,132,235616,1,4,0:3:0:0:
199,283,235797,1,4,0:3:0:0:
324,176,235978,6,0,P|332:104|256:56,1,142.99999345398,4|8,0:1|0:1,0:0:0:0:
184,212,236520,1,0,0:0:0:0:
284,240,236701,2,0,P|320:252|376:228,1,71.4999967269899,8|2,0:0|0:3,0:0:0:0:
264,132,237062,2,0,P|228:120|172:144,1,71.4999967269899,2|2,0:0|0:0,0:0:0:0:
256,308,237424,2,0,P|324:324|412:296,1,142.99999345398,8|0,0:1|0:0,0:0:0:0:
195,126,238147,2,0,P|179:194|211:282,1,142.99999345398,8|0,0:0|0:0,0:0:0:0:
284,352,238689,1,8,0:1:0:0:
393,304,238870,6,0,P|421:280|433:220,1,71.4999967269899,4|2,0:0|0:0,0:0:0:0:
468,112,239232,1,2,0:0:0:0:
468,112,239593,2,0,L|312:132,1,142.99999345398,8|2,0:0|0:0,0:0:0:0:
236,212,240135,1,2,0:0:0:0:
248,80,240316,1,8,0:1:0:0:
320,200,240497,1,0,0:0:0:0:
228,84,240678,2,0,L|72:104,1,142.99999345398,8|8,0:1|0:0,0:0:0:0:
58,218,241220,1,2,0:1:0:0:
74,226,241310,1,2,0:1:0:0:
90,234,241401,1,2,0:1:0:0:
106,242,241491,1,2,0:1:0:0:
122,250,241582,1,2,0:1:0:0:
138,258,241672,1,2,0:1:0:0:
154,266,241762,6,0,B|126:174|206:142|206:142|161:92|161:92|238:82,1,285.99998690796,2|8,0:0|0:0,0:0:0:0:
278,189,242666,2,0,P|289:223|315:248,1,71.4999967269899,2|2,0:3|0:0,0:0:0:0:
396,328,243028,2,0,P|330:314|314:249,1,142.99999345398,2|8,0:0|0:1,0:0:0:0:
400,160,243570,1,0,0:0:0:0:
400,160,243932,2,0,B|352:132|352:132|312:144|312:144|220:88|128:156,1,285.99998690796,8|8,0:0|0:1,0:0:0:0:
52,240,244835,1,2,0:0:0:0:
52,240,245016,1,2,0:0:0:0:
315,259,245378,6,0,P|379:223|399:151,1,142.99999345398,8|8,0:0|0:1,0:0:0:0:
364,44,245920,1,4,0:0:0:0:
364,44,246824,1,8,0:0:0:0:
265,75,247005,1,2,0:1:0:0:
257,91,247095,1,2,0:1:0:0:
253,107,247186,1,2,0:1:0:0:
253,123,247276,1,2,0:1:0:0:
257,139,247367,1,2,0:1:0:0:
265,155,247457,1,2,0:1:0:0:
277,167,247547,6,0,P|337:195|337:39,1,285.99998690796,4|8,0:1|0:0,0:0:0:0:
336,116,248451,1,2,0:3:0:0:
252,32,248631,1,2,0:0:0:0:
252,32,248812,1,2,0:0:0:0:
144,92,248993,2,0,B|160:196|160:196|196:212,1,142.99999345398,8|0,0:1|0:0,0:0:0:0:
386,235,249716,2,0,B|370:131|370:131|336:116,1,142.99999345398,8|0,0:0|0:0,0:0:0:0:
256,192,250439,12,2,253331,0:0:0:0:
64,76,258212,5,2,0:0:0:0:
64,76,258393,2,0,L|72:120,1,32.99999899292,0|2,0:0|0:0,0:0:0:0:
160,184,258754,2,0,L|165:151,1,32.99999899292,0|2,0:0|0:0,0:0:0:0:
260,272,259116,1,4,0:3:0:0:
260,272,259477,2,0,L|340:264,1,65.9999979858399,2|2,0:0|0:0,0:0:0:0:
444,160,260201,1,2,0:0:0:0:
328,48,260562,6,0,P|264:36|208:56,1,115.49999647522,2|0,0:0|0:0,0:0:0:0:
180,72,261285,2,0,L|168:116,1,32.99999899292,0|2,0:0|0:0,0:0:0:0:
92,180,261647,2,0,L|80:136,1,32.99999899292,0|2,0:0|0:0,0:0:0:0:
224,260,262008,1,4,0:3:0:0:
224,260,262550,2,0,L|300:252,1,65.9999979858399,2|0,0:0|0:0,0:0:0:0:
444,336,263274,2,0,L|368:328,2,65.9999979858399,4|2|2,0:0|0:0|0:0,0:0:0:0:
480,200,264358,1,2,0:0:0:0:
480,200,264900,6,0,P|464:160|432:144,1,65.9999979858399,4|2,0:1|0:0,0:0:0:0:
332,280,265624,2,0,L|332:352,2,65.9999979858399,2|2|2,0:0|0:0|0:0,0:0:0:0:
52,96,267070,2,0,L|44:136,1,32.99999899292,0|2,0:0|0:0,0:0:0:0:
112,192,267431,2,0,L|120:232,1,32.99999899292,0|2,0:0|0:0,0:0:0:0:
248,292,267793,1,4,0:3:0:0:
248,292,268154,2,0,L|320:280,2,65.9999979858399,2|2|2,0:0|0:0|0:0,0:0:0:0:
36,316,269239,5,2,0:0:0:0:
36,316,269781,2,0,L|28:272,1,32.99999899292,2|0,0:0|0:0,0:0:0:0:
104,216,270143,2,0,L|112:172,1,32.99999899292,2|0,0:0|0:0,0:0:0:0:
188,124,270504,1,2,0:0:0:0:
188,124,270685,2,0,L|264:148,1,65.9999979858399,4|2,0:3|0:0,0:0:0:0:
231,274,271408,2,0,L|303:254,1,65.9999979858399,0|2,0:0|0:0,0:0:0:0:
383,222,272131,5,2,0:0:0:0:
176,344,272854,2,0,L|140:324,1,32.99999899292,0|2,0:0|0:0,0:0:0:0:
60,312,273216,2,0,L|52:268,1,32.99999899292,0|2,0:0|0:0,0:0:0:0:
132,224,273577,54,0,B|280:164|228:80|160:44|104:120|80:180|204:204|232:236|256:304|256:304|276:236|300:204|440:196|420:120|348:40|288:76|232:176|388:224,1,880,4|4,0:0|0:3,0:0:0:0:
