osu file format v14

[General]
AudioFilename: audio.mp3
AudioLeadIn: 0
PreviewTime: 33381
Countdown: 0
SampleSet: Soft
StackLeniency: 0.7
Mode: 2
LetterboxInBreaks: 0
WidescreenStoryboard: 1

[Editor]
DistanceSpacing: 1
BeatDivisor: 4
GridSize: 8
TimelineZoom: 1.3

[Metadata]
Title:Taiyou wa Yoru mo Kagayaku (TV Size)
TitleUnicode:太陽は夜も輝く (TV Size)
Artist:WINO
ArtistUnicode:WINO
Creator:GIGACHAD
Version:Platter
Source:HUNTER×HUNTER
Tags:dako op male vocals jrock j-rock door weapon dog food lean monster hanakumo rin hunter x hunter japanese rock anime opening two second 2nd The Sun Also Shines at Night
BeatmapID:3580899
BeatmapSetID:1750318

[Difficulty]
HPDrainRate:5
CircleSize:5
OverallDifficulty:6
ApproachRate:6
SliderMultiplier:3.2
SliderTickRate:2

[Events]
//Background and Video events
0,0,"BG.jpg",0,0
//Break Periods
//Storyboard Layer 0 (Background)
//Storyboard Layer 1 (Fail)
//Storyboard Layer 2 (Pass)
//Storyboard Layer 3 (Foreground)
//Storyboard Layer 4 (Overlay)
//Storyboard Sound Samples

[TimingPoints]
1217,736.196319018405,4,2,1,40,1,0
2321,-99.2063492063492,4,2,1,40,0,0
2689,727.272727272727,4,2,1,40,1,0
4143,731.707317073171,4,2,1,40,1,0
4874,729.483282674772,4,2,1,40,1,0
6332,712.166172106825,4,2,1,40,1,0
7044,731.707317073171,4,2,1,40,1,0
7775,745.341614906832,4,2,1,40,1,0
8147,-99.502487562189,4,2,1,40,0,0
8520,736.196319018405,4,2,1,40,1,0
9256,727.272727272727,4,2,1,40,1,0
11074,-99.7008973080758,4,2,1,40,0,0
11437,736.196319018405,4,2,1,40,1,0
12173,731.707317073171,4,2,1,40,1,0
14368,750,4,2,1,40,1,0
15118,722.89156626506,4,2,1,40,1,0
15479,-100.401606425703,4,2,1,40,0,0
15840,727.272727272727,4,2,1,40,1,0
17294,750,4,2,1,40,1,0
18044,714.285714285714,4,2,1,40,1,0
18758,740.740740740741,4,2,1,50,1,0
19498,736.196319018405,4,2,1,50,1,0
19866,-100,4,2,1,50,0,0
20234,714.285714285714,4,2,1,50,1,0
20948,727.272727272727,4,2,1,50,1,0
21675,740.740740740741,4,2,1,50,1,0
22415,736.196319018405,4,2,1,50,1,0
23151,731.707317073171,4,2,1,50,1,0
23882,705.882352941177,4,2,1,50,1,0
24587,769.230769230769,4,2,1,50,1,0
25356,714.285714285714,4,2,1,50,1,0
26070,750,4,2,1,50,1,0
26820,714.285714285715,4,2,1,50,1,0
27534,750,4,2,1,50,1,0
28284,722.891566265061,4,2,1,50,1,0
29006,736.196319018405,4,2,1,50,1,0
29742,750,4,2,1,50,1,0
30492,722.891566265061,4,2,1,50,1,0
31214,714.285714285715,4,2,1,50,1,0
31571,-100,4,2,1,50,0,0
31928,731.707317073171,4,2,1,50,1,0
32659,722.891566265061,4,2,1,50,1,0
33381,750.000000000001,4,2,1,60,1,1
33381,-100,4,2,1,60,0,1
34131,750.000000000001,4,2,1,60,1,1
34881,714.285714285715,4,2,1,60,1,1
35595,731.707317073171,4,2,1,60,1,1
36326,722.891566265061,4,2,1,60,1,1
37048,745.341614906833,4,2,1,60,1,1
37420,-99.304865938431,4,2,1,60,0,1
37793,736.196319018406,4,2,1,60,1,1
38529,714.285714285715,4,2,1,60,1,1
39243,750.000000000001,4,2,1,60,1,1
39993,731.707317073171,4,2,1,60,1,1
41822,-99.502487562189,4,2,1,60,0,1
42188,722.891566265061,4,2,1,60,1,1
42910,750.000000000001,4,2,1,60,1,1
43285,-100,4,2,1,60,0,1
43660,731.707317073171,4,2,1,60,1,1
44391,714.285714285715,4,2,1,60,1,1
45105,731.707317073171,4,2,1,60,1,1
45836,740.740740740742,4,2,1,60,1,1
46576,727.272727272728,4,2,1,60,1,1
48030,722.891566265061,4,2,1,60,1,1
48752,750.000000000001,4,2,1,60,1,1
49502,750.000000000001,4,2,1,60,1,1
50252,714.285714285715,4,2,1,60,1,1
50966,731.707317073171,4,2,1,60,1,1
53161,714.285714285715,4,2,1,60,1,1
53518,-101.83299389002,4,2,1,60,0,1
53875,740.740740740742,4,2,1,60,1,1
54060,-100,4,2,1,5,0,1
54245,-100,4,2,1,60,0,1
55356,710.059171597634,4,2,1,60,1,1
56066,722.891566265061,4,2,1,60,1,1
56788,714.285714285715,4,2,1,50,1,0
57502,705.882352941177,4,2,1,50,1,0
58207,759.493670886077,4,2,1,50,1,0
58966,705.882352941176,4,2,1,50,1,0
59318,729.483282674772,4,2,1,50,1,0
59697,750,4,2,1,30,1,0
60447,-100,4,2,1,20,0,0
61197,-100,4,2,1,10,0,0
61947,-100,4,2,1,5,0,0

[Colours]
Combo1 : 0,0,170
Combo2 : 170,0,0
Combo3 : 212,212,212

[HitObjects]
208,208,1217,6,0,L|368:208,2,160,6|2|2,3:2|0:0|1:2,0:0:0:0:
56,168,2321,1,2,0:0:0:0:
56,168,2689,1,0,3:0:0:0:
56,168,3052,1,0,3:0:0:0:
304,168,3416,2,0,L|304:352,1,160,0|0,1:0|3:0,0:0:0:0:
40,160,4143,5,6,3:2:0:0:
248,136,4874,1,6,1:2:0:0:
88,136,5238,1,4,1:2:0:0:
248,136,5603,1,2,3:2:0:0:
88,136,5968,1,2,1:2:0:0:
336,288,6332,2,0,L|336:200,2,80,0|0|8,1:0|1:0|0:3,0:0:0:0:
256,288,6866,1,4,0:3:0:0:
16,288,7044,5,6,3:2:0:0:
16,288,7409,2,0,L|192:288,1,160,2|2,3:2|1:2,0:0:0:0:
456,288,8147,2,0,B|456:128|456:128|264:128,1,320,2|2,0:0|3:2,0:0:0:0:
136,104,9256,1,0,1:2:0:0:
416,288,9619,6,0,L|416:120,1,160,2|0,0:0|3:2,0:0:0:0:
256,112,10346,2,0,L|432:112,1,160,2|0,3:2|1:0,0:0:0:0:
144,104,11074,2,0,P|104:176|136:240,1,160,2|0,0:2|3:0,0:0:0:0:
296,112,11805,1,2,3:2:0:0:
144,104,12173,1,2,1:2:0:0:
416,184,12538,6,0,L|88:184,1,320,2|2,0:0|3:2,0:0:0:0:
96,176,13636,1,0,1:2:0:0:
256,80,14002,1,2,0:0:0:0:
416,80,14368,1,2,3:2:0:0:
256,80,14743,1,2,3:2:0:0:
96,80,15118,1,2,1:2:0:0:
360,320,15479,6,0,P|464:256|344:144,1,320,2|0,0:0|0:0,0:0:0:0:
200,88,16567,2,0,L|376:88,1,160,0|0,1:0|0:0,0:0:0:0:
360,176,17294,1,0,3:0:0:0:
360,176,17669,1,0,3:0:0:0:
88,136,18044,2,0,B|16:144|16:144|16:240,1,160,2|0,1:2|1:0,0:0:0:0:
104,224,18579,1,0,1:0:0:0:
336,184,18758,6,0,L|512:184,2,160,6|2|0,3:2|3:2|1:2,0:0:0:0:
176,264,19866,2,0,L|176:96,1,160,2|2,0:0|3:2,0:0:0:0:
336,96,20591,1,2,3:2:0:0:
336,96,20769,1,0,3:0:0:0:
168,144,20948,1,2,1:2:0:0:
88,144,21129,1,0,1:2:0:0:
88,144,21311,1,8,0:3:0:0:
168,144,21493,1,4,0:3:0:0:
408,240,21675,6,0,L|408:72,1,160,6|0,3:2|3:2,0:0:0:0:
136,72,22415,1,6,1:2:0:0:
296,176,22783,1,8,0:3:0:0:
216,176,22967,1,8,0:3:0:0:
136,176,23151,1,6,3:2:0:0:
296,176,23516,1,0,3:2:0:0:
16,176,23882,1,2,1:2:0:0:
176,176,24234,1,0,1:0:0:0:
256,176,24411,1,0,1:0:0:0:
488,288,24587,6,0,L|488:120,1,160,2|2,3:2|3:2,0:0:0:0:
330,184,25356,2,0,L|328:360,1,160,6|8,1:2|0:3,0:0:0:0:
72,152,26070,2,0,L|232:152,1,160,6|2,3:2|3:2,0:0:0:0:
480,160,26820,2,0,L|480:328,1,160,2|8,1:2|0:3,0:0:0:0:
400,320,27355,1,8,0:3:0:0:
160,320,27534,6,0,P|112:272|176:216,1,160,6|0,3:2|3:0,0:0:0:0:
424,112,28284,2,0,L|424:288,1,160,0|0,1:0|0:0,0:0:0:0:
344,272,28826,1,0,1:0:0:0:
184,160,29006,2,0,L|0:160,1,160,2|0,3:2|3:0,0:0:0:0:
448,288,29742,2,0,L|448:120,1,160,6|0,1:2|0:0,0:0:0:0:
368,128,30304,1,0,3:0:0:0:
128,120,30492,6,0,L|32:120,2,80,6|0|8,1:2|1:0|0:3,0:0:0:0:
288,128,31214,1,4,3:0:0:0:
128,256,31571,2,0,L|32:256,2,80,2|0|8,1:2|1:0|0:3,0:0:0:0:
384,160,32293,1,0,3:0:0:0:
296,160,32476,1,0,1:0:0:0:
208,160,32659,1,8,0:3:0:0:
120,160,32839,1,8,0:3:0:0:
32,160,33020,1,4,0:3:0:0:
32,160,33201,1,4,0:3:0:0:
288,304,33381,6,0,L|456:304,1,160,6|2,3:2|3:2,0:0:0:0:
176,208,34131,2,0,L|344:208,1,160,2|2,1:2|3:2,0:0:0:0:
176,176,34881,2,0,L|176:16,1,160,2|0,3:2|3:0,0:0:0:0:
336,96,35595,2,0,L|120:96,1,160,2|2,1:2|0:0,0:0:0:0:
448,304,36326,6,0,L|448:-24,1,320,2|2,3:2|1:2,0:0:0:0:
184,168,37420,1,2,0:0:0:0:
344,168,37793,2,0,L|160:168,2,160,2|0|0,3:2|3:0|1:2,0:0:0:0:
504,176,38886,1,0,1:0:0:0:
504,176,39064,1,0,1:0:0:0:
264,176,39243,6,0,P|208:200|192:320,1,160,6|2,3:2|3:2,0:0:0:0:
440,288,39993,1,2,1:2:0:0:
280,288,40358,2,0,L|448:288,1,160,2|2,0:0|3:2,0:0:0:0:
440,224,41090,1,0,0:0:0:0:
168,216,41456,1,2,1:2:0:0:
328,128,41822,6,0,P|416:224|272:288,1,320,2|0,0:0|0:0,0:0:0:0:
128,304,42910,1,2,1:2:0:0:
384,312,43285,2,0,L|384:224,1,80,2|0,0:0|1:0,0:0:0:0:
224,240,43660,2,0,P|184:176|216:104,1,160,0|0,3:2|1:0,0:0:0:0:
376,112,44391,1,8,0:3:0:0:
376,112,44569,1,8,0:3:0:0:
376,112,44748,1,4,0:3:0:0:
376,112,44926,1,4,0:3:0:0:
136,304,45105,6,0,P|88:248|152:192,1,160,6|2,3:2|3:2,0:0:0:0:
408,224,45836,2,0,L|240:224,1,160,2|2,1:2|0:0,0:0:0:0:
408,192,46576,2,0,L|408:32,1,160,2|0,3:2|3:0,0:0:0:0:
248,112,47303,2,0,L|464:112,1,160,2|2,1:2|0:2,0:0:0:0:
120,192,48030,5,2,3:2:0:0:
120,336,48391,2,0,B|120:232|120:232|176:232,1,160,2|0,3:2|1:0,0:0:0:0:
456,40,49127,1,2,0:0:0:0:
464,127,49314,1,0,1:0:0:0:
440,192,49502,1,0,3:0:0:0:
368,240,49689,1,0,0:0:0:0:
280,256,49877,1,0,3:0:0:0:
16,128,50252,1,0,1:2:0:0:
80,264,50609,1,0,1:0:0:0:
168,280,50787,1,0,1:0:0:0:
408,272,50966,6,0,L|408:96,1,160,6|2,3:2|3:2,0:0:0:0:
248,256,51697,2,0,L|408:256,1,160,2|2,1:2|0:0,0:0:0:0:
144,120,52429,2,0,L|144:288,1,160,2|0,3:2|3:0,0:0:0:0:
416,272,53161,2,0,L|248:272,1,160,2|2,1:2|0:0,0:0:0:0:
184,272,53696,1,0,0:0:0:0:
416,152,53875,6,0,L|416:328,1,160,0|2,3:0|3:2,0:0:0:0:
344,304,54430,1,0,3:0:0:0:
96,120,54615,2,0,L|272:120,1,160,6|0,1:2|0:0,0:0:0:0:
96,72,55356,1,0,1:0:0:0:
16,72,55533,1,0,1:0:0:0:
96,72,55711,1,0,1:0:0:0:
336,240,56066,2,0,L|496:240,1,160,2|8,1:2|0:3,0:0:0:0:
416,192,56608,1,4,0:3:0:0:
160,240,56788,6,0,L|160:80,1,160,6|0,3:2|3:0,0:0:0:0:
248,80,57323,1,0,3:0:0:0:
336,80,57502,1,0,1:0:0:0:
248,80,57678,1,0,1:0:0:0:
160,80,57854,1,0,1:0:0:0:
400,184,58207,5,0,1:2:0:0:
488,184,58396,1,0,1:0:0:0:
400,184,58586,1,0,3:0:0:0:
232,184,58966,1,8,0:3:0:0:
152,184,59142,1,8,0:3:0:0:
152,184,59318,1,4,0:3:0:0:
232,184,59500,1,4,0:3:0:0:
480,192,59697,5,6,3:2:0:0:
256,192,60072,12,0,62697,0:0:0:0:
