osu file format v14

[General]
AudioFilename: audio.mp3
AudioLeadIn: 0
PreviewTime: -1
Countdown: 1
SampleSet: Soft
StackLeniency: 0.7
Mode: 0
LetterboxInBreaks: 0
WidescreenStoryboard: 0

[Editor]
Bookmarks: 1034,9159,11034,13034,17034,19284,21284,23284,25284,27284,29259,31259,33259,35134,35259,37259,40034,40534,41009,42509,43009,43509,45509,47509,49509,51259,63509,65509,71509,73759,75759,77884,85884,87884
DistanceSpacing: 0.6
BeatDivisor: 4
GridSize: 32
TimelineZoom: 1

[Metadata]
Title:In Providence
TitleUnicode:In Providence
Artist:WICCA PHASE SPRINGS ETERNAL
ArtistUnicode:WICCA PHASE SPRINGS ETERNAL
Creator:[Misty]
Version:In Danger
Source:
Tags:
BeatmapID:1596289
BeatmapSetID:758981

[Difficulty]
HPDrainRate:6
CircleSize:5
OverallDifficulty:6
ApproachRate:8
SliderMultiplier:1.4
SliderTickRate:1

[Events]
//Background and Video events
0,0,"maxresdefault (3).jpg",0,0
//Break Periods
//Storyboard Layer 0 (Background)
//Storyboard Layer 1 (Fail)
//Storyboard Layer 2 (Pass)
//Storyboard Layer 3 (Foreground)
//Storyboard Sound Samples

[TimingPoints]
1509,500,4,2,0,100,1,0

[Colours]
Combo1 : 255,255,255
Combo2 : 128,0,128
Combo3 : 0,0,0
Combo4 : 255,255,255

[HitObjects]
64,64,1034,5,0,0:0:0:0:
32,192,1284,1,0,0:0:0:0:
160,160,1509,1,0,0:0:0:0:
268,182,1759,5,0,0:0:0:0:
236,310,2009,1,0,0:0:0:0:
364,278,2259,1,0,0:0:0:0:
294,35,2509,5,0,0:0:0:0:
262,163,2759,1,0,0:0:0:0:
390,131,3009,1,0,0:0:0:0:
110,218,3259,5,0,0:0:0:0:
78,346,3509,1,0,0:0:0:0:
206,314,3759,1,0,0:0:0:0:
126,212,4009,5,0,0:0:0:0:
32,120,4259,1,0,0:0:0:0:
160,88,4509,1,0,0:0:0:0:
274,44,4759,5,0,0:0:0:0:
242,172,5009,1,0,0:0:0:0:
370,140,5259,1,0,0:0:0:0:
370,140,5509,5,0,0:0:0:0:
338,268,5759,1,0,0:0:0:0:
466,236,6009,1,0,0:0:0:0:
64,64,6259,5,0,0:0:0:0:
256,208,6509,1,0,0:0:0:0:
384,176,6759,1,0,0:0:0:0:
288,80,7009,5,0,0:0:0:0:
256,208,7259,1,0,0:0:0:0:
384,176,7509,1,0,0:0:0:0:
390,31,7759,5,0,0:0:0:0:
71,23,8009,1,0,0:0:0:0:
243,319,8259,1,0,0:0:0:0:
243,319,8509,1,0,0:0:0:0:
243,319,8759,1,0,0:0:0:0:
89,64,9009,2,0,P|241:147|360:116,1,280
404,71,11009,2,0,B|195:86|116:92,1,280
219,38,13009,2,0,L|226:326,1,280
412,45,17009,6,0,B|101:160|278:172,1,280
45,76,19259,2,0,L|167:149,2,140
433,88,21259,6,0,L|311:161,2,140
168,234,23259,6,0,L|47:305,2,140
133,68,25259,5,0,0:0:0:0:
77,214,25759,1,0,0:0:0:0:
203,201,26009,2,0,L|249:202,1,35
379,68,27259,5,0,0:0:0:0:
435,214,27759,1,0,0:0:0:0:
309,201,28009,2,0,L|263:202,1,35
317,142,29259,5,0,0:0:0:0:
261,288,29759,1,0,0:0:0:0:
387,275,30009,2,0,L|433:276,1,35
133,68,31259,5,0,0:0:0:0:
77,214,31759,1,0,0:0:0:0:
203,201,32009,2,0,L|249:202,1,35
133,316,33259,5,0,0:0:0:0:
77,170,33759,1,0,0:0:0:0:
203,183,34009,2,0,L|249:182,1,35
133,68,35259,5,0,0:0:0:0:
77,214,35759,1,0,0:0:0:0:
203,201,36009,2,0,L|249:202,1,35
133,68,37259,5,0,0:0:0:0:
77,214,37759,1,0,0:0:0:0:
203,201,38009,2,0,L|249:202,1,35
133,68,39259,5,0,0:0:0:0:
77,214,39759,1,0,0:0:0:0:
203,201,40009,2,0,L|249:202,1,35
128,96,41009,6,0,P|288:128|288:96,1,280
288,96,42509,5,0,0:0:0:0:
64,64,43509,1,0,0:0:0:0:
160,128,43634,1,0,0:0:0:0:
256,64,44009,1,0,0:0:0:0:
352,128,44384,1,0,0:0:0:0:
448,64,44509,1,0,0:0:0:0:
256,64,45509,5,0,0:0:0:0:
192,160,45634,1,0,0:0:0:0:
320,160,45759,1,0,0:0:0:0:
320,160,46009,5,0,0:0:0:0:
384,256,46134,1,0,0:0:0:0:
256,256,46259,1,0,0:0:0:0:
96,256,46509,5,0,0:0:0:0:
32,160,46634,1,0,0:0:0:0:
160,160,46759,1,0,0:0:0:0:
160,160,47009,1,0,0:0:0:0:
64,64,47509,5,0,0:0:0:0:
128,160,47759,1,0,0:0:0:0:
224,160,48009,2,0,L|384:160,2,140
224,160,49509,5,0,0:0:0:0:
224,160,49759,1,0,0:0:0:0:
160,160,50009,2,0,L|160:0,1,140
128,160,51259,5,0,0:0:0:0:
384,160,51509,1,0,0:0:0:0:
128,288,51759,1,0,0:0:0:0:
384,288,52009,1,0,0:0:0:0:
256,32,52509,1,0,0:0:0:0:
96,96,53509,1,0,0:0:0:0:
64,160,53634,1,0,0:0:0:0:
32,224,53759,1,0,0:0:0:0:
384,96,54009,1,0,0:0:0:0:
416,160,54134,1,0,0:0:0:0:
448,224,54259,1,0,0:0:0:0:
224,96,54509,2,0,L|224:224,1,105
192,64,55509,5,0,0:0:0:0:
256,64,55634,1,0,0:0:0:0:
320,64,55759,1,0,0:0:0:0:
320,64,56009,5,0,0:0:0:0:
256,64,56134,1,0,0:0:0:0:
192,64,56259,1,0,0:0:0:0:
256,64,56509,1,0,0:0:0:0:
224,128,57509,2,0,L|320:128,2,70
128,64,59509,5,0,0:0:0:0:
128,192,59759,1,0,0:0:0:0:
320,64,60009,1,0,0:0:0:0:
320,64,60384,1,0,0:0:0:0:
320,64,60509,1,0,0:0:0:0:
160,128,61509,2,0,L|0:128,2,140
160,128,63009,1,0,0:0:0:0:
128,64,63509,5,0,0:0:0:0:
128,256,63759,1,0,0:0:0:0:
320,64,64009,1,0,0:0:0:0:
320,256,64384,1,0,0:0:0:0:
320,288,64509,1,0,0:0:0:0:
192,256,65509,2,0,L|192:160,2,70
192,256,66259,1,0,0:0:0:0:
192,256,66509,1,0,0:0:0:0:
192,256,66759,1,0,0:0:0:0:
192,256,67009,1,0,0:0:0:0:
224,160,67509,6,0,L|224:64,2,70
224,160,68259,1,0,0:0:0:0:
224,160,68509,1,0,0:0:0:0:
224,160,68759,1,0,0:0:0:0:
32,96,69509,5,0,0:0:0:0:
32,160,69634,1,0,0:0:0:0:
32,224,69759,1,0,0:0:0:0:
128,224,70009,2,0,L|224:224,4,70
96,64,71509,5,0,0:0:0:0:
128,128,71634,1,0,0:0:0:0:
192,160,71759,1,0,0:0:0:0:
32,160,72009,5,0,0:0:0:0:
64,224,72134,1,0,0:0:0:0:
128,256,72259,1,0,0:0:0:0:
224,256,72509,1,0,0:0:0:0:
96,32,73759,5,0,0:0:0:0:
160,32,73884,1,0,0:0:0:0:
224,32,74009,1,0,0:0:0:0:
288,32,74384,1,0,0:0:0:0:
352,192,76009,2,0,L|192:192,1,140
352,256,77759,5,0,0:0:0:0:
288,256,77884,1,0,0:0:0:0:
224,256,78009,1,0,0:0:0:0:
160,256,78384,1,0,0:0:0:0:
352,192,80009,2,0,L|192:192,1,140
160,192,81759,5,0,0:0:0:0:
224,192,81884,1,0,0:0:0:0:
288,192,82009,1,0,0:0:0:0:
352,192,82384,1,0,0:0:0:0:
224,192,83634,2,0,P|256:160|320:96,2,105
128,64,85759,5,0,0:0:0:0:
128,256,86009,1,0,0:0:0:0:
288,256,86384,1,0,0:0:0:0:
320,256,86509,1,0,0:0:0:0:
352,256,86634,2,0,L|416:256,1,35
256,192,87759,6,0,L|256:96,2,70
256,192,88509,1,0,0:0:0:0:
